  0
SECTION
  2
HEADER
  9
$ACADVER
  1
AC1012
  9
$DWGCODEPAGE
  3
dos932
  9
$INSBASE
 10
0.0
 20
0.0
 30
0.0
  9
$EXTMIN
 10
7.099159594740683
 20
29.99748257919853
 30
-0.0015258207003583
  9
$EXTMAX
 10
131.2608035483406
 20
93.50761436683546
 30
0.0000000349246037
  9
$LIMMIN
 10
0.0
 20
0.0
  9
$LIMMAX
 10
148.5
 20
105.0
  9
$ORTHOMODE
 70
     0
  9
$REGENMODE
 70
     1
  9
$FILLMODE
 70
     1
  9
$QTEXTMODE
 70
     0
  9
$MIRRTEXT
 70
     0
  9
$DRAGMODE
 70
     2
  9
$LTSCALE
 40
0.25
  9
$OSMODE
 70
    37
  9
$ATTMODE
 70
     1
  9
$TEXTSIZE
 40
1.5
  9
$TRACEWID
 40
1.0
  9
$TEXTSTYLE
  7
GOTHIC
  9
$CLAYER
  8
0
  9
$CELTYPE
  6
BYLAYER
  9
$CECOLOR
 62
   256
  9
$CELTSCALE
 40
1.0
  9
$DELOBJ
 70
     1
  9
$DISPSILH
 70
     0
  9
$DIMSCALE
 40
1.0
  9
$DIMASZ
 40
1.0
  9
$DIMEXO
 40
0.0
  9
$DIMDLI
 40
1.5
  9
$DIMRND
 40
0.0
  9
$DIMDLE
 40
0.0
  9
$DIMEXE
 40
1.5
  9
$DIMTP
 40
0.0
  9
$DIMTM
 40
0.0
  9
$DIMTXT
 40
1.5
  9
$DIMCEN
 40
0.0
  9
$DIMTSZ
 40
0.0
  9
$DIMTOL
 70
     0
  9
$DIMLIM
 70
     0
  9
$DIMTIH
 70
     0
  9
$DIMTOH
 70
     0
  9
$DIMSE1
 70
     0
  9
$DIMSE2
 70
     0
  9
$DIMTAD
 70
     1
  9
$DIMZIN
 70
     8
  9
$DIMBLK
  1
OPEN30
  9
$DIMASO
 70
     1
  9
$DIMSHO
 70
     1
  9
$DIMPOST
  1

  9
$DIMAPOST
  1

  9
$DIMALT
 70
     0
  9
$DIMALTD
 70
     3
  9
$DIMALTF
 40
0.03937007874016
  9
$DIMLFAC
 40
1.0
  9
$DIMTOFL
 70
     1
  9
$DIMTVP
 40
0.0
  9
$DIMTIX
 70
     0
  9
$DIMSOXD
 70
     0
  9
$DIMSAH
 70
     0
  9
$DIMBLK1
  1

  9
$DIMBLK2
  1

  9
$DIMSTYLE
  2
VESSEL_ENGINEERING_ORIGIN0
  9
$DIMCLRD
 70
   256
  9
$DIMCLRE
 70
   256
  9
$DIMCLRT
 70
   256
  9
$DIMTFAC
 40
1.0
  9
$DIMGAP
 40
0.5
  9
$DIMJUST
 70
     0
  9
$DIMSD1
 70
     0
  9
$DIMSD2
 70
     0
  9
$DIMTOLJ
 70
     1
  9
$DIMTZIN
 70
     0
  9
$DIMALTZ
 70
     0
  9
$DIMALTTZ
 70
     0
  9
$DIMFIT
 70
     3
  9
$DIMUPT
 70
     0
  9
$DIMUNIT
 70
     2
  9
$DIMDEC
 70
     4
  9
$DIMTDEC
 70
     4
  9
$DIMALTU
 70
     2
  9
$DIMALTTD
 70
     2
  9
$DIMTXSTY
  7
STANDARD
  9
$DIMAUNIT
 70
     0
  9
$LUNITS
 70
     2
  9
$LUPREC
 70
     4
  9
$SKETCHINC
 40
1.0
  9
$FILLETRAD
 40
0.0
  9
$AUNITS
 70
     0
  9
$AUPREC
 70
     0
  9
$MENU
  1
.
  9
$ELEVATION
 40
0.0
  9
$PELEVATION
 40
0.0
  9
$THICKNESS
 40
0.0
  9
$LIMCHECK
 70
     0
  9
$BLIPMODE
 70
     1
  9
$CHAMFERA
 40
0.0
  9
$CHAMFERB
 40
0.0
  9
$CHAMFERC
 40
0.0
  9
$CHAMFERD
 40
0.0
  9
$SKPOLY
 70
     0
  9
$TDCREATE
 40
2452943.646856192
  9
$TDUPDATE
 40
2453515.485985347
  9
$TDINDWG
 40
0.3417535417
  9
$TDUSRTIMER
 40
0.3417534259
  9
$USRTIMER
 70
     1
  9
$ANGBASE
 50
0.0
  9
$ANGDIR
 70
     0
  9
$PDMODE
 70
     0
  9
$PDSIZE
 40
0.0
  9
$PLINEWID
 40
0.0
  9
$COORDS
 70
     1
  9
$SPLFRAME
 70
     0
  9
$SPLINETYPE
 70
     6
  9
$SPLINESEGS
 70
     8
  9
$ATTDIA
 70
     0
  9
$ATTREQ
 70
     1
  9
$HANDLING
 70
-16383
  9
$HANDSEED
  5
2924
  9
$SURFTAB1
 70
     6
  9
$SURFTAB2
 70
     6
  9
$SURFTYPE
 70
     6
  9
$SURFU
 70
     6
  9
$SURFV
 70
     6
  9
$UCSNAME
  2

  9
$UCSORG
 10
0.0
 20
0.0
 30
0.0
  9
$UCSXDIR
 10
1.0
 20
0.0
 30
0.0
  9
$UCSYDIR
 10
0.0
 20
1.0
 30
0.0
  9
$PUCSNAME
  2

  9
$PUCSORG
 10
0.0
 20
0.0
 30
0.0
  9
$PUCSXDIR
 10
1.0
 20
0.0
 30
0.0
  9
$PUCSYDIR
 10
0.0
 20
1.0
 30
0.0
  9
$USERI1
 70
     0
  9
$USERI2
 70
     0
  9
$USERI3
 70
     0
  9
$USERI4
 70
     0
  9
$USERI5
 70
     0
  9
$USERR1
 40
0.0
  9
$USERR2
 40
0.0
  9
$USERR3
 40
0.0
  9
$USERR4
 40
0.0
  9
$USERR5
 40
0.0
  9
$WORLDVIEW
 70
     1
  9
$SHADEDGE
 70
     3
  9
$SHADEDIF
 70
    70
  9
$TILEMODE
 70
     1
  9
$MAXACTVP
 70
    64
  9
$PINSBASE
 10
0.0
 20
0.0
 30
0.0
  9
$PLIMCHECK
 70
     0
  9
$PEXTMIN
 10
1.000000000000000E+20
 20
1.000000000000000E+20
 30
1.000000000000000E+20
  9
$PEXTMAX
 10
-1.000000000000000E+20
 20
-1.000000000000000E+20
 30
-1.000000000000000E+20
  9
$PLIMMIN
 10
-3.17498779296875
 20
-3.174999952316283
  9
$PLIMMAX
 10
293.8145141601562
 20
206.819491624832
  9
$UNITMODE
 70
     0
  9
$VISRETAIN
 70
     1
  9
$PLINEGEN
 70
     0
  9
$PSLTSCALE
 70
     0
  9
$TREEDEPTH
 70
  3020
  9
$PICKSTYLE
 70
     3
  9
$CMLSTYLE
  2
STANDARD
  9
$CMLJUST
 70
     0
  9
$CMLSCALE
 40
1.0
  9
$SAVEIMAGES
 70
     1
  0
ENDSEC
  0
SECTION
  2
CLASSES
  0
CLASS
  1
ACDBDICTIONARYWDFLT
  2
AcDbDictionaryWithDefault
  3
AutoCAD 2000
 90
    32768
280
     0
281
     0
  0
CLASS
  1
ACDBPLACEHOLDER
  2
AcDbPlaceHolder
  3
AutoCAD 2000
 90
    32768
280
     0
281
     0
  0
CLASS
  1
LAYOUT
  2
AcDbLayout
  3
AutoCAD 2000
 90
    32768
280
     0
281
     0
  0
CLASS
  1
DICTIONARYVAR
  2
AcDbDictionaryVar
  3
AutoCAD 2000
 90
    32768
280
     0
281
     0
  0
CLASS
  1
LONG_TRANSACTION
  2
AcDbLongTransaction
  3
AutoCAD 2000
 90
    32768
280
     0
281
     0
  0
CLASS
  1
LWPOLYLINE
  2
AcDbPolyline
  3
AutoCAD 2000
 90
    32768
280
     0
281
     1
  0
CLASS
  1
HATCH
  2
AcDbHatch
  3
AutoCAD 2000
 90
    32768
280
     0
281
     1
  0
CLASS
  1
XRECORD
  2
AcDbXrecord
  3
AutoCAD 2000
 90
    32768
280
     0
281
     0
  0
CLASS
  1
LONG_TRANSACTION
  2
AcDbLongTransaction
  3
AutoCAD 2000
 90
    32768
280
     0
281
     0
  0
CLASS
  1
LWPOLYLINE
  2
AcDbPolyline
  3
AutoCAD 2000
 90
    32768
280
     0
281
     1
  0
CLASS
  1
HATCH
  2
AcDbHatch
  3
AutoCAD 2000
 90
    32768
280
     0
281
     1
  0
CLASS
  1
XRECORD
  2
AcDbXrecord
  3
AutoCAD 2000
 90
    32768
280
     0
281
     0
  0
ENDSEC
  0
SECTION
  2
TABLES
  0
TABLE
  2
VPORT
  5
207F
330
0
100
AcDbSymbolTable
 70
     2
  0
VPORT
  5
2921
330
207F
100
AcDbSymbolTableRecord
100
AcDbViewportTableRecord
  2
*ACTIVE
 70
     0
 10
0.0
 20
0.0
 11
1.0
 21
1.0
 12
69.17998157154068
 22
61.752548473017
 13
0.0
 23
0.0
 14
1.5
 24
1.5
 15
1.5
 25
1.5
 16
0.0
 26
0.0
 36
1.0
 17
0.0
 27
0.0
 37
0.0
 40
82.63379564615357
 41
1.510025062656641
 42
50.0
 43
0.0
 44
0.0
 50
0.0
 51
0.0
 71
     0
 72
 20000
 73
     1
 74
     3
 75
     0
 76
     0
 77
     0
 78
     0
  0
ENDTAB
  0
TABLE
  2
LTYPE
  5
207C
330
0
100
AcDbSymbolTable
 70
     2
  0
LTYPE
  5
208A
330
207C
100
AcDbSymbolTableRecord
100
AcDbLinetypeTableRecord
  2
BYBLOCK
 70
     0
  3

 72
    65
 73
     0
 40
0.0
  0
LTYPE
  5
208B
330
207C
100
AcDbSymbolTableRecord
100
AcDbLinetypeTableRecord
  2
BYLAYER
 70
     0
  3

 72
    65
 73
     0
 40
0.0
  0
LTYPE
  5
208C
330
207C
100
AcDbSymbolTableRecord
100
AcDbLinetypeTableRecord
  2
CONTINUOUS
 70
     0
  3
Solid line
 72
    65
 73
     0
 40
0.0
  0
LTYPE
  5
209B
330
207C
100
AcDbSymbolTableRecord
100
AcDbLinetypeTableRecord
  2
CENTER2
 70
     0
  3
Center (.5x) ___ _ ___ _ ___ _ ___ _ ___ _ ___
 72
    65
 73
     4
 40
28.57499999999999
 49
19.05
 74
     0
 49
-3.174999999999998
 74
     0
 49
3.174999999999998
 74
     0
 49
-3.174999999999998
 74
     0
  0
ENDTAB
  0
TABLE
  2
LAYER
  5
2079
330
0
100
AcDbSymbolTable
 70
     7
  0
LAYER
  5
2087
330
2079
100
AcDbSymbolTableRecord
100
AcDbLayerTableRecord
  2
0
 70
     0
 62
     7
  6
CONTINUOUS
  0
LAYER
  5
20A6
330
2079
100
AcDbSymbolTableRecord
100
AcDbLayerTableRecord
  2
CENTER
 70
     0
 62
     4
  6
CENTER2
  0
LAYER
  5
20A7
330
2079
100
AcDbSymbolTableRecord
100
AcDbLayerTableRecord
  2
DIMENSION
 70
     0
 62
     3
  6
CONTINUOUS
  0
LAYER
  5
20A9
330
2079
100
AcDbSymbolTableRecord
100
AcDbLayerTableRecord
  2
LINE
 70
     0
 62
     2
  6
CONTINUOUS
  0
LAYER
  5
20AA
330
2079
100
AcDbSymbolTableRecord
100
AcDbLayerTableRecord
  2
TEXT
 70
     0
 62
     3
  6
CONTINUOUS
  0
LAYER
  5
20AB
330
2079
100
AcDbSymbolTableRecord
100
AcDbLayerTableRecord
  2
DEFPOINTS
 70
     0
 62
    -7
  6
CONTINUOUS
  0
LAYER
  5
20AD
330
2079
100
AcDbSymbolTableRecord
100
AcDbLayerTableRecord
  2
HATCHING
 70
     0
 62
     7
  6
CONTINUOUS
  0
ENDTAB
  0
TABLE
  2
STYLE
  5
207A
330
0
100
AcDbSymbolTable
 70
     2
  0
STYLE
  5
2088
330
207A
100
AcDbSymbolTableRecord
100
AcDbTextStyleTableRecord
  2
STANDARD
 70
     0
 40
0.0
 41
1.0
 50
0.0
 71
     0
 42
2.5
  3
txt
  4
extfont.shx
  0
STYLE
  5
2099
330
207A
100
AcDbSymbolTableRecord
100
AcDbTextStyleTableRecord
  2
GOTHIC
 70
     0
 40
0.0
 41
1.0
 50
0.0
 71
     0
 42
1.5
  3
txt
  4
extfont.shx
  0
ENDTAB
  0
TABLE
  2
VIEW
  5
207D
330
0
100
AcDbSymbolTable
 70
     0
  0
ENDTAB
  0
TABLE
  2
UCS
  5
207E
330
0
100
AcDbSymbolTable
 70
     0
  0
ENDTAB
  0
TABLE
  2
APPID
  5
2080
330
0
100
AcDbSymbolTable
 70
     4
  0
APPID
  5
2089
330
2080
100
AcDbSymbolTableRecord
100
AcDbRegAppTableRecord
  2
ACAD
 70
     0
  0
APPID
  5
20B2
330
2080
100
AcDbSymbolTableRecord
100
AcDbRegAppTableRecord
  2
ACAD_DSTYLE_DIMTEXT_FILL
 70
     0
  0
APPID
  5
20B3
330
2080
100
AcDbSymbolTableRecord
100
AcDbRegAppTableRecord
  2
ACAD_PSEXT
 70
     0
  0
APPID
  5
20B4
330
2080
100
AcDbSymbolTableRecord
100
AcDbRegAppTableRecord
  2
CONTENTBLOCKICON
 70
     0
  0
ENDTAB
  0
TABLE
  2
DIMSTYLE
  5
2081
330
0
100
AcDbSymbolTable
 70
     2
  0
DIMSTYLE
105
20B5
102
{ACAD_REACTORS
330
2885
330
2886
330
2887
330
289B
330
289C
330
28A7
330
28B3
330
28CD
330
28D1
330
28D2
330
28D8
330
28D9
102
}
330
2081
100
AcDbSymbolTableRecord
100
AcDbDimStyleTableRecord
  2
ISO-25
 70
     0
  3

  4

  5

  6

  7

 40
1.0
 41
2.5
 42
0.625
 43
3.75
 44
1.25
 45
0.0
 46
0.0
 47
0.0
 48
0.0
140
2.5
141
2.5
142
0.0
143
0.03937007874016
144
1.0
145
0.0
146
1.0
147
0.625
 71
     0
 72
     0
 73
     0
 74
     0
 75
     0
 76
     0
 77
     1
 78
     8
170
     0
171
     3
172
     1
173
     0
174
     0
175
     0
176
     0
177
     0
178
     0
270
     2
271
     4
272
     4
273
     2
274
     3
340
2099
275
     0
280
     0
281
     0
282
     0
283
     1
284
     8
285
     8
286
     8
287
     3
288
     0
  0
DIMSTYLE
105
20B7
330
2081
100
AcDbSymbolTableRecord
100
AcDbDimStyleTableRecord
  2
VESSEL_ENGINEERING_ORIGIN0
 70
     0
  3

  4

  5

  6

  7

 40
1.0
 41
1.0
 42
0.0
 43
1.5
 44
1.5
 45
0.0
 46
0.0
 47
0.0
 48
0.0
140
1.5
141
0.0
142
0.0
143
0.03937007874016
144
1.0
145
0.0
146
1.0
147
0.5
 71
     0
 72
     0
 73
     0
 74
     0
 75
     0
 76
     0
 77
     1
 78
     8
170
     0
171
     3
172
     1
173
     0
174
     0
175
     0
176
   256
177
   256
178
   256
270
     2
271
     4
272
     4
273
     2
274
     3
340
2099
275
     0
280
     0
281
     0
282
     0
283
     1
284
     8
285
     8
286
     8
287
     3
288
     0
  0
ENDTAB
  0
TABLE
  2
BLOCK_RECORD
  5
2078
330
0
100
AcDbSymbolTable
 70
    32
  0
BLOCK_RECORD
  5
2095
102
{ACAD_XDICTIONARY
360
28FF
102
}
330
2078
100
AcDbSymbolTableRecord
100
AcDbBlockTableRecord
  2
*MODEL_SPACE
  0
BLOCK_RECORD
  5
2091
102
{ACAD_XDICTIONARY
360
28FD
102
}
330
2078
100
AcDbSymbolTableRecord
100
AcDbBlockTableRecord
  2
*PAPER_SPACE
  0
BLOCK_RECORD
  5
20C9
330
2078
100
AcDbSymbolTableRecord
100
AcDbBlockTableRecord
  2
_OPEN30
  0
BLOCK_RECORD
  5
241F
330
2078
100
AcDbSymbolTableRecord
100
AcDbBlockTableRecord
  2
*D1
  0
BLOCK_RECORD
  5
242A
330
2078
100
AcDbSymbolTableRecord
100
AcDbBlockTableRecord
  2
*D2
  0
BLOCK_RECORD
  5
2467
330
2078
100
AcDbSymbolTableRecord
100
AcDbBlockTableRecord
  2
*D3
  0
BLOCK_RECORD
  5
246E
330
2078
100
AcDbSymbolTableRecord
100
AcDbBlockTableRecord
  2
*U4
  0
BLOCK_RECORD
  5
24B6
330
2078
100
AcDbSymbolTableRecord
100
AcDbBlockTableRecord
  2
*D5
  0
BLOCK_RECORD
  5
24BD
330
2078
100
AcDbSymbolTableRecord
100
AcDbBlockTableRecord
  2
*U6
  0
BLOCK_RECORD
  5
24C3
330
2078
100
AcDbSymbolTableRecord
100
AcDbBlockTableRecord
  2
*D7
  0
BLOCK_RECORD
  5
24C9
330
2078
100
AcDbSymbolTableRecord
100
AcDbBlockTableRecord
  2
*U8
  0
BLOCK_RECORD
  5
24CF
330
2078
100
AcDbSymbolTableRecord
100
AcDbBlockTableRecord
  2
*D9
  0
BLOCK_RECORD
  5
24D6
330
2078
100
AcDbSymbolTableRecord
100
AcDbBlockTableRecord
  2
*U10
  0
BLOCK_RECORD
  5
24E7
330
2078
100
AcDbSymbolTableRecord
100
AcDbBlockTableRecord
  2
*D11
  0
BLOCK_RECORD
  5
24EE
330
2078
100
AcDbSymbolTableRecord
100
AcDbBlockTableRecord
  2
*U12
  0
BLOCK_RECORD
  5
2544
330
2078
100
AcDbSymbolTableRecord
100
AcDbBlockTableRecord
  2
*D13
  0
BLOCK_RECORD
  5
254B
330
2078
100
AcDbSymbolTableRecord
100
AcDbBlockTableRecord
  2
*U14
  0
BLOCK_RECORD
  5
255C
330
2078
100
AcDbSymbolTableRecord
100
AcDbBlockTableRecord
  2
*D15
  0
BLOCK_RECORD
  5
2563
330
2078
100
AcDbSymbolTableRecord
100
AcDbBlockTableRecord
  2
*U16
  0
BLOCK_RECORD
  5
2569
330
2078
100
AcDbSymbolTableRecord
100
AcDbBlockTableRecord
  2
*D17
  0
BLOCK_RECORD
  5
2570
330
2078
100
AcDbSymbolTableRecord
100
AcDbBlockTableRecord
  2
*U18
  0
BLOCK_RECORD
  5
2576
330
2078
100
AcDbSymbolTableRecord
100
AcDbBlockTableRecord
  2
*D19
  0
BLOCK_RECORD
  5
257D
330
2078
100
AcDbSymbolTableRecord
100
AcDbBlockTableRecord
  2
*U20
  0
BLOCK_RECORD
  5
2582
330
2078
100
AcDbSymbolTableRecord
100
AcDbBlockTableRecord
  2
*D21
  0
BLOCK_RECORD
  5
2589
330
2078
100
AcDbSymbolTableRecord
100
AcDbBlockTableRecord
  2
*U22
  0
BLOCK_RECORD
  5
274D
330
2078
100
AcDbSymbolTableRecord
100
AcDbBlockTableRecord
  2
*U23
  0
BLOCK_RECORD
  5
2751
330
2078
100
AcDbSymbolTableRecord
100
AcDbBlockTableRecord
  2
*U24
  0
BLOCK_RECORD
  5
27DF
330
2078
100
AcDbSymbolTableRecord
100
AcDbBlockTableRecord
  2
*U25
  0
BLOCK_RECORD
  5
27E3
330
2078
100
AcDbSymbolTableRecord
100
AcDbBlockTableRecord
  2
*X26
  0
BLOCK_RECORD
  5
2806
330
2078
100
AcDbSymbolTableRecord
100
AcDbBlockTableRecord
  2
*U27
  0
BLOCK_RECORD
  5
280F
330
2078
100
AcDbSymbolTableRecord
100
AcDbBlockTableRecord
  2
*U28
  0
BLOCK_RECORD
  5
2836
330
2078
100
AcDbSymbolTableRecord
100
AcDbBlockTableRecord
  2
*U29
  0
BLOCK_RECORD
  5
2901
330
2078
100
AcDbSymbolTableRecord
100
AcDbBlockTableRecord
  2
*D30
  0
BLOCK_RECORD
  5
290C
330
2078
100
AcDbSymbolTableRecord
100
AcDbBlockTableRecord
  2
*D31
  0
ENDTAB
  0
ENDSEC
  0
SECTION
  2
BLOCKS
  0
BLOCK
  5
2096
330
2095
100
AcDbEntity
  8
0
100
AcDbBlockBegin
  2
*MODEL_SPACE
 70
     0
 10
0.0
 20
0.0
 30
0.0
  3
*MODEL_SPACE
  1

  0
ENDBLK
  5
2097
330
2095
100
AcDbEntity
  8
0
100
AcDbBlockEnd
  0
BLOCK
  5
2092
330
2091
100
AcDbEntity
 67
     1
  8
0
100
AcDbBlockBegin
  2
*PAPER_SPACE
 70
     0
 10
0.0
 20
0.0
 30
0.0
  3
*PAPER_SPACE
  1

  0
ENDBLK
  5
2093
330
2091
100
AcDbEntity
 67
     1
  8
0
100
AcDbBlockEnd
  0
BLOCK
  5
20CA
330
20C9
100
AcDbEntity
  8
0
100
AcDbBlockBegin
  2
_OPEN30
 70
     0
 10
0.0
 20
0.0
 30
0.0
  3
_OPEN30
  1

  0
LINE
  5
20CB
330
20C9
100
AcDbEntity
  8
0
  6
BYBLOCK
 62
     0
100
AcDbLine
 10
-1.0
 20
0.26794919
 30
0.0
 11
0.0
 21
0.0
 31
0.0
  0
LINE
  5
20CC
330
20C9
100
AcDbEntity
  8
0
  6
BYBLOCK
 62
     0
100
AcDbLine
 10
0.0
 20
0.0
 30
0.0
 11
-1.0
 21
-0.26794919
 31
0.0
  0
LINE
  5
20CD
330
20C9
100
AcDbEntity
  8
0
  6
BYBLOCK
 62
     0
100
AcDbLine
 10
0.0
 20
0.0
 30
0.0
 11
-1.0
 21
0.0
 31
0.0
  0
ENDBLK
  5
20CE
330
20C9
100
AcDbEntity
  8
0
100
AcDbBlockEnd
  0
BLOCK
  5
2420
330
241F
100
AcDbEntity
  8
0
100
AcDbBlockBegin
  2
*D1
 70
     1
 10
0.0
 20
0.0
 30
0.0
  3
*D1
  1

  0
LINE
  5
2421
330
241F
100
AcDbEntity
  8
DIMENSION
100
AcDbLine
 10
60.25
 20
83.50000000000003
 30
0.0
 11
60.25
 21
88.49999999999999
 31
0.0
  0
LINE
  5
2422
330
241F
100
AcDbEntity
  8
DIMENSION
100
AcDbLine
 10
40.25
 20
87.0
 30
0.0
 11
59.25
 21
87.0
 31
0.0
  0
INSERT
  5
2423
330
241F
100
AcDbEntity
  8
DIMENSION
100
AcDbBlockReference
  2
_OPEN30
 10
39.25
 20
87.0
 30
0.0
 50
180.0
  0
INSERT
  5
2424
330
241F
100
AcDbEntity
  8
DIMENSION
100
AcDbBlockReference
  2
_OPEN30
 10
60.25
 20
87.0
 30
0.0
  0
TEXT
  5
2425
330
241F
100
AcDbEntity
  8
DIMENSION
100
AcDbText
 10
49.75
 20
86.3
 30
0.0
 40
1.5
  1
21
  7
GOTHIC
100
AcDbText
  0
POINT
  5
2426
330
241F
100
AcDbEntity
  8
DEFPOINTS
 62
     0
100
AcDbPoint
 10
39.25
 20
75.5
 30
0.0
  0
POINT
  5
2427
330
241F
100
AcDbEntity
  8
DEFPOINTS
 62
     0
100
AcDbPoint
 10
60.25
 20
83.50000000000003
 30
0.0
  0
POINT
  5
2428
330
241F
100
AcDbEntity
  8
DEFPOINTS
 62
     0
100
AcDbPoint
 10
60.25
 20
87.0
 30
0.0
  0
ENDBLK
  5
2429
330
241F
100
AcDbEntity
  8
0
100
AcDbBlockEnd
  0
BLOCK
  5
242B
330
242A
100
AcDbEntity
  8
0
100
AcDbBlockBegin
  2
*D2
 70
     1
 10
0.0
 20
0.0
 30
0.0
  3
*D2
  1

  0
LINE
  5
242C
330
242A
100
AcDbEntity
  8
DIMENSION
100
AcDbLine
 10
61.25
 20
87.0
 30
0.0
 11
73.25
 21
87.0
 31
0.0
  0
INSERT
  5
242D
330
242A
100
AcDbEntity
  8
DIMENSION
100
AcDbBlockReference
  2
_OPEN30
 10
60.25
 20
87.0
 30
0.0
 50
180.0
  0
INSERT
  5
242E
330
242A
100
AcDbEntity
  8
DIMENSION
100
AcDbBlockReference
  2
_OPEN30
 10
74.25
 20
87.0
 30
0.0
  0
TEXT
  5
242F
330
242A
100
AcDbEntity
  8
DIMENSION
100
AcDbText
 10
67.25
 20
86.3
 30
0.0
 40
1.5
  1
14
  7
GOTHIC
100
AcDbText
  0
POINT
  5
2430
330
242A
100
AcDbEntity
  8
DEFPOINTS
 62
     0
100
AcDbPoint
 10
60.25
 20
83.50000000000003
 30
0.0
  0
POINT
  5
2431
330
242A
100
AcDbEntity
  8
DEFPOINTS
 62
     0
100
AcDbPoint
 10
74.25
 20
84.09247405217694
 30
0.0
  0
POINT
  5
2432
330
242A
100
AcDbEntity
  8
DEFPOINTS
 62
     0
100
AcDbPoint
 10
74.25
 20
87.0
 30
0.0
  0
ENDBLK
  5
2433
330
242A
100
AcDbEntity
  8
0
100
AcDbBlockEnd
  0
BLOCK
  5
2468
330
2467
100
AcDbEntity
  8
0
100
AcDbBlockBegin
  2
*D3
 70
     1
 10
0.0
 20
0.0
 30
0.0
  3
*D3
  1

  0
LINE
  5
2469
330
2467
100
AcDbEntity
  8
DIMENSION
100
AcDbLine
 10
39.25
 20
75.5
 30
0.0
 11
33.75
 21
75.5
 31
0.0
  0
LINE
  5
246A
330
2467
100
AcDbEntity
  8
DIMENSION
100
AcDbLine
 10
39.25
 20
71.50000000000002
 30
0.0
 11
33.75
 21
71.50000000000002
 31
0.0
  0
LINE
  5
246B
330
2467
100
AcDbEntity
  8
DIMENSION
100
AcDbLine
 10
35.25
 20
74.5
 30
0.0
 11
35.25
 21
72.50000000000001
 31
0.0
  0
INSERT
  5
246C
330
2467
100
AcDbEntity
  8
DIMENSION
100
AcDbBlockReference
  2
_OPEN30
 10
35.25
 20
75.5
 30
0.0
 50
90.0
  0
INSERT
  5
246D
330
2467
100
AcDbEntity
  8
DIMENSION
100
AcDbBlockReference
  2
_OPEN30
 10
35.25
 20
71.50000000000002
 30
0.0
 50
270.0
  0
INSERT
  5
246F
330
2467
100
AcDbEntity
  8
0
100
AcDbBlockReference
  2
*U4
 10
0.0
 20
0.0
 30
0.0
  0
POINT
  5
2470
330
2467
100
AcDbEntity
  8
DEFPOINTS
 62
     0
100
AcDbPoint
 10
39.25
 20
75.5
 30
0.0
  0
POINT
  5
2471
330
2467
100
AcDbEntity
  8
DEFPOINTS
 62
     0
100
AcDbPoint
 10
39.25
 20
71.50000000000002
 30
0.0
  0
POINT
  5
2472
330
2467
100
AcDbEntity
  8
DEFPOINTS
 62
     0
100
AcDbPoint
 10
35.25
 20
71.50000000000002
 30
0.0
  0
ENDBLK
  5
2473
330
2467
100
AcDbEntity
  8
0
100
AcDbBlockEnd
  0
BLOCK
  5
2761
330
246E
100
AcDbEntity
  8
0
100
AcDbBlockBegin
  2
*U4
 70
     1
 10
0.0
 20
0.0
 30
0.0
  3
*U4
  1

  0
TEXT
  5
2762
330
246E
100
AcDbEntity
  8
DIMENSION
100
AcDbText
 10
34.75
 20
73.01649746192895
 30
0.0
 40
1.5
  1
4
 50
90.0
  7
GOTHIC
100
AcDbText
  0
ENDBLK
  5
2763
330
246E
100
AcDbEntity
  8
0
100
AcDbBlockEnd
  0
BLOCK
  5
24B7
330
24B6
100
AcDbEntity
  8
0
100
AcDbBlockBegin
  2
*D5
 70
     1
 10
0.0
 20
0.0
 30
0.0
  3
*D5
  1

  0
LINE
  5
24B8
330
24B6
100
AcDbEntity
  8
DIMENSION
100
AcDbLine
 10
15.1016488076344
 20
83.50000000000001
 30
0.0
 11
7.601648807634402
 21
83.50000000000001
 31
0.0
  0
LINE
  5
24B9
330
24B6
100
AcDbEntity
  8
DIMENSION
100
AcDbLine
 10
15.1016488076344
 20
63.50000000000001
 30
0.0
 11
7.601648807634401
 21
63.50000000000001
 31
0.0
  0
LINE
  5
24BA
330
24B6
100
AcDbEntity
  8
DIMENSION
100
AcDbLine
 10
9.101648807634402
 20
82.50000000000001
 30
0.0
 11
9.101648807634399
 21
64.50000000000001
 31
0.0
  0
INSERT
  5
24BB
330
24B6
100
AcDbEntity
  8
DIMENSION
100
AcDbBlockReference
  2
_OPEN30
 10
9.101648807634402
 20
83.50000000000001
 30
0.0
 50
90.0
  0
INSERT
  5
24BC
330
24B6
100
AcDbEntity
  8
DIMENSION
100
AcDbBlockReference
  2
_OPEN30
 10
9.101648807634399
 20
63.50000000000001
 30
0.0
 50
270.0
  0
INSERT
  5
24BE
330
24B6
100
AcDbEntity
  8
0
100
AcDbBlockReference
  2
*U6
 10
0.0
 20
0.0
 30
0.0
  0
POINT
  5
24BF
330
24B6
100
AcDbEntity
  8
DEFPOINTS
 62
     0
100
AcDbPoint
 10
15.1016488076344
 20
83.50000000000001
 30
0.0
  0
POINT
  5
24C0
330
24B6
100
AcDbEntity
  8
DEFPOINTS
 62
     0
100
AcDbPoint
 10
15.1016488076344
 20
63.50000000000001
 30
0.0
  0
POINT
  5
24C1
330
24B6
100
AcDbEntity
  8
DEFPOINTS
 62
     0
100
AcDbPoint
 10
9.101648807634399
 20
63.50000000000001
 30
0.0
  0
ENDBLK
  5
24C2
330
24B6
100
AcDbEntity
  8
0
100
AcDbBlockEnd
  0
BLOCK
  5
282D
330
24BD
100
AcDbEntity
  8
0
100
AcDbBlockBegin
  2
*U6
 70
     1
 10
0.0
 20
0.0
 30
0.0
  3
*U6
  1

  0
TEXT
  5
282E
330
24BD
100
AcDbEntity
  8
DIMENSION
100
AcDbText
 10
8.601648807634388
 20
72.51776649746195
 30
0.0
 40
1.5
  1
20
 50
90.0
  7
GOTHIC
100
AcDbText
  0
ENDBLK
  5
282F
330
24BD
100
AcDbEntity
  8
0
100
AcDbBlockEnd
  0
BLOCK
  5
24C4
330
24C3
100
AcDbEntity
  8
0
100
AcDbBlockBegin
  2
*D7
 70
     1
 10
0.0
 20
0.0
 30
0.0
  3
*D7
  1

  0
LINE
  5
24C5
330
24C3
100
AcDbEntity
  8
DIMENSION
100
AcDbLine
 10
18.10164880763439
 20
83.50000000000001
 30
0.0
 11
18.10164880763439
 21
88.71235668150395
 31
0.0
  0
LINE
  5
24C6
330
24C3
100
AcDbEntity
  8
DIMENSION
100
AcDbLine
 10
19.10164880763439
 20
87.21235668150395
 30
0.0
 11
23.10164880763438
 21
87.21235668150395
 31
0.0
  0
INSERT
  5
24C7
330
24C3
100
AcDbEntity
  8
DIMENSION
100
AcDbBlockReference
  2
_OPEN30
 10
18.10164880763439
 20
87.21235668150395
 30
0.0
 50
180.0
  0
INSERT
  5
24C8
330
24C3
100
AcDbEntity
  8
DIMENSION
100
AcDbBlockReference
  2
_OPEN30
 10
24.10164880763439
 20
87.21235668150395
 30
0.0
  0
INSERT
  5
24CA
330
24C3
100
AcDbEntity
  8
0
100
AcDbBlockReference
  2
*U8
 10
0.0
 20
0.0
 30
0.0
  0
POINT
  5
24CB
330
24C3
100
AcDbEntity
  8
DEFPOINTS
 62
     0
100
AcDbPoint
 10
18.10164880763439
 20
83.50000000000001
 30
0.0
  0
POINT
  5
24CC
330
24C3
100
AcDbEntity
  8
DEFPOINTS
 62
     0
100
AcDbPoint
 10
24.10164880763439
 20
83.50000000000001
 30
0.0
  0
POINT
  5
24CD
330
24C3
100
AcDbEntity
  8
DEFPOINTS
 62
     0
100
AcDbPoint
 10
24.10164880763439
 20
87.21235668150395
 30
0.0
  0
ENDBLK
  5
24CE
330
24C3
100
AcDbEntity
  8
0
100
AcDbBlockEnd
  0
BLOCK
  5
2830
330
24C9
100
AcDbEntity
  8
0
100
AcDbBlockBegin
  2
*U8
 70
     1
 10
0.0
 20
0.0
 30
0.0
  3
*U8
  1

  0
TEXT
  5
2831
330
24C9
100
AcDbEntity
  8
DIMENSION
100
AcDbText
 10
20.61433916296433
 20
87.71235668150394
 30
0.0
 40
1.5
  1
6
  7
GOTHIC
100
AcDbText
  0
ENDBLK
  5
2832
330
24C9
100
AcDbEntity
  8
0
100
AcDbBlockEnd
  0
BLOCK
  5
24D0
330
24CF
100
AcDbEntity
  8
0
100
AcDbBlockBegin
  2
*D9
 70
     1
 10
0.0
 20
0.0
 30
0.0
  3
*D9
  1

  0
LINE
  5
24D1
330
24CF
100
AcDbEntity
  8
DIMENSION
100
AcDbLine
 10
39.25
 20
75.5
 30
0.0
 11
39.25
 21
93.0
 31
0.0
  0
LINE
  5
24D2
330
24CF
100
AcDbEntity
  8
DIMENSION
100
AcDbLine
 10
74.25
 20
84.09247405217694
 30
0.0
 11
74.25
 21
93.0
 31
0.0
  0
LINE
  5
24D3
330
24CF
100
AcDbEntity
  8
DIMENSION
100
AcDbLine
 10
40.25
 20
91.5
 30
0.0
 11
73.25
 21
91.5
 31
0.0
  0
INSERT
  5
24D4
330
24CF
100
AcDbEntity
  8
DIMENSION
100
AcDbBlockReference
  2
_OPEN30
 10
39.25
 20
91.5
 30
0.0
 50
180.0
  0
INSERT
  5
24D5
330
24CF
100
AcDbEntity
  8
DIMENSION
100
AcDbBlockReference
  2
_OPEN30
 10
74.25
 20
91.5
 30
0.0
  0
INSERT
  5
24D7
330
24CF
100
AcDbEntity
  8
0
100
AcDbBlockReference
  2
*U10
 10
0.0
 20
0.0
 30
0.0
  0
POINT
  5
24D8
330
24CF
100
AcDbEntity
  8
DEFPOINTS
 62
     0
100
AcDbPoint
 10
39.25
 20
75.5
 30
0.0
  0
POINT
  5
24D9
330
24CF
100
AcDbEntity
  8
DEFPOINTS
 62
     0
100
AcDbPoint
 10
74.25
 20
84.09247405217694
 30
0.0
  0
POINT
  5
24DA
330
24CF
100
AcDbEntity
  8
DEFPOINTS
 62
     0
100
AcDbPoint
 10
74.25
 20
91.5
 30
0.0
  0
ENDBLK
  5
24DB
330
24CF
100
AcDbEntity
  8
0
100
AcDbBlockEnd
  0
BLOCK
  5
2824
330
24D6
100
AcDbEntity
  8
0
100
AcDbBlockBegin
  2
*U10
 70
     1
 10
0.0
 20
0.0
 30
0.0
  3
*U10
  1

  0
TEXT
  5
2825
330
24D6
100
AcDbEntity
  8
DIMENSION
100
AcDbText
 10
55.79060913705585
 20
92.0
 30
0.0
 40
1.5
  1
35
  7
GOTHIC
100
AcDbText
  0
ENDBLK
  5
2826
330
24D6
100
AcDbEntity
  8
0
100
AcDbBlockEnd
  0
BLOCK
  5
24E8
330
24E7
100
AcDbEntity
  8
0
100
AcDbBlockBegin
  2
*D11
 70
     1
 10
0.0
 20
0.0
 30
0.0
  3
*D11
  1

  0
LINE
  5
24E9
330
24E7
100
AcDbEntity
  8
DIMENSION
100
AcDbLine
 10
22.6016488076344
 20
63.50000000000001
 30
0.0
 11
22.6016488076344
 21
57.21235668150391
 31
0.0
  0
LINE
  5
24EA
330
24E7
100
AcDbEntity
  8
DIMENSION
100
AcDbLine
 10
24.10164880763439
 20
63.50000000000001
 30
0.0
 11
24.10164880763439
 21
57.21235668150391
 31
0.0
  0
LINE
  5
24EB
330
24E7
100
AcDbEntity
  8
DIMENSION
100
AcDbLine
 10
21.60164880763439
 20
58.7123566815039
 30
0.0
 11
20.60164880763438
 21
58.7123566815039
 31
0.0
  0
LINE
  5
24EC
330
24E7
100
AcDbEntity
  8
DIMENSION
100
AcDbLine
 10
25.1016488076344
 20
58.7123566815039
 30
0.0
 11
26.1016488076344
 21
58.7123566815039
 31
0.0
  0
LINE
  5
24ED
330
24E7
100
AcDbEntity
  8
DIMENSION
100
AcDbLine
 10
16.60485380985262
 20
58.7123566815039
 30
0.0
 11
22.6016488076344
 21
58.7123566815039
 31
0.0
  0
INSERT
  5
24EF
330
24E7
100
AcDbEntity
  8
0
100
AcDbBlockReference
  2
*U12
 10
0.0
 20
0.0
 30
0.0
  0
LINE
  5
24F0
330
24E7
100
AcDbEntity
  8
DIMENSION
100
AcDbLine
 10
22.6016488076344
 20
58.7123566815039
 30
0.0
 11
24.10164880763439
 21
58.7123566815039
 31
0.0
  0
LINE
  5
24F1
330
24E7
100
AcDbEntity
  8
DIMENSION
100
AcDbLine
 10
22.6016488076344
 20
58.7123566815039
 30
0.0
 11
24.10164880763439
 21
58.7123566815039
 31
0.0
  0
INSERT
  5
24F2
330
24E7
100
AcDbEntity
  8
DIMENSION
100
AcDbBlockReference
  2
_OPEN30
 10
22.6016488076344
 20
58.7123566815039
 30
0.0
  0
INSERT
  5
24F3
330
24E7
100
AcDbEntity
  8
DIMENSION
100
AcDbBlockReference
  2
_OPEN30
 10
24.10164880763439
 20
58.7123566815039
 30
0.0
 50
180.0
  0
POINT
  5
24F4
330
24E7
100
AcDbEntity
  8
DEFPOINTS
 62
     0
100
AcDbPoint
 10
22.6016488076344
 20
63.50000000000001
 30
0.0
  0
POINT
  5
24F5
330
24E7
100
AcDbEntity
  8
DEFPOINTS
 62
     0
100
AcDbPoint
 10
24.10164880763439
 20
63.50000000000001
 30
0.0
  0
POINT
  5
24F6
330
24E7
100
AcDbEntity
  8
DEFPOINTS
 62
     0
100
AcDbPoint
 10
24.10164880763439
 20
58.7123566815039
 30
0.0
  0
ENDBLK
  5
24F7
330
24E7
100
AcDbEntity
  8
0
100
AcDbBlockEnd
  0
BLOCK
  5
2833
330
24EE
100
AcDbEntity
  8
0
100
AcDbBlockBegin
  2
*U12
 70
     1
 10
0.0
 20
0.0
 30
0.0
  3
*U12
  1

  0
TEXT
  5
2834
330
24EE
100
AcDbEntity
  8
DIMENSION
100
AcDbText
 10
16.91449847990337
 20
59.21235668150391
 30
0.0
 40
1.5
  1
1.5
  7
GOTHIC
100
AcDbText
  0
ENDBLK
  5
2835
330
24EE
100
AcDbEntity
  8
0
100
AcDbBlockEnd
  0
BLOCK
  5
2545
330
2544
100
AcDbEntity
  8
0
100
AcDbBlockBegin
  2
*D13
 70
     1
 10
0.0
 20
0.0
 30
0.0
  3
*D13
  1

  0
LINE
  5
2546
330
2544
100
AcDbEntity
  8
DIMENSION
100
AcDbLine
 10
119.4646428928642
 20
48.0
 30
0.0
 11
131.25
 21
48.0
 31
0.0
  0
LINE
  5
2547
330
2544
100
AcDbEntity
  8
DIMENSION
100
AcDbLine
 10
119.4646428928642
 20
39.0
 30
0.0
 11
131.25
 21
39.0
 31
0.0
  0
LINE
  5
2548
330
2544
100
AcDbEntity
  8
DIMENSION
100
AcDbLine
 10
129.75
 20
47.0
 30
0.0
 11
129.75
 21
40.0
 31
0.0
  0
INSERT
  5
2549
330
2544
100
AcDbEntity
  8
DIMENSION
100
AcDbBlockReference
  2
_OPEN30
 10
129.75
 20
48.0
 30
0.0
 50
90.0
  0
INSERT
  5
254A
330
2544
100
AcDbEntity
  8
DIMENSION
100
AcDbBlockReference
  2
_OPEN30
 10
129.75
 20
39.0
 30
0.0
 50
270.0
  0
INSERT
  5
254C
330
2544
100
AcDbEntity
  8
0
100
AcDbBlockReference
  2
*U14
 10
0.0
 20
0.0
 30
0.0
  0
POINT
  5
254D
330
2544
100
AcDbEntity
  8
DEFPOINTS
 62
     0
100
AcDbPoint
 10
119.4646428928642
 20
48.0
 30
0.0
  0
POINT
  5
254E
330
2544
100
AcDbEntity
  8
DEFPOINTS
 62
     0
100
AcDbPoint
 10
119.4646428928642
 20
39.0
 30
0.0
  0
POINT
  5
254F
330
2544
100
AcDbEntity
  8
DEFPOINTS
 62
     0
100
AcDbPoint
 10
129.75
 20
39.0
 30
0.0
  0
ENDBLK
  5
2550
330
2544
100
AcDbEntity
  8
0
100
AcDbBlockEnd
  0
BLOCK
  5
2813
330
254B
100
AcDbEntity
  8
0
100
AcDbBlockBegin
  2
*U14
 70
     1
 10
0.0
 20
0.0
 30
0.0
  3
*U14
  1

  0
TEXT
  5
2814
330
254B
100
AcDbEntity
  8
DIMENSION
100
AcDbText
 10
129.2499999999999
 20
41.57436548223352
 30
0.0
 40
1.5
  1
9
 50
90.0
  7
GOTHIC
100
AcDbText
  0
TEXT
  5
2815
330
254B
100
AcDbEntity
  8
DIMENSION
100
AcDbText
 10
127.6621827411166
 20
42.54898477157361
 30
0.0
 40
1.199999999999999
  1
 0
 50
90.0
  7
GOTHIC
100
AcDbText
  0
TEXT
  5
2816
330
254B
100
AcDbEntity
  8
DIMENSION
100
AcDbText
 10
129.2499999999999
 20
42.51243654822338
 30
0.0
 40
1.199999999999999
  1
-0.1
 50
90.0
  7
GOTHIC
100
AcDbText
  0
ENDBLK
  5
2817
330
254B
100
AcDbEntity
  8
0
100
AcDbBlockEnd
  0
BLOCK
  5
255D
330
255C
100
AcDbEntity
  8
0
100
AcDbBlockBegin
  2
*D15
 70
     1
 10
0.0
 20
0.0
 30
0.0
  3
*D15
  1

  0
LINE
  5
255E
330
255C
100
AcDbEntity
  8
DIMENSION
100
AcDbLine
 10
61.25
 20
39.0
 30
0.0
 11
61.25
 21
33.75
 31
0.0
  0
LINE
  5
255F
330
255C
100
AcDbEntity
  8
DIMENSION
100
AcDbLine
 10
74.25
 20
38.25
 30
0.0
 11
74.25
 21
33.75
 31
0.0
  0
LINE
  5
2560
330
255C
100
AcDbEntity
  8
DIMENSION
100
AcDbLine
 10
62.25
 20
35.25
 30
0.0
 11
73.25
 21
35.25
 31
0.0
  0
INSERT
  5
2561
330
255C
100
AcDbEntity
  8
DIMENSION
100
AcDbBlockReference
  2
_OPEN30
 10
61.25
 20
35.25
 30
0.0
 50
180.0
  0
INSERT
  5
2562
330
255C
100
AcDbEntity
  8
DIMENSION
100
AcDbBlockReference
  2
_OPEN30
 10
74.25
 20
35.25
 30
0.0
  0
INSERT
  5
2564
330
255C
100
AcDbEntity
  8
0
100
AcDbBlockReference
  2
*U16
 10
0.0
 20
0.0
 30
0.0
  0
POINT
  5
2565
330
255C
100
AcDbEntity
  8
DEFPOINTS
 62
     0
100
AcDbPoint
 10
61.25
 20
39.0
 30
0.0
  0
POINT
  5
2566
330
255C
100
AcDbEntity
  8
DEFPOINTS
 62
     0
100
AcDbPoint
 10
74.25
 20
38.25
 30
0.0
  0
POINT
  5
2567
330
255C
100
AcDbEntity
  8
DEFPOINTS
 62
     0
100
AcDbPoint
 10
74.25
 20
35.25
 30
0.0
  0
ENDBLK
  5
2568
330
255C
100
AcDbEntity
  8
0
100
AcDbBlockEnd
  0
BLOCK
  5
2818
330
2563
100
AcDbEntity
  8
0
100
AcDbBlockBegin
  2
*U16
 70
     1
 10
0.0
 20
0.0
 30
0.0
  3
*U16
  1

  0
TEXT
  5
2819
330
2563
100
AcDbEntity
  8
DIMENSION
100
AcDbText
 10
66.73730964467003
 20
35.75
 30
0.0
 40
1.5
  1
13
  7
GOTHIC
100
AcDbText
  0
ENDBLK
  5
281A
330
2563
100
AcDbEntity
  8
0
100
AcDbBlockEnd
  0
BLOCK
  5
256A
330
2569
100
AcDbEntity
  8
0
100
AcDbBlockBegin
  2
*D17
 70
     1
 10
0.0
 20
0.0
 30
0.0
  3
*D17
  1

  0
LINE
  5
256B
330
2569
100
AcDbEntity
  8
DIMENSION
100
AcDbLine
 10
39.25
 20
48.0
 30
0.0
 11
33.75
 21
48.0
 31
0.0
  0
LINE
  5
256C
330
2569
100
AcDbEntity
  8
DIMENSION
100
AcDbLine
 10
51.25
 20
42.0
 30
0.0
 11
33.74999999999999
 21
42.00000000000001
 31
0.0
  0
LINE
  5
256D
330
2569
100
AcDbEntity
  8
DIMENSION
100
AcDbLine
 10
35.24999999999999
 20
47.0
 30
0.0
 11
35.24999999999999
 21
43.0
 31
0.0
  0
INSERT
  5
256E
330
2569
100
AcDbEntity
  8
DIMENSION
100
AcDbBlockReference
  2
_OPEN30
 10
35.24999999999999
 20
48.0
 30
0.0
 50
90.0
  0
INSERT
  5
256F
330
2569
100
AcDbEntity
  8
DIMENSION
100
AcDbBlockReference
  2
_OPEN30
 10
35.24999999999999
 20
42.00000000000001
 30
0.0
 50
270.0
  0
INSERT
  5
2571
330
2569
100
AcDbEntity
  8
0
100
AcDbBlockReference
  2
*U18
 10
0.0
 20
0.0
 30
0.0
  0
POINT
  5
2572
330
2569
100
AcDbEntity
  8
DEFPOINTS
 62
     0
100
AcDbPoint
 10
39.25
 20
48.0
 30
0.0
  0
POINT
  5
2573
330
2569
100
AcDbEntity
  8
DEFPOINTS
 62
     0
100
AcDbPoint
 10
51.25
 20
42.0
 30
0.0
  0
POINT
  5
2574
330
2569
100
AcDbEntity
  8
DEFPOINTS
 62
     0
100
AcDbPoint
 10
35.24999999999999
 20
42.00000000000001
 30
0.0
  0
ENDBLK
  5
2575
330
2569
100
AcDbEntity
  8
0
100
AcDbBlockEnd
  0
BLOCK
  5
281B
330
2570
100
AcDbEntity
  8
0
100
AcDbBlockBegin
  2
*U18
 70
     1
 10
0.0
 20
0.0
 30
0.0
  3
*U18
  1

  0
TEXT
  5
281C
330
2570
100
AcDbEntity
  8
DIMENSION
100
AcDbText
 10
34.74999999999996
 20
44.51269035532996
 30
0.0
 40
1.5
  1
6
 50
90.0
  7
GOTHIC
100
AcDbText
  0
ENDBLK
  5
281D
330
2570
100
AcDbEntity
  8
0
100
AcDbBlockEnd
  0
BLOCK
  5
2577
330
2576
100
AcDbEntity
  8
0
100
AcDbBlockBegin
  2
*D19
 70
     1
 10
0.0
 20
0.0
 30
0.0
  3
*D19
  1

  0
LINE
  5
2578
330
2576
100
AcDbEntity
  8
DIMENSION
100
AcDbLine
 10
74.74421256509893
 20
74.42641995903492
 30
0.0
 11
73.75578743490094
 21
72.57358004096506
 31
0.0
  0
LINE
  5
2579
330
2576
100
AcDbEntity
  8
DIMENSION
100
AcDbLine
 10
73.28510880147334
 20
71.69127531807466
 30
0.0
 11
67.04822335025383
 21
60.0
 31
0.0
  0
LINE
  5
257A
330
2576
100
AcDbEntity
  8
DIMENSION
100
AcDbLine
 10
67.04822335025383
 20
60.0
 30
0.0
 11
62.45177664974622
 21
60.0
 31
0.0
  0
INSERT
  5
257B
330
2576
100
AcDbEntity
  8
DIMENSION
100
AcDbBlockReference
  2
_OPEN30
 10
75.21489119852659
 20
75.30872468192531
 30
0.0
 50
61.92164288136163
  0
INSERT
  5
257C
330
2576
100
AcDbEntity
  8
DIMENSION
100
AcDbBlockReference
  2
_OPEN30
 10
73.28510880147334
 20
71.69127531807466
 30
0.0
 50
241.9216428813617
  0
INSERT
  5
257E
330
2576
100
AcDbEntity
  8
0
100
AcDbBlockReference
  2
*U20
 10
0.0
 20
0.0
 30
0.0
  0
POINT
  5
257F
330
2576
100
AcDbEntity
  8
DEFPOINTS
 62
     0
100
AcDbPoint
 10
73.28510880147334
 20
71.69127531807466
 30
0.0
  0
POINT
  5
2580
330
2576
100
AcDbEntity
  8
DEFPOINTS
 62
     0
100
AcDbPoint
 10
75.21489119852659
 20
75.30872468192531
 30
0.0
  0
ENDBLK
  5
2581
330
2576
100
AcDbEntity
  8
0
100
AcDbBlockEnd
  0
BLOCK
  5
2827
330
257D
100
AcDbEntity
  8
0
100
AcDbBlockBegin
  2
*U20
 70
     1
 10
0.0
 20
0.0
 30
0.0
  3
*U20
  1

  0
TEXT
  5
2828
330
257D
100
AcDbEntity
  8
DIMENSION
100
AcDbText
 10
62.05583756345177
 20
60.74365482233504
 30
0.0
 40
1.5
  1
φ4.1
  7
GOTHIC
100
AcDbText
  0
ENDBLK
  5
2829
330
257D
100
AcDbEntity
  8
0
100
AcDbBlockEnd
  0
BLOCK
  5
2583
330
2582
100
AcDbEntity
  8
0
100
AcDbBlockBegin
  2
*D21
 70
     1
 10
0.0
 20
0.0
 30
0.0
  3
*D21
  1

  0
LINE
  5
2584
330
2582
100
AcDbEntity
  8
DIMENSION
100
AcDbLine
 10
39.25
 20
48.0
 30
0.0
 11
39.25
 21
52.5
 31
0.0
  0
LINE
  5
2585
330
2582
100
AcDbEntity
  8
DIMENSION
100
AcDbLine
 10
60.25
 20
48.0
 30
0.0
 11
60.25
 21
52.5
 31
0.0
  0
LINE
  5
2586
330
2582
100
AcDbEntity
  8
DIMENSION
100
AcDbLine
 10
40.25
 20
51.0
 30
0.0
 11
59.25
 21
51.0
 31
0.0
  0
INSERT
  5
2587
330
2582
100
AcDbEntity
  8
DIMENSION
100
AcDbBlockReference
  2
_OPEN30
 10
39.25
 20
51.0
 30
0.0
 50
180.0
  0
INSERT
  5
2588
330
2582
100
AcDbEntity
  8
DIMENSION
100
AcDbBlockReference
  2
_OPEN30
 10
60.25
 20
51.0
 30
0.0
  0
INSERT
  5
258A
330
2582
100
AcDbEntity
  8
0
100
AcDbBlockReference
  2
*U22
 10
0.0
 20
0.0
 30
0.0
  0
POINT
  5
258B
330
2582
100
AcDbEntity
  8
DEFPOINTS
 62
     0
100
AcDbPoint
 10
39.25
 20
48.0
 30
0.0
  0
POINT
  5
258C
330
2582
100
AcDbEntity
  8
DEFPOINTS
 62
     0
100
AcDbPoint
 10
60.25
 20
48.0
 30
0.0
  0
POINT
  5
258D
330
2582
100
AcDbEntity
  8
DEFPOINTS
 62
     0
100
AcDbPoint
 10
60.25
 20
51.0
 30
0.0
  0
ENDBLK
  5
258E
330
2582
100
AcDbEntity
  8
0
100
AcDbBlockEnd
  0
BLOCK
  5
282A
330
2589
100
AcDbEntity
  8
0
100
AcDbBlockBegin
  2
*U22
 70
     1
 10
0.0
 20
0.0
 30
0.0
  3
*U22
  1

  0
TEXT
  5
282B
330
2589
100
AcDbEntity
  8
DIMENSION
100
AcDbText
 10
48.9200507614213
 20
51.5
 30
0.0
 40
1.5
  1
21
  7
GOTHIC
100
AcDbText
  0
ENDBLK
  5
282C
330
2589
100
AcDbEntity
  8
0
100
AcDbBlockEnd
  0
BLOCK
  5
274E
330
274D
100
AcDbEntity
  8
0
100
AcDbBlockBegin
  2
*U23
 70
     1
 10
0.0
 20
0.0
 30
0.0
  3
*U23
  1

  0
TEXT
  5
274F
330
274D
100
AcDbEntity
  8
DIMENSION
 62
     3
100
AcDbText
 10
30.24468265285348
 20
72.58440225936965
 30
0.0
 40
1.5
  1
90°
 50
90.0
  7
GOTHIC
100
AcDbText
  0
ENDBLK
  5
2750
330
274D
100
AcDbEntity
  8
0
100
AcDbBlockEnd
  0
BLOCK
  5
2752
330
2751
100
AcDbEntity
  8
0
100
AcDbBlockBegin
  2
*U24
 70
     1
 10
0.0
 20
0.0
 30
0.0
  3
*U24
  1

  0
TEXT
  5
2753
330
2751
100
AcDbEntity
  8
DIMENSION
 62
     3
100
AcDbText
 10
17.54100687752917
 20
90.61509734543681
 30
0.0
 40
1.5
  1
35°
 50
17.50000000000001
  7
GOTHIC
100
AcDbText
  0
ENDBLK
  5
2754
330
2751
100
AcDbEntity
  8
0
100
AcDbBlockEnd
  0
BLOCK
  5
27E0
330
27DF
100
AcDbEntity
  8
0
100
AcDbBlockBegin
  2
*U25
 70
     1
 10
0.0
 20
0.0
 30
0.0
  3
*U25
  1

  0
TEXT
  5
27E1
330
27DF
100
AcDbEntity
  8
DIMENSION
 62
     3
100
AcDbText
 10
57.61684880531139
 20
38.80185302046646
 30
0.0
 40
1.5
  1
R2
 50
51.29708786181875
  7
GOTHIC
100
AcDbText
  0
ENDBLK
  5
27E2
330
27DF
100
AcDbEntity
  8
0
100
AcDbBlockEnd
  0
BLOCK
  5
27E4
330
27E3
100
AcDbEntity
  8
0
100
AcDbBlockBegin
  2
*X26
 70
     1
 10
0.0
 20
0.0
 30
0.0
  3
*X26
  1

  0
LINE
  5
27E5
330
27E3
100
AcDbEntity
  8
0
 62
     0
100
AcDbLine
 10
59.9350288425444
 20
46.50000000000001
 30
0.0
 11
60.25000000000002
 21
46.8149711574556
 31
0.0
  0
LINE
  5
27E6
330
27E3
100
AcDbEntity
  8
0
 62
     0
100
AcDbLine
 10
59.22792206135786
 20
46.50000000000001
 30
0.0
 11
60.25000000000002
 21
47.52207793864214
 31
0.0
  0
LINE
  5
27E7
330
27E3
100
AcDbEntity
  8
0
 62
     0
100
AcDbLine
 10
58.52081528017133
 20
46.50000000000002
 30
0.0
 11
60.0208152801713
 21
48.0
 31
0.0
  0
LINE
  5
27E8
330
27E3
100
AcDbEntity
  8
0
 62
     0
100
AcDbLine
 10
57.81370849898479
 20
46.50000000000001
 30
0.0
 11
59.31370849898478
 21
48.0
 31
0.0
  0
LINE
  5
27E9
330
27E3
100
AcDbEntity
  8
0
 62
     0
100
AcDbLine
 10
57.10660171779822
 20
46.50000000000001
 30
0.0
 11
58.60660171779821
 21
48.0
 31
0.0
  0
LINE
  5
27EA
330
27E3
100
AcDbEntity
  8
0
 62
     0
100
AcDbLine
 10
56.39949493661167
 20
46.50000000000001
 30
0.0
 11
57.89949493661167
 21
48.0
 31
0.0
  0
LINE
  5
27EB
330
27E3
100
AcDbEntity
  8
0
 62
     0
100
AcDbLine
 10
55.69238815542512
 20
46.50000000000001
 30
0.0
 11
57.19238815542513
 21
48.0
 31
0.0
  0
LINE
  5
27EC
330
27E3
100
AcDbEntity
  8
0
 62
     0
100
AcDbLine
 10
54.98528137423857
 20
46.50000000000001
 30
0.0
 11
56.48528137423856
 21
47.99999999999999
 31
0.0
  0
LINE
  5
27ED
330
27E3
100
AcDbEntity
  8
0
 62
     0
100
AcDbLine
 10
54.27817459305203
 20
46.50000000000001
 30
0.0
 11
55.77817459305202
 21
48.0
 31
0.0
  0
LINE
  5
27EE
330
27E3
100
AcDbEntity
  8
0
 62
     0
100
AcDbLine
 10
53.57106781186548
 20
46.5
 30
0.0
 11
55.07106781186546
 21
48.0
 31
0.0
  0
LINE
  5
27EF
330
27E3
100
AcDbEntity
  8
0
 62
     0
100
AcDbLine
 10
52.86396103067892
 20
46.5
 30
0.0
 11
54.36396103067892
 21
48.0
 31
0.0
  0
LINE
  5
27F0
330
27E3
100
AcDbEntity
  8
0
 62
     0
100
AcDbLine
 10
52.15685424949238
 20
46.49999999999999
 30
0.0
 11
53.65685424949239
 21
48.0
 31
0.0
  0
LINE
  5
27F1
330
27E3
100
AcDbEntity
  8
0
 62
     0
100
AcDbLine
 10
51.44974746830581
 20
46.49999999999999
 30
0.0
 11
52.94974746830583
 21
47.99999999999999
 31
0.0
  0
LINE
  5
27F2
330
27E3
100
AcDbEntity
  8
0
 62
     0
100
AcDbLine
 10
50.74264068711928
 20
46.49999999999997
 30
0.0
 11
52.24264068711928
 21
47.99999999999998
 31
0.0
  0
LINE
  5
27F3
330
27E3
100
AcDbEntity
  8
0
 62
     0
100
AcDbLine
 10
50.03553390593272
 20
46.5
 30
0.0
 11
51.53553390593272
 21
48.0
 31
0.0
  0
LINE
  5
27F4
330
27E3
100
AcDbEntity
  8
0
 62
     0
100
AcDbLine
 10
49.32842712474617
 20
46.5
 30
0.0
 11
50.82842712474619
 21
48.0
 31
0.0
  0
LINE
  5
27F5
330
27E3
100
AcDbEntity
  8
0
 62
     0
100
AcDbLine
 10
48.62132034355964
 20
46.49999999999999
 30
0.0
 11
50.12132034355964
 21
48.0
 31
0.0
  0
LINE
  5
27F6
330
27E3
100
AcDbEntity
  8
0
 62
     0
100
AcDbLine
 10
47.91421356237306
 20
46.49999999999999
 30
0.0
 11
49.41421356237309
 21
47.99999999999999
 31
0.0
  0
LINE
  5
27F7
330
27E3
100
AcDbEntity
  8
0
 62
     0
100
AcDbLine
 10
47.20710678118654
 20
46.49999999999997
 30
0.0
 11
48.70710678118654
 21
48.0
 31
0.0
  0
LINE
  5
27F8
330
27E3
100
AcDbEntity
  8
0
 62
     0
100
AcDbLine
 10
46.49999999999997
 20
46.5
 30
0.0
 11
47.99999999999998
 21
47.99999999999998
 31
0.0
  0
LINE
  5
27F9
330
27E3
100
AcDbEntity
  8
0
 62
     0
100
AcDbLine
 10
45.79289321881343
 20
46.5
 30
0.0
 11
47.29289321881346
 21
48.0
 31
0.0
  0
LINE
  5
27FA
330
27E3
100
AcDbEntity
  8
0
 62
     0
100
AcDbLine
 10
45.08578643762688
 20
46.49999999999999
 30
0.0
 11
46.58578643762688
 21
47.99999999999999
 31
0.0
  0
LINE
  5
27FB
330
27E3
100
AcDbEntity
  8
0
 62
     0
100
AcDbLine
 10
44.37867965644034
 20
46.49999999999999
 30
0.0
 11
45.87867965644032
 21
47.99999999999999
 31
0.0
  0
LINE
  5
27FC
330
27E3
100
AcDbEntity
  8
0
 62
     0
100
AcDbLine
 10
43.6715728752538
 20
46.49999999999997
 30
0.0
 11
45.1715728752538
 21
48.0
 31
0.0
  0
LINE
  5
27FD
330
27E3
100
AcDbEntity
  8
0
 62
     0
100
AcDbLine
 10
42.96446609406724
 20
46.5
 30
0.0
 11
44.46446609406724
 21
47.99999999999998
 31
0.0
  0
LINE
  5
27FE
330
27E3
100
AcDbEntity
  8
0
 62
     0
100
AcDbLine
 10
42.2573593128807
 20
46.50000000000001
 30
0.0
 11
43.75735931288068
 21
47.99999999999998
 31
0.0
  0
LINE
  5
27FF
330
27E3
100
AcDbEntity
  8
0
 62
     0
100
AcDbLine
 10
41.55025253169415
 20
46.49999999999999
 30
0.0
 11
43.05025253169414
 21
47.99999999999998
 31
0.0
  0
LINE
  5
2800
330
27E3
100
AcDbEntity
  8
0
 62
     0
100
AcDbLine
 10
40.8431457505076
 20
46.49999999999999
 30
0.0
 11
42.34314575050759
 21
47.99999999999999
 31
0.0
  0
LINE
  5
2801
330
27E3
100
AcDbEntity
  8
0
 62
     0
100
AcDbLine
 10
40.13603896932106
 20
46.49999999999997
 30
0.0
 11
41.63603896932104
 21
47.99999999999998
 31
0.0
  0
LINE
  5
2802
330
27E3
100
AcDbEntity
  8
0
 62
     0
100
AcDbLine
 10
39.42893218813451
 20
46.5
 30
0.0
 11
40.92893218813451
 21
47.99999999999998
 31
0.0
  0
LINE
  5
2803
330
27E3
100
AcDbEntity
  8
0
 62
     0
100
AcDbLine
 10
39.25
 20
47.02817459305202
 30
0.0
 11
40.22182540694795
 21
47.99999999999998
 31
0.0
  0
LINE
  5
2804
330
27E3
100
AcDbEntity
  8
0
 62
     0
100
AcDbLine
 10
39.25
 20
47.73528137423856
 30
0.0
 11
39.5147186257614
 21
47.99999999999998
 31
0.0
  0
ENDBLK
  5
2805
330
27E3
100
AcDbEntity
  8
0
100
AcDbBlockEnd
  0
BLOCK
  5
2807
330
2806
100
AcDbEntity
  8
0
100
AcDbBlockBegin
  2
*U27
 70
     1
 10
0.0
 20
0.0
 30
0.0
  3
*U27
  1

  0
INSERT
  5
2808
330
2806
100
AcDbEntity
  8
TEXT
100
AcDbBlockReference
  2
_OPEN30
 10
47.03553390593272
 20
48.0
 30
0.0
 50
302.0389905319564
  0
POLYLINE
  5
2809
330
2806
100
AcDbEntity
  8
TEXT
100
AcDb2dPolyline
 66
     1
 10
0.0
 20
0.0
 30
0.0
  0
VERTEX
  5
280A
330
2809
100
AcDbEntity
  8
TEXT
100
AcDbVertex
100
AcDb2dVertex
 10
46.50503765655686
 20
48.84768728278658
 30
0.0
  0
VERTEX
  5
280B
330
2809
100
AcDbEntity
  8
TEXT
100
AcDbVertex
100
AcDb2dVertex
 10
43.74999999999999
 20
53.25
 30
0.0
  0
VERTEX
  5
280C
330
2809
100
AcDbEntity
  8
TEXT
100
AcDbVertex
100
AcDb2dVertex
 10
32.64847715736037
 20
53.25
 30
0.0
  0
SEQEND
  5
280D
330
2809
100
AcDbEntity
  8
TEXT
  0
ENDBLK
  5
280E
330
2806
100
AcDbEntity
  8
0
100
AcDbBlockEnd
  0
BLOCK
  5
2810
330
280F
100
AcDbEntity
  8
0
100
AcDbBlockBegin
  2
*U28
 70
     1
 10
0.0
 20
0.0
 30
0.0
  3
*U28
  1

  0
TEXT
  5
2811
330
280F
100
AcDbEntity
  8
TEXT
 62
     3
100
AcDbText
 10
32.54949238578677
 20
53.93274111675125
 30
0.0
 40
1.5
  1
超硬チップ
  7
GOTHIC
100
AcDbText
  0
ENDBLK
  5
2812
330
280F
100
AcDbEntity
  8
0
100
AcDbBlockEnd
  0
BLOCK
  5
2837
330
2836
100
AcDbEntity
  8
0
100
AcDbBlockBegin
  2
*U29
 70
     1
 10
0.0
 20
0.0
 30
0.0
  3
*U29
  1

  0
INSERT
  5
2838
330
2836
100
AcDbEntity
  8
DIMENSION
100
AcDbBlockReference
  2
_OPEN30
 10
24.10164880763441
 20
65.75503326237306
 30
0.0
 50
124.3514764032424
  0
POLYLINE
  5
2839
330
2836
100
AcDbEntity
  8
DIMENSION
100
AcDb2dPolyline
 66
     1
 10
0.0
 20
0.0
 30
0.0
  0
VERTEX
  5
283A
330
2839
100
AcDbEntity
  8
DIMENSION
100
AcDbVertex
100
AcDb2dVertex
 10
24.66591682277903
 20
64.92944159145775
 30
0.0
  0
VERTEX
  5
283B
330
2839
100
AcDbEntity
  8
DIMENSION
100
AcDbVertex
100
AcDb2dVertex
 10
32.64847715736037
 20
53.25
 30
0.0
  0
SEQEND
  5
283C
330
2839
100
AcDbEntity
  8
DIMENSION
  0
ENDBLK
  5
283D
330
2836
100
AcDbEntity
  8
0
100
AcDbBlockEnd
  0
BLOCK
  5
290A
330
2901
100
AcDbEntity
  8
0
100
AcDbBlockBegin
  2
*D30
 70
     1
 10
0.0
 20
0.0
 30
0.0
  3
*D30
  1

  0
LINE
  5
2902
330
2901
100
AcDbEntity
  8
DIMENSION
 62
     0
100
AcDbLine
 10
60.25
 20
84.12500000000003
 30
0.0
 11
60.25
 21
88.25000000000001
 31
0.0
  0
LINE
  5
2903
330
2901
100
AcDbEntity
  8
DIMENSION
 62
     0
100
AcDbLine
 10
41.74999999999999
 20
87.0
 30
0.0
 11
57.75
 21
87.0
 31
0.0
  0
SOLID
  5
2904
330
2901
100
AcDbEntity
  8
DIMENSION
 62
     0
100
AcDbTrace
 10
41.74999999999999
 20
87.41666666666668
 30
0.0
 11
41.74999999999999
 21
86.58333333333331
 31
0.0
 12
39.25
 22
87.0
 32
0.0
 13
39.25
 23
87.0
 33
0.0
  0
SOLID
  5
2905
330
2901
100
AcDbEntity
  8
DIMENSION
 62
     0
100
AcDbTrace
 10
57.75
 20
87.41666666666668
 30
0.0
 11
57.75
 21
86.58333333333331
 31
0.0
 12
60.25
 22
87.0
 32
0.0
 13
60.25
 23
87.0
 33
0.0
  0
MTEXT
  5
2906
330
2901
100
AcDbEntity
  8
DIMENSION
 62
     0
100
AcDbMText
 10
49.75
 20
88.87500000000001
 30
0.0
 40
2.5
 41
0.0
 71
     5
 72
     1
  1
\A1;21
  7
GOTHIC
1001
ACAD
1000
MTEXTBEGIN
1070
    73
1070
     1
1070
    44
1040
1.0
1070
    74
1070
     0
1000
MTEXTEND
  0
POINT
  5
2907
330
2901
100
AcDbEntity
  8
DEFPOINTS
 62
     0
100
AcDbPoint
 10
39.25
 20
75.5
 30
0.0
  0
POINT
  5
2908
330
2901
100
AcDbEntity
  8
DEFPOINTS
 62
     0
100
AcDbPoint
 10
60.25
 20
83.50000000000003
 30
0.0
  0
POINT
  5
2909
330
2901
100
AcDbEntity
  8
DEFPOINTS
 62
     0
100
AcDbPoint
 10
60.25
 20
87.0
 30
0.0
  0
ENDBLK
  5
290B
330
2901
100
AcDbEntity
  8
0
100
AcDbBlockEnd
  0
BLOCK
  5
2914
330
290C
100
AcDbEntity
  8
0
100
AcDbBlockBegin
  2
*D31
 70
     1
 10
0.0
 20
0.0
 30
0.0
  3
*D31
  1

  0
LINE
  5
290D
330
290C
100
AcDbEntity
  8
DIMENSION
 62
     0
100
AcDbLine
 10
62.75
 20
87.0
 30
0.0
 11
71.75
 21
87.0
 31
0.0
  0
SOLID
  5
290E
330
290C
100
AcDbEntity
  8
DIMENSION
 62
     0
100
AcDbTrace
 10
62.75
 20
87.41666666666668
 30
0.0
 11
62.75
 21
86.58333333333331
 31
0.0
 12
60.25
 22
87.0
 32
0.0
 13
60.25
 23
87.0
 33
0.0
  0
SOLID
  5
290F
330
290C
100
AcDbEntity
  8
DIMENSION
 62
     0
100
AcDbTrace
 10
71.75
 20
87.41666666666668
 30
0.0
 11
71.75
 21
86.58333333333331
 31
0.0
 12
74.25
 22
87.0
 32
0.0
 13
74.25
 23
87.0
 33
0.0
  0
MTEXT
  5
2910
330
290C
100
AcDbEntity
  8
DIMENSION
 62
     0
100
AcDbMText
 10
67.25
 20
88.87500000000001
 30
0.0
 40
2.5
 41
0.0
 71
     5
 72
     1
  1
\A1;14
  7
GOTHIC
1001
ACAD
1000
MTEXTBEGIN
1070
    73
1070
     1
1070
    44
1040
1.0
1070
    74
1070
     0
1000
MTEXTEND
  0
POINT
  5
2911
330
290C
100
AcDbEntity
  8
DEFPOINTS
 62
     0
100
AcDbPoint
 10
60.25
 20
83.50000000000003
 30
0.0
  0
POINT
  5
2912
330
290C
100
AcDbEntity
  8
DEFPOINTS
 62
     0
100
AcDbPoint
 10
74.25
 20
84.09247405217694
 30
0.0
  0
POINT
  5
2913
330
290C
100
AcDbEntity
  8
DEFPOINTS
 62
     0
100
AcDbPoint
 10
74.25
 20
87.0
 30
0.0
  0
ENDBLK
  5
2915
330
290C
100
AcDbEntity
  8
0
100
AcDbBlockEnd
  0
ENDSEC
  0
SECTION
  2
ENTITIES
  0
TEXT
  5
283E
330
2095
100
AcDbEntity
  8
TEXT
100
AcDbText
 10
9.0
 20
36.75
 30
0.0
 40
1.5
  1
◇ブレード仕様
  7
GOTHIC
 11
9.0
 21
37.5
 31
0.0
100
AcDbText
 73
     2
  0
TEXT
  5
283F
330
2095
100
AcDbEntity
  8
TEXT
100
AcDbText
 10
12.0
 20
33.75
 30
0.0
 40
1.5
  1
切刃有効長　＝　17
  7
GOTHIC
 11
12.0
 21
34.5
 31
0.0
100
AcDbText
 73
     2
  0
TEXT
  5
2840
330
2095
100
AcDbEntity
  8
TEXT
100
AcDbText
 10
12.0
 20
30.75
 30
0.0
 40
1.5
  1
刃開き最大　＝　 7
  7
GOTHIC
 11
12.0
 21
31.5
 31
0.0
100
AcDbText
 73
     2
  0
LINE
  5
2841
330
2095
100
AcDbEntity
  8
TEXT
100
AcDbLine
 10
12.0
 20
33.0
 30
0.0
 11
30.0
 21
33.0
 31
0.0
  0
LINE
  5
2842
330
2095
100
AcDbEntity
  8
TEXT
100
AcDbLine
 10
12.0
 20
30.0
 30
0.0
 11
30.0
 21
30.0
 31
0.0
  0
TEXT
  5
2843
330
2095
100
AcDbEntity
  8
TEXT
100
AcDbText
 10
15.0
 20
48.75
 30
0.0
 40
1.5
  1
ＮＴ１０ＡＪＢ
  7
GOTHIC
 11
15.0
 21
49.5
 31
0.0
100
AcDbText
 73
     2
  0
TEXT
  5
2845
330
2095
100
AcDbEntity
  8
TEXT
100
AcDbText
 10
15.0
 20
42.75
 30
0.0
 40
1.5
  1
2005/03/28
  7
GOTHIC
 11
15.0
 21
43.5
 31
0.0
100
AcDbText
 73
     2
  0
LINE
  5
2846
330
2095
100
AcDbEntity
  8
CENTER
100
AcDbLine
 10
74.25
 20
84.09247405217694
 30
0.0
 11
74.25
 21
62.61534278017528
 31
0.0
  0
LINE
  5
2847
330
2095
100
AcDbEntity
  8
CENTER
100
AcDbLine
 10
13.473796304136
 20
73.50000000000001
 30
0.0
 11
26.23515138584636
 21
73.50000000000001
 31
0.0
  0
LINE
  5
2848
330
2095
100
AcDbEntity
  8
CENTER
100
AcDbLine
 10
38.30008996682409
 20
73.5
 30
0.0
 11
41.25
 21
73.50000000000001
 31
0.0
  0
LINE
  5
2849
330
2095
100
AcDbEntity
  8
CENTER
100
AcDbLine
 10
60.25
 20
73.5
 30
0.0
 11
118.25
 21
73.5
 31
0.0
  0
LINE
  5
284A
330
2095
100
AcDbEntity
  8
LINE
100
AcDbLine
 10
74.25
 20
83.49999999999999
 30
0.0
 11
79.25
 21
83.49999999999999
 31
0.0
  0
LINE
  5
284B
330
2095
100
AcDbEntity
  8
LINE
100
AcDbLine
 10
79.25
 20
83.49999999999999
 30
0.0
 11
116.4774428236029
 21
79.63221373261268
 31
0.0
  0
LINE
  5
284C
330
2095
100
AcDbEntity
  8
LINE
100
AcDbLine
 10
118.5354799105118
 20
78.49009725791354
 30
0.0
 11
121.25
 21
75.0
 31
0.0
  0
LINE
  5
284D
330
2095
100
AcDbEntity
  8
LINE
100
AcDbLine
 10
121.25
 20
75.0
 30
0.0
 11
121.25
 21
73.49999999999997
 31
0.0
  0
LINE
  5
284E
330
2095
100
AcDbEntity
  8
LINE
100
AcDbLine
 10
55.25
 20
83.50000000000001
 30
0.0
 11
74.25
 21
83.49999999999999
 31
0.0
  0
ARC
  5
284F
330
2095
100
AcDbEntity
  8
LINE
100
AcDbCircle
 10
55.25
 20
63.5
 30
0.0
 40
20.0
100
AcDbArc
 50
90.0
 51
143.130102354156
  0
LINE
  5
2850
330
2095
100
AcDbEntity
  8
LINE
100
AcDbLine
 10
84.74999999999999
 20
73.49999999999998
 30
0.0
 11
84.75000000000001
 21
73.5
 31
0.0
  0
LINE
  5
2851
330
2095
100
AcDbEntity
  8
LINE
100
AcDbLine
 10
86.25000000000001
 20
75.0
 30
0.0
 11
116.7499999999999
 21
75.0
 31
0.0
  0
LINE
  5
2852
330
2095
100
AcDbEntity
  8
LINE
100
AcDbLine
 10
118.25
 20
73.5
 30
0.0
 11
118.25
 21
73.49999999999997
 31
0.0
  0
ARC
  5
2853
330
2095
100
AcDbEntity
  8
LINE
100
AcDbCircle
 10
86.25000000000001
 20
73.5
 30
0.0
 40
1.5
100
AcDbArc
 50
90.0
 51
180.0
  0
ARC
  5
2854
330
2095
100
AcDbEntity
  8
LINE
100
AcDbCircle
 10
116.7499999999999
 20
73.5
 30
0.0
 40
1.5
100
AcDbArc
 50
0.0
 51
90.0
  0
ARC
  5
2855
330
2095
100
AcDbEntity
  8
LINE
100
AcDbCircle
 10
116.1674232583828
 20
76.64827541736876
 30
0.0
 40
3.0
100
AcDbArc
 50
37.87498365109878
 51
84.06847307507998
  0
LINE
  5
2856
330
2095
100
AcDbEntity
  8
LINE
100
AcDbLine
 10
60.25
 20
73.5
 30
0.0
 11
60.25
 21
73.5
 31
0.0
  0
LINE
  5
2857
330
2095
100
AcDbEntity
  8
LINE
100
AcDbLine
 10
60.75
 20
74.0
 30
0.0
 11
63.25
 21
74.0
 31
0.0
  0
LINE
  5
2858
330
2095
100
AcDbEntity
  8
LINE
100
AcDbLine
 10
63.75
 20
73.5
 30
0.0
 11
63.75
 21
73.5
 31
0.0
  0
ARC
  5
2859
330
2095
100
AcDbEntity
  8
LINE
100
AcDbCircle
 10
60.75
 20
73.5
 30
0.0
 40
0.5
100
AcDbArc
 50
90.0
 51
180.0
  0
ARC
  5
285A
330
2095
100
AcDbEntity
  8
LINE
100
AcDbCircle
 10
63.25
 20
73.5
 30
0.0
 40
0.5
100
AcDbArc
 50
0.0
 51
90.0
  0
LINE
  5
285B
330
2095
100
AcDbEntity
  8
LINE
100
AcDbLine
 10
39.25
 20
75.5
 30
0.0
 11
41.25
 21
73.5
 31
0.0
  0
LINE
  5
285C
330
2095
100
AcDbEntity
  8
LINE
100
AcDbLine
 10
39.25
 20
71.5
 30
0.0
 11
41.25
 21
73.5
 31
0.0
  0
ARC
  5
285D
330
2095
100
AcDbEntity
  8
LINE
100
AcDbCircle
 10
63.25
 20
73.49999999999998
 30
0.0
 40
0.5
100
AcDbArc
 50
270.0
 51
0.0
  0
ARC
  5
285E
330
2095
100
AcDbEntity
  8
LINE
100
AcDbCircle
 10
60.75
 20
73.49999999999998
 30
0.0
 40
0.5
100
AcDbArc
 50
180.0
 51
270.0
  0
LINE
  5
285F
330
2095
100
AcDbEntity
  8
LINE
100
AcDbLine
 10
63.75
 20
73.49999999999998
 30
0.0
 11
63.75
 21
73.49999999999998
 31
0.0
  0
LINE
  5
2860
330
2095
100
AcDbEntity
  8
LINE
100
AcDbLine
 10
60.75
 20
72.99999999999998
 30
0.0
 11
63.25
 21
72.99999999999998
 31
0.0
  0
LINE
  5
2861
330
2095
100
AcDbEntity
  8
LINE
100
AcDbLine
 10
60.25
 20
73.49999999999998
 30
0.0
 11
60.25
 21
73.49999999999998
 31
0.0
  0
ARC
  5
2862
330
2095
100
AcDbEntity
  8
LINE
100
AcDbCircle
 10
116.1674232583828
 20
70.35172458263119
 30
0.0
 40
3.0
100
AcDbArc
 50
275.9315269249198
 51
322.1250163489012
  0
ARC
  5
2863
330
2095
100
AcDbEntity
  8
LINE
100
AcDbCircle
 10
116.7499999999999
 20
73.49999999999996
 30
0.0
 40
1.5
100
AcDbArc
 50
270.0
 51
0.0
  0
ARC
  5
2864
330
2095
100
AcDbEntity
  8
LINE
100
AcDbCircle
 10
86.25000000000001
 20
73.49999999999997
 30
0.0
 40
1.5
100
AcDbArc
 50
180.0
 51
270.0
  0
LINE
  5
2865
330
2095
100
AcDbEntity
  8
LINE
100
AcDbLine
 10
118.25
 20
73.49999999999996
 30
0.0
 11
118.25
 21
73.49999999999998
 31
0.0
  0
LINE
  5
2866
330
2095
100
AcDbEntity
  8
LINE
100
AcDbLine
 10
86.25000000000001
 20
71.99999999999997
 30
0.0
 11
116.7499999999999
 21
71.99999999999993
 31
0.0
  0
LINE
  5
2867
330
2095
100
AcDbEntity
  8
LINE
100
AcDbLine
 10
84.74999999999999
 20
73.49999999999998
 30
0.0
 11
84.75000000000001
 21
73.49999999999997
 31
0.0
  0
ARC
  5
2868
330
2095
100
AcDbEntity
  8
LINE
100
AcDbCircle
 10
55.25000000000002
 20
83.49999999999999
 30
0.0
 40
20.0
100
AcDbArc
 50
216.8698976458439
 51
270.0
  0
LINE
  5
2869
330
2095
100
AcDbEntity
  8
LINE
100
AcDbLine
 10
55.25
 20
63.49999999999997
 30
0.0
 11
74.25
 21
63.49999999999997
 31
0.0
  0
LINE
  5
286A
330
2095
100
AcDbEntity
  8
LINE
100
AcDbLine
 10
121.25
 20
71.99999999999993
 30
0.0
 11
121.25
 21
73.49999999999997
 31
0.0
  0
LINE
  5
286B
330
2095
100
AcDbEntity
  8
LINE
100
AcDbLine
 10
118.5354799105118
 20
68.50990274208642
 30
0.0
 11
121.25
 21
71.99999999999993
 31
0.0
  0
LINE
  5
286C
330
2095
100
AcDbEntity
  8
LINE
100
AcDbLine
 10
79.25
 20
63.49999999999997
 30
0.0
 11
116.4774428236029
 21
67.36778626738729
 31
0.0
  0
LINE
  5
286D
330
2095
100
AcDbEntity
  8
LINE
100
AcDbLine
 10
74.25
 20
63.49999999999997
 30
0.0
 11
79.25
 21
63.49999999999997
 31
0.0
  0
LINE
  5
286E
330
2095
100
AcDbEntity
  8
LINE
100
AcDbLine
 10
41.24999999999999
 20
73.50000000000001
 30
0.0
 11
60.25
 21
73.5
 31
0.0
  0
CIRCLE
  5
286F
330
2095
100
AcDbEntity
  8
LINE
100
AcDbCircle
 10
74.25
 20
73.5
 30
0.0
 40
2.049999999999998
  0
ARC
  5
2870
330
2095
100
AcDbEntity
  8
LINE
100
AcDbCircle
 10
74.25
 20
73.5
 30
0.0
 40
10.5
100
AcDbArc
 50
107.7527901619462
 51
180.0
  0
ARC
  5
2871
330
2095
100
AcDbEntity
  8
LINE
100
AcDbCircle
 10
74.25
 20
73.5
 30
0.0
 40
11.0
100
AcDbArc
 50
114.6199773286568
 51
177.3954221296438
  0
ARC
  5
2872
330
2095
100
AcDbEntity
  8
LINE
100
AcDbCircle
 10
74.25
 20
73.5
 30
0.0
 40
11.0
100
AcDbArc
 50
294.6199773286569
 51
354.4222097073076
  0
ARC
  5
2873
330
2095
100
AcDbEntity
  8
LINE
100
AcDbCircle
 10
74.25
 20
73.5
 30
0.0
 40
10.5
100
AcDbArc
 50
287.7527901619462
 51
0.0
  0
CIRCLE
  5
2874
330
2095
100
AcDbEntity
  8
LINE
100
AcDbCircle
 10
74.25
 20
73.5
 30
0.0
 40
5.25
  0
LINE
  5
2875
330
2095
100
AcDbEntity
  8
LINE
100
AcDbLine
 10
15.1016488076344
 20
73.50000000000001
 30
0.0
 11
15.1016488076344
 21
83.50000000000001
 31
0.0
  0
LINE
  5
2876
330
2095
100
AcDbEntity
  8
LINE
100
AcDbLine
 10
15.1016488076344
 20
83.50000000000001
 30
0.0
 11
24.10164880763439
 21
83.50000000000001
 31
0.0
  0
LINE
  5
2877
330
2095
100
AcDbEntity
  8
LINE
100
AcDbLine
 10
24.10164880763439
 20
83.50000000000001
 30
0.0
 11
24.10164880763439
 21
73.50000000000001
 31
0.0
  0
LINE
  5
2878
330
2095
100
AcDbEntity
  8
LINE
100
AcDbLine
 10
24.10164880763439
 20
73.50000000000001
 30
0.0
 11
18.10164880763439
 21
82.06888804045268
 31
0.0
  0
LINE
  5
2879
330
2095
100
AcDbEntity
  8
LINE
100
AcDbLine
 10
18.10164880763439
 20
82.06888804045268
 30
0.0
 11
18.10164880763439
 21
83.50000000000001
 31
0.0
  0
LINE
  5
287A
330
2095
100
AcDbEntity
  8
LINE
100
AcDbLine
 10
22.70123373121498
 20
75.50000000000001
 30
0.0
 11
24.10164880763439
 21
75.50000000000001
 31
0.0
  0
LINE
  5
287B
330
2095
100
AcDbEntity
  8
LINE
100
AcDbLine
 10
23.75154503852952
 20
74.00000000000002
 30
0.0
 11
15.1016488076344
 21
74.00000000000002
 31
0.0
  0
LINE
  5
287C
330
2095
100
AcDbEntity
  8
LINE
100
AcDbLine
 10
19.60164880763439
 20
73.50000000000001
 30
0.0
 11
19.60164880763439
 21
74.00000000000002
 31
0.0
  0
LINE
  5
287D
330
2095
100
AcDbEntity
  8
LINE
100
AcDbLine
 10
19.60164880763439
 20
73.50000000000001
 30
0.0
 11
19.60164880763439
 21
73.00000000000001
 31
0.0
  0
LINE
  5
287E
330
2095
100
AcDbEntity
  8
LINE
100
AcDbLine
 10
23.75154503852952
 20
73.00000000000001
 30
0.0
 11
15.1016488076344
 21
73.00000000000001
 31
0.0
  0
LINE
  5
287F
330
2095
100
AcDbEntity
  8
LINE
100
AcDbLine
 10
22.70123373121498
 20
71.50000000000002
 30
0.0
 11
24.10164880763439
 21
71.50000000000002
 31
0.0
  0
LINE
  5
2880
330
2095
100
AcDbEntity
  8
LINE
100
AcDbLine
 10
18.10164880763439
 20
64.93111195954735
 30
0.0
 11
18.10164880763439
 21
63.50000000000001
 31
0.0
  0
LINE
  5
2881
330
2095
100
AcDbEntity
  8
LINE
100
AcDbLine
 10
24.10164880763439
 20
73.50000000000001
 30
0.0
 11
18.10164880763439
 21
64.93111195954735
 31
0.0
  0
LINE
  5
2882
330
2095
100
AcDbEntity
  8
LINE
100
AcDbLine
 10
24.10164880763439
 20
63.50000000000001
 30
0.0
 11
24.10164880763439
 21
73.50000000000001
 31
0.0
  0
LINE
  5
2883
330
2095
100
AcDbEntity
  8
LINE
100
AcDbLine
 10
15.1016488076344
 20
63.50000000000001
 30
0.0
 11
24.10164880763439
 21
63.50000000000001
 31
0.0
  0
LINE
  5
2884
330
2095
100
AcDbEntity
  8
LINE
100
AcDbLine
 10
15.1016488076344
 20
73.50000000000001
 30
0.0
 11
15.1016488076344
 21
63.50000000000001
 31
0.0
  0
DIMENSION
  5
2885
330
2095
100
AcDbEntity
  8
DIMENSION
100
AcDbDimension
  2
*D30
 10
60.25
 20
87.0
 30
0.0
 11
49.75
 21
88.87500000000001
 31
0.0
 70
    32
  3
ISO-25
100
AcDbAlignedDimension
 13
39.25
 23
75.5
 33
0.0
 14
60.25
 24
83.50000000000003
 34
0.0
100
AcDbRotatedDimension
1001
ACAD
1000
DSTYLE
1002
{
1070
   287
1070
     3
1070
   287
1070
     3
1070
   279
1070
     0
1070
    75
1070
     1
1002
}
  0
DIMENSION
  5
2886
330
2095
100
AcDbEntity
  8
DIMENSION
100
AcDbDimension
  2
*D31
 10
74.25
 20
87.0
 30
0.0
 11
67.25
 21
88.87500000000001
 31
0.0
 70
    32
  3
ISO-25
100
AcDbAlignedDimension
 13
60.25
 23
83.50000000000003
 33
0.0
 14
74.25
 24
84.09247405217694
 34
0.0
100
AcDbRotatedDimension
1001
ACAD
1000
DSTYLE
1002
{
1070
   287
1070
     3
1070
   287
1070
     3
1070
    75
1070
     1
1070
   279
1070
     0
1070
    76
1070
     1
1002
}
  0
DIMENSION
  5
2887
330
2095
100
AcDbEntity
  8
DIMENSION
100
AcDbDimension
  2
*D3
 10
35.25
 20
71.50000000000002
 30
0.0
 11
33.99999999999999
 21
73.50000000000003
 31
0.0
  3
ISO-25
100
AcDbAlignedDimension
 13
39.25
 23
75.5
 33
0.0
 14
39.25
 24
71.50000000000002
 34
0.0
 50
90.0
100
AcDbRotatedDimension
  0
LINE
  5
2888
330
2095
100
AcDbEntity
  8
DIMENSION
 62
     3
100
AcDbLine
 10
39.25
 20
75.5
 30
0.0
 11
32.76320034123977
 21
81.98679965876022
 31
0.0
  0
LINE
  5
2889
330
2095
100
AcDbEntity
  8
DIMENSION
 62
     3
100
AcDbLine
 10
39.25
 20
71.5
 30
0.0
 11
32.76320034123973
 21
65.01320034123978
 31
0.0
  0
ARC
  5
288A
330
2095
100
AcDbEntity
  8
DIMENSION
 62
     3
100
AcDbCircle
 10
41.25
 20
73.5
 30
0.0
 40
10.50214717856207
100
AcDbArc
 50
140.4576883685163
 51
219.5423116314837
  0
INSERT
  5
288B
330
2095
100
AcDbEntity
  8
DIMENSION
 62
     3
100
AcDbBlockReference
  2
_OPEN30
 10
33.82386051301959
 20
80.92613948698041
 30
0.0
 50
47.72884418425839
  0
INSERT
  5
288C
330
2095
100
AcDbEntity
  8
DIMENSION
 62
     3
100
AcDbBlockReference
  2
_OPEN30
 10
33.82386051301959
 20
66.07386051301959
 30
0.0
 50
312.2711558157416
  0
INSERT
  5
288D
330
2095
100
AcDbEntity
  8
0
100
AcDbBlockReference
  2
*U23
 10
0.0
 20
0.0
 30
0.0
  0
TEXT
  5
288E
330
2095
100
AcDbEntity
  8
TEXT
100
AcDbText
 10
69.3440392857321
 20
68.55908302223482
 30
0.0
 40
2.0
  1
Ｖ
 50
127.5000000000002
  7
GOTHIC
 72
     1
 11
67.9825086116994
 21
68.69078471083124
 31
0.0
100
AcDbText
 73
     2
  0
TEXT
  5
288F
330
2095
100
AcDbEntity
  8
TEXT
100
AcDbText
 10
68.23240242921305
 20
69.99719675300378
 30
0.0
 40
2.0
  1
Ｅ
 50
112.4999999999995
  7
GOTHIC
 72
     1
 11
66.95135169316102
 21
70.47680088431589
 31
0.0
100
AcDbText
 73
     2
  0
TEXT
  5
2890
330
2095
100
AcDbEntity
  8
TEXT
100
AcDbText
 10
67.53085490259299
 20
71.67402073639944
 30
0.0
 40
2.0
  1
Ｓ
 50
97.49999999999971
  7
GOTHIC
 72
     1
 11
66.41758559514714
 21
72.46884308146161
 31
0.0
100
AcDbText
 73
     2
  0
TEXT
  5
2891
330
2095
100
AcDbEntity
  8
TEXT
100
AcDbText
 10
67.28720601044885
 20
73.47528218903618
 30
0.0
 40
2.0
  1
Ｓ
 50
82.5000000000003
  7
GOTHIC
 72
     1
 11
66.41758559514709
 21
74.53115691853844
 31
0.0
100
AcDbText
 73
     2
  0
TEXT
  5
2892
330
2095
100
AcDbEntity
  8
TEXT
100
AcDbText
 10
67.51806002213159
 20
75.27822811964187
 30
0.0
 40
2.0
  1
Ｅ
 50
67.50000000000042
  7
GOTHIC
 72
     1
 11
66.95135169316104
 21
76.52319911568415
 31
0.0
100
AcDbText
 73
     2
  0
TEXT
  5
2893
330
2095
100
AcDbEntity
  8
TEXT
100
AcDbText
 10
68.20768461824916
 20
76.95999074255492
 30
0.0
 40
2.0
  1
Ｌ
 50
52.49999999999982
  7
GOTHIC
 72
     1
 11
67.9825086116994
 21
78.30921528916879
 31
0.0
100
AcDbText
 73
     2
  0
INSERT
  5
2894
330
2095
100
AcDbEntity
  8
DIMENSION
100
AcDbBlockReference
  2
_OPEN30
 10
46.15673344352098
 20
65.68673237912761
 30
0.0
 50
61.7181381643939
1001
ACAD
1000
DSTYLE
1002
{
1070
   147
1040
0.5
1070
    77
1070
     1
1002
}
  0
POLYLINE
  5
2895
330
2095
100
AcDbEntity
  8
DIMENSION
100
AcDb2dPolyline
 66
     1
 10
0.0
 20
0.0
 30
0.0
1001
ACAD
1000
DSTYLE
1002
{
1070
   147
1040
0.5
1070
    77
1070
     1
1002
}
  0
VERTEX
  5
2896
330
2895
100
AcDbEntity
  8
DIMENSION
100
AcDbVertex
100
AcDb2dVertex
 10
45.68292399154746
 20
64.80610498730941
 30
0.0
  0
VERTEX
  5
2897
330
2895
100
AcDbEntity
  8
DIMENSION
100
AcDbVertex
100
AcDb2dVertex
 10
43.86126747912167
 20
61.42035441470195
 30
0.0
  0
VERTEX
  5
2898
330
2895
100
AcDbEntity
  8
DIMENSION
100
AcDbVertex
100
AcDb2dVertex
 10
38.9348715400354
 20
61.42035441470195
 30
0.0
  0
SEQEND
  5
2899
330
2895
100
AcDbEntity
  8
DIMENSION
  0
TEXT
  5
289A
330
2095
100
AcDbEntity
  8
DIMENSION
100
AcDbText
 10
39.79913626347753
 20
62.0033491012666
 30
0.0
 40
1.5
  1
R20
  7
GOTHIC
 11
39.79913626347753
 21
62.75334910126659
 31
0.0
100
AcDbText
 73
     2
  0
DIMENSION
  5
289B
330
2095
100
AcDbEntity
  8
DIMENSION
100
AcDbDimension
  2
*D5
 10
9.101648807634399
 20
63.50000000000001
 30
0.0
 11
7.851648807634389
 21
73.50000000000001
 31
0.0
  3
ISO-25
100
AcDbAlignedDimension
 13
15.1016488076344
 23
83.50000000000001
 33
0.0
 14
15.1016488076344
 24
63.50000000000001
 34
0.0
 50
90.0
100
AcDbRotatedDimension
  0
DIMENSION
  5
289C
330
2095
100
AcDbEntity
  8
DIMENSION
100
AcDbDimension
  2
*D7
 10
24.10164880763439
 20
87.21235668150395
 30
0.0
 11
21.10164880763439
 21
88.46235668150395
 31
0.0
  3
ISO-25
100
AcDbAlignedDimension
 13
18.10164880763439
 23
83.50000000000001
 33
0.0
 14
24.10164880763439
 24
83.50000000000001
 34
0.0
100
AcDbRotatedDimension
1001
ACAD
1000
DSTYLE
1002
{
1070
    76
1070
     1
1002
}
  0
LINE
  5
289D
330
2095
100
AcDbEntity
  8
DIMENSION
 62
     3
100
AcDbLine
 10
24.10164880763439
 20
83.49999999999999
 30
0.0
 11
24.10164880763441
 21
92.7889036357604
 31
0.0
  0
LINE
  5
289E
330
2095
100
AcDbEntity
  8
DIMENSION
 62
     3
100
AcDbLine
 10
18.10164880763439
 20
82.06888804045268
 30
0.0
 11
13.03798819911624
 21
89.30054484532652
 31
0.0
  0
ARC
  5
289F
330
2095
100
AcDbEntity
  8
DIMENSION
 62
     3
100
AcDbCircle
 10
24.10164880763439
 20
73.50000000000001
 30
0.0
 40
17.78890363576037
100
AcDbArc
 50
93.22129612745191
 51
121.7787038725486
  0
INSERT
  5
28A0
330
2095
100
AcDbEntity
  8
DIMENSION
 62
     3
100
AcDbBlockReference
  2
_OPEN30
 10
24.10164880763443
 20
91.28890363576037
 30
0.0
 50
1.61064806372606
  0
INSERT
  5
28A1
330
2095
100
AcDbEntity
  8
DIMENSION
 62
     3
100
AcDbBlockReference
  2
_OPEN30
 10
13.8983528536428
 20
88.07181677889301
 30
0.0
 50
213.3893519362739
  0
INSERT
  5
28A2
330
2095
100
AcDbEntity
  8
0
100
AcDbBlockReference
  2
*U24
 10
0.0
 20
0.0
 30
0.0
  0
LINE
  5
28A3
330
2095
100
AcDbEntity
  8
LINE
100
AcDbLine
 10
116.25
 20
67.34415584415582
 30
0.0
 11
119.25
 21
69.4285714285713
 31
0.0
  0
LINE
  5
28A4
330
2095
100
AcDbEntity
  8
LINE
100
AcDbLine
 10
116.25
 20
79.65584415584425
 30
0.0
 11
119.25
 21
77.57142857142868
 31
0.0
  0
LINE
  5
28A5
330
2095
100
AcDbEntity
  8
CENTER
100
AcDbLine
 10
121.25
 20
73.49999999999997
 30
0.0
 11
122.2147189760546
 21
73.49999999999997
 31
0.0
  0
LINE
  5
28A6
330
2095
100
AcDbEntity
  8
LINE
100
AcDbLine
 10
118.25
 20
73.5
 30
0.0
 11
121.25
 21
73.49999999999997
 31
0.0
  0
DIMENSION
  5
28A7
330
2095
100
AcDbEntity
  8
DIMENSION
100
AcDbDimension
  2
*D9
 10
74.25
 20
91.5
 30
0.0
 11
56.75
 21
92.75
 31
0.0
  3
ISO-25
100
AcDbAlignedDimension
 13
39.25
 23
75.5
 33
0.0
 14
74.25
 24
84.09247405217694
 34
0.0
100
AcDbRotatedDimension
1001
ACAD
1000
DSTYLE
1002
{
1070
    75
1070
     0
1002
}
  0
TEXT
  5
28A8
330
2095
100
AcDbEntity
  8
TEXT
100
AcDbText
 10
79.82154678163837
 20
66.608520560138
 30
0.0
 40
2.0
  1
Ｎ
 50
45.00000000000057
  7
GOTHIC
 72
     1
 11
79.77440632955925
 21
67.97559367043199
 31
0.0
100
AcDbText
 73
     2
  0
TEXT
  5
28A9
330
2095
100
AcDbEntity
  8
TEXT
100
AcDbText
 10
81.3801785124123
 20
68.30566901399468
 30
0.0
 40
2.0
  1
Ｔ
 50
59.99999999999985
  7
GOTHIC
 72
     1
 11
80.98081977529453
 21
69.61395939086016
 31
0.0
100
AcDbText
 73
     2
  0
TEXT
  5
28AA
330
2095
100
AcDbEntity
  8
TEXT
100
AcDbText
 10
82.59929159972893
 20
70.29655629009271
 30
0.0
 40
2.0
  1
１
 50
75.00000000000042
  7
GOTHIC
 72
     1
 11
81.87493021553555
 21
71.45690610639835
 31
0.0
100
AcDbText
 73
     2
  0
TEXT
  5
28AB
330
2095
100
AcDbEntity
  8
TEXT
100
AcDbText
 10
83.14390862943206
 20
72.56666666666285
 30
0.0
 40
2.0
  1
０
 50
90.0
  7
GOTHIC
 72
     1
 11
82.14390862943206
 21
73.49999999999619
 31
0.0
100
AcDbText
 73
     2
  0
TEXT
  5
28AC
330
2095
100
AcDbEntity
  8
TEXT
100
AcDbText
 10
82.96474424112169
 20
74.86885091326709
 30
0.0
 40
2.0
  1
Ａ
 50
104.9999999999996
  7
GOTHIC
 72
     1
 11
81.75725397273694
 21
75.51156263936771
 31
0.0
100
AcDbText
 73
     2
  0
TEXT
  5
28AD
330
2095
100
AcDbEntity
  8
TEXT
100
AcDbText
 10
82.31351184574227
 20
77.07775023226473
 30
0.0
 40
2.0
  1
Ｊ
 50
120.0000000000001
  7
GOTHIC
 72
     1
 11
80.98081977529117
 21
77.3860406091302
 31
0.0
100
AcDbText
 73
     2
  0
TEXT
  5
28AE
330
2095
100
AcDbEntity
  8
TEXT
100
AcDbText
 10
81.25035713374195
 20
79.08614357136999
 30
0.0
 40
2.0
  1
Ｂ
 50
135.0
  7
GOTHIC
 72
     1
 11
79.83614357136885
 21
79.08614357136999
 31
0.0
100
AcDbText
 73
     2
  0
LINE
  5
28AF
330
2095
100
AcDbEntity
  8
LINE
100
AcDbLine
 10
60.25
 20
73.49999999999998
 30
0.0
 11
60.25
 21
63.49999999999997
 31
0.0
  0
LINE
  5
28B0
330
2095
100
AcDbEntity
  8
LINE
100
AcDbLine
 10
60.25
 20
73.5
 30
0.0
 11
60.25
 21
83.50000000000003
 31
0.0
  0
LINE
  5
28B1
330
2095
100
AcDbEntity
  8
LINE
100
AcDbLine
 10
22.6016488076344
 20
71.35777798988684
 30
0.0
 11
22.6016488076344
 21
63.50000000000001
 31
0.0
  0
LINE
  5
28B2
330
2095
100
AcDbEntity
  8
LINE
100
AcDbLine
 10
22.6016488076344
 20
75.64222201011318
 30
0.0
 11
22.6016488076344
 21
83.50000000000001
 31
0.0
  0
DIMENSION
  5
28B3
330
2095
100
AcDbEntity
  8
DIMENSION
100
AcDbDimension
  2
*D11
 10
24.10164880763439
 20
58.7123566815039
 30
0.0
 11
18.41449847990337
 21
58.69292747421468
 31
0.0
 70
   128
  3
ISO-25
100
AcDbAlignedDimension
 13
22.6016488076344
 23
63.50000000000001
 33
0.0
 14
24.10164880763439
 24
63.50000000000001
 34
0.0
100
AcDbRotatedDimension
  0
LINE
  5
28B4
330
2095
100
AcDbEntity
  8
CENTER
100
AcDbLine
 10
41.15565397727094
 20
43.5
 30
0.0
 11
69.66742430504421
 21
43.5
 31
0.0
  0
LINE
  5
28B5
330
2095
100
AcDbEntity
  8
CENTER
100
AcDbLine
 10
74.25
 20
48.75
 30
0.0
 11
74.25
 21
38.25
 31
0.0
  0
LINE
  5
28B6
330
2095
100
AcDbEntity
  8
LINE
100
AcDbLine
 10
121.25
 20
43.5
 30
0.0
 11
121.25
 21
47.24999999999996
 31
0.0
  0
LINE
  5
28B7
330
2095
100
AcDbEntity
  8
LINE
100
AcDbLine
 10
119.4646428928642
 20
48.0
 30
0.0
 11
74.25
 21
48.0
 31
0.0
  0
LINE
  5
28B8
330
2095
100
AcDbEntity
  8
LINE
100
AcDbLine
 10
74.25
 20
48.0
 30
0.0
 11
39.25
 21
48.0
 31
0.0
1001
ACAD
1000
ASC_BOUNDS
1002
{
1070
    19
1005
1C34
1002
}
  0
LINE
  5
28B9
330
2095
100
AcDbEntity
  8
LINE
100
AcDbLine
 10
39.25
 20
48.0
 30
0.0
 11
39.25
 21
46.0
 31
0.0
1001
ACAD
1000
ASC_BOUNDS
1002
{
1070
    19
1005
1C34
1002
}
  0
LINE
  5
28BA
330
2095
100
AcDbEntity
  8
LINE
100
AcDbLine
 10
119.4646428928642
 20
39.0
 30
0.0
 11
74.25
 21
39.0
 31
0.0
  0
LINE
  5
28BB
330
2095
100
AcDbEntity
  8
LINE
100
AcDbLine
 10
74.25
 20
39.0
 30
0.0
 11
61.25
 21
39.0
 31
0.0
  0
LINE
  5
28BC
330
2095
100
AcDbEntity
  8
LINE
100
AcDbLine
 10
61.25
 20
39.0
 30
0.0
 11
61.25
 21
40.0
 31
0.0
  0
LINE
  5
28BD
330
2095
100
AcDbEntity
  8
LINE
100
AcDbLine
 10
59.25
 20
42.0
 30
0.0
 11
51.25
 21
42.0
 31
0.0
  0
ARC
  5
28BE
330
2095
100
AcDbEntity
  8
LINE
100
AcDbCircle
 10
119.4646428928642
 20
45.49999999999999
 30
0.0
 40
2.5
100
AcDbArc
 50
44.42700400080545
 51
90.0
  0
LINE
  5
28BF
330
2095
100
AcDbEntity
  8
LINE
100
AcDbLine
 10
117.7499999999999
 20
47.25
 30
0.0
 11
119.25
 21
48.0
 31
0.0
  0
LINE
  5
28C0
330
2095
100
AcDbEntity
  8
LINE
100
AcDbLine
 10
117.7499999999999
 20
47.25
 30
0.0
 11
116.25
 21
48.0
 31
0.0
  0
LINE
  5
28C1
330
2095
100
AcDbEntity
  8
LINE
100
AcDbLine
 10
117.7499999999999
 20
39.75
 30
0.0
 11
116.25
 21
39.0
 31
0.0
  0
LINE
  5
28C2
330
2095
100
AcDbEntity
  8
LINE
100
AcDbLine
 10
117.7499999999999
 20
39.75
 30
0.0
 11
119.25
 21
39.0
 31
0.0
  0
ARC
  5
28C3
330
2095
100
AcDbEntity
  8
LINE
100
AcDbCircle
 10
119.4646428928642
 20
41.5
 30
0.0
 40
2.5
100
AcDbArc
 50
270.0
 51
315.5729959991943
  0
LINE
  5
28C4
330
2095
100
AcDbEntity
  8
LINE
100
AcDbLine
 10
121.25
 20
43.5
 30
0.0
 11
121.25
 21
39.75000000000001
 31
0.0
  0
ARC
  5
28C5
330
2095
100
AcDbEntity
  8
LINE
100
AcDbCircle
 10
51.25
 20
62.0
 30
0.0
 40
20.0
100
AcDbArc
 50
233.1301023541562
 51
270.0
  0
ARC
  5
28C6
330
2095
100
AcDbEntity
  8
LINE
100
AcDbCircle
 10
59.25
 20
40.0
 30
0.0
 40
2.0
100
AcDbArc
 50
0.0
 51
90.0
  0
LINE
  5
28C7
330
2095
100
AcDbEntity
  8
LINE
100
AcDbLine
 10
69.66742430504421
 20
43.5
 30
0.0
 11
69.66742430504421
 21
39.0
 31
0.0
  0
LINE
  5
28C8
330
2095
100
AcDbEntity
  8
LINE
100
AcDbLine
 10
71.04843788128366
 20
43.5
 30
0.0
 11
71.04843788128366
 21
39.0
 31
0.0
  0
LINE
  5
28C9
330
2095
100
AcDbEntity
  8
LINE
100
AcDbLine
 10
77.45156211871637
 20
48.0
 30
0.0
 11
77.45156211871637
 21
43.5
 31
0.0
  0
LINE
  5
28CA
330
2095
100
AcDbEntity
  8
LINE
100
AcDbLine
 10
78.83257569495579
 20
48.0
 30
0.0
 11
78.83257569495579
 21
43.5
 31
0.0
  0
LINE
  5
28CB
330
2095
100
AcDbEntity
  8
LINE
100
AcDbLine
 10
69.66742430504421
 20
43.5
 30
0.0
 11
78.83257569495579
 21
43.5
 31
0.0
  0
LINE
  5
28CC
330
2095
100
AcDbEntity
  8
CENTER
100
AcDbLine
 10
78.83257569495579
 20
43.5
 30
0.0
 11
123.737550169881
 21
43.5
 31
0.0
  0
DIMENSION
  5
28CD
330
2095
100
AcDbEntity
  8
DIMENSION
100
AcDbDimension
  2
*D13
 10
129.75
 20
39.0
 30
0.0
 11
127.8591370558374
 21
43.50000000000002
 31
0.0
  3
ISO-25
100
AcDbAlignedDimension
 13
119.4646428928642
 23
48.0
 33
0.0
 14
119.4646428928642
 24
39.0
 34
0.0
 50
90.0
100
AcDbRotatedDimension
1001
ACAD
1000
DSTYLE
1002
{
1070
   146
1040
0.8
1070
    47
1040
0.0
1070
    48
1040
0.1
1070
   147
1040
0.5
1070
    72
1070
     0
1070
    71
1070
     1
1002
}
  0
LINE
  5
28CE
330
2095
100
AcDbEntity
  8
DIMENSION
 62
     3
100
AcDbLine
 10
57.79701828325234
 20
38.18657125327104
 30
0.0
 11
59.87528232199593
 21
40.78039862749714
 31
0.0
  0
INSERT
  5
28CF
330
2095
100
AcDbEntity
  8
DIMENSION
 62
     3
100
AcDbBlockReference
  2
_OPEN30
 10
60.50056464399169
 20
41.5607972549944
 30
0.0
 50
51.29708786181861
  0
INSERT
  5
28D0
330
2095
100
AcDbEntity
  8
0
100
AcDbBlockReference
  2
*U25
 10
0.0
 20
0.0
 30
0.0
  0
DIMENSION
  5
28D1
330
2095
100
AcDbEntity
  8
DIMENSION
100
AcDbDimension
  2
*D15
 10
74.25
 20
35.25
 30
0.0
 11
67.75
 21
36.5
 31
0.0
  3
ISO-25
100
AcDbAlignedDimension
 13
61.25
 23
39.0
 33
0.0
 14
74.25
 24
38.25
 34
0.0
100
AcDbRotatedDimension
  0
DIMENSION
  5
28D2
330
2095
100
AcDbEntity
  8
DIMENSION
100
AcDbDimension
  2
*D17
 10
35.24999999999999
 20
42.00000000000001
 30
0.0
 11
33.99999999999998
 21
45.0
 31
0.0
  3
ISO-25
100
AcDbAlignedDimension
 13
39.25
 23
48.0
 33
0.0
 14
51.25
 24
42.0
 34
0.0
 50
90.0
100
AcDbRotatedDimension
  0
LINE
  5
28D3
330
2095
100
AcDbEntity
  8
LINE
100
AcDbLine
 10
60.25
 20
46.5
 30
0.0
 11
39.25
 21
46.5
 31
0.0
1001
ACAD
1000
ASC_BOUNDS
1002
{
1070
    19
1005
1C34
1002
}
  0
LINE
  5
28D4
330
2095
100
AcDbEntity
  8
LINE
100
AcDbLine
 10
60.25
 20
48.0
 30
0.0
 11
60.25
 21
46.5
 31
0.0
1001
ACAD
1000
ASC_BOUNDS
1002
{
1070
    19
1005
1C34
1002
}
  0
INSERT
  5
28D5
330
2095
100
AcDbEntity
  8
HATCHING
  6
CONTINUOUS
100
AcDbBlockReference
  2
*X26
 10
0.0
 20
0.0
 30
0.0
1001
ACAD
1000
HATCH
1002
{
1070
    19
1000
_USER
1040
0.5
1040
0.7853981633974483
1002
}
  0
INSERT
  5
28D6
330
2095
100
AcDbEntity
  8
0
100
AcDbBlockReference
  2
*U27
 10
0.0
 20
0.0
 30
0.0
1001
ACAD
1000
DSTYLE
1002
{
1070
   147
1040
0.5
1070
    77
1070
     1
1002
}
  0
INSERT
  5
28D7
330
2095
100
AcDbEntity
  8
0
100
AcDbBlockReference
  2
*U28
 10
0.0
 20
0.0
 30
0.0
  0
DIMENSION
  5
28D8
330
2095
100
AcDbEntity
  8
DIMENSION
100
AcDbDimension
  2
*D19
 10
75.21489119852659
 20
75.30872468192531
 30
0.0
 11
64.50000000000001
 21
60.0
 31
0.0
 70
   131
  3
ISO-25
100
AcDbDiametricDimension
 15
73.28510880147334
 25
71.69127531807466
 35
0.0
 40
0.0
1001
ACAD
1000
DSTYLE
1002
{
1070
     3
1000
φ<>
1070
   288
1070
     1
1002
}
  0
DIMENSION
  5
28D9
330
2095
100
AcDbEntity
  8
DIMENSION
100
AcDbDimension
  2
*D21
 10
60.25
 20
51.0
 30
0.0
 11
49.75
 21
52.25
 31
0.0
  3
ISO-25
100
AcDbAlignedDimension
 13
39.25
 23
48.0
 33
0.0
 14
60.25
 24
48.0
 34
0.0
100
AcDbRotatedDimension
  0
LINE
  5
28DA
330
2095
100
AcDbEntity
  8
HATCHING
100
AcDbLine
 10
22.6016488076344
 20
82.85806364270305
 30
0.0
 11
23.24358516493136
 21
83.50000000000003
 31
0.0
  0
LINE
  5
28DB
330
2095
100
AcDbEntity
  8
HATCHING
100
AcDbLine
 10
22.6016488076344
 20
82.1509568615165
 30
0.0
 11
23.95069194611791
 21
83.49999999999999
 31
0.0
  0
LINE
  5
28DC
330
2095
100
AcDbEntity
  8
HATCHING
100
AcDbLine
 10
22.6016488076344
 20
81.44385008032996
 30
0.0
 11
24.10164880763441
 21
82.94385008032994
 31
0.0
  0
LINE
  5
28DD
330
2095
100
AcDbEntity
  8
HATCHING
100
AcDbLine
 10
22.60164880763439
 20
80.73674329914341
 30
0.0
 11
24.10164880763441
 21
82.23674329914341
 31
0.0
  0
LINE
  5
28DE
330
2095
100
AcDbEntity
  8
HATCHING
100
AcDbLine
 10
22.6016488076344
 20
80.02963651795687
 30
0.0
 11
24.10164880763441
 21
81.52963651795683
 31
0.0
  0
LINE
  5
28DF
330
2095
100
AcDbEntity
  8
HATCHING
100
AcDbLine
 10
22.6016488076344
 20
79.32252973677032
 30
0.0
 11
24.10164880763441
 21
80.82252973677032
 31
0.0
  0
LINE
  5
28E0
330
2095
100
AcDbEntity
  8
HATCHING
100
AcDbLine
 10
22.6016488076344
 20
78.61542295558374
 30
0.0
 11
24.10164880763441
 21
80.11542295558374
 31
0.0
  0
LINE
  5
28E1
330
2095
100
AcDbEntity
  8
HATCHING
100
AcDbLine
 10
22.6016488076344
 20
77.9083161743972
 30
0.0
 11
24.10164880763441
 21
79.40831617439719
 31
0.0
  0
LINE
  5
28E2
330
2095
100
AcDbEntity
  8
HATCHING
100
AcDbLine
 10
22.60164880763439
 20
77.20120939321067
 30
0.0
 11
24.10164880763441
 21
78.70120939321068
 31
0.0
  0
LINE
  5
28E3
330
2095
100
AcDbEntity
  8
HATCHING
100
AcDbLine
 10
22.6016488076344
 20
76.49410261202412
 30
0.0
 11
24.10164880763441
 21
77.99410261202412
 31
0.0
  0
LINE
  5
28E4
330
2095
100
AcDbEntity
  8
HATCHING
100
AcDbLine
 10
22.60164880763441
 20
75.78699583083757
 30
0.0
 11
24.10164880763441
 21
77.28699583083757
 31
0.0
  0
LINE
  5
28E5
330
2095
100
AcDbEntity
  8
HATCHING
100
AcDbLine
 10
23.02175975798339
 20
75.5
 30
0.0
 11
24.10164880763441
 21
76.57988904965103
 31
0.0
  0
LINE
  5
28E6
330
2095
100
AcDbEntity
  8
HATCHING
100
AcDbLine
 10
23.72886653916993
 20
75.5
 30
0.0
 11
24.10164880763439
 21
75.87278226846445
 31
0.0
  0
LINE
  5
28E7
330
2095
100
AcDbEntity
  8
HATCHING
100
AcDbLine
 10
22.8211481640747
 20
63.50000000000001
 30
0.0
 11
22.6016488076344
 21
63.71949935644032
 31
0.0
  0
LINE
  5
28E8
330
2095
100
AcDbEntity
  8
HATCHING
100
AcDbLine
 10
23.52825494526126
 20
63.50000000000001
 30
0.0
 11
22.6016488076344
 21
64.42660613762689
 31
0.0
  0
LINE
  5
28E9
330
2095
100
AcDbEntity
  8
HATCHING
100
AcDbLine
 10
24.10164880763441
 20
63.63371291881341
 30
0.0
 11
22.6016488076344
 21
65.13371291881341
 31
0.0
  0
LINE
  5
28EA
330
2095
100
AcDbEntity
  8
HATCHING
100
AcDbLine
 10
24.10164880763441
 20
64.34081969999997
 30
0.0
 11
22.6016488076344
 21
65.84081969999997
 31
0.0
  0
LINE
  5
28EB
330
2095
100
AcDbEntity
  8
HATCHING
100
AcDbLine
 10
24.10164880763441
 20
65.04792648118651
 30
0.0
 11
22.6016488076344
 21
66.5479264811865
 31
0.0
  0
LINE
  5
28EC
330
2095
100
AcDbEntity
  8
HATCHING
100
AcDbLine
 10
24.10164880763441
 20
65.75503326237306
 30
0.0
 11
22.60164880763441
 21
67.25503326237306
 31
0.0
  0
LINE
  5
28ED
330
2095
100
AcDbEntity
  8
HATCHING
100
AcDbLine
 10
24.10164880763439
 20
66.4621400435596
 30
0.0
 11
22.60164880763441
 21
67.9621400435596
 31
0.0
  0
LINE
  5
28EE
330
2095
100
AcDbEntity
  8
HATCHING
100
AcDbLine
 10
24.10164880763441
 20
67.16924682474616
 30
0.0
 11
22.6016488076344
 21
68.66924682474615
 31
0.0
  0
LINE
  5
28EF
330
2095
100
AcDbEntity
  8
HATCHING
100
AcDbLine
 10
24.10164880763441
 20
67.87635360593267
 30
0.0
 11
22.60164880763441
 21
69.37635360593268
 31
0.0
  0
LINE
  5
28F0
330
2095
100
AcDbEntity
  8
HATCHING
100
AcDbLine
 10
24.10164880763441
 20
68.58346038711923
 30
0.0
 11
22.6016488076344
 21
70.08346038711924
 31
0.0
  0
LINE
  5
28F1
330
2095
100
AcDbEntity
  8
HATCHING
100
AcDbLine
 10
24.10164880763441
 20
69.29056716830578
 30
0.0
 11
22.60164880763441
 21
70.79056716830578
 31
0.0
  0
LINE
  5
28F2
330
2095
100
AcDbEntity
  8
HATCHING
100
AcDbLine
 10
24.10164880763441
 20
69.99767394949234
 30
0.0
 11
22.65926307135187
 21
71.44005968577488
 31
0.0
  0
LINE
  5
28F3
330
2095
100
AcDbEntity
  8
HATCHING
100
AcDbLine
 10
24.10164880763441
 20
70.70478073067888
 30
0.0
 11
23.30642953831327
 21
71.5
 31
0.0
  0
LINE
  5
28F4
330
2095
100
AcDbEntity
  8
HATCHING
100
AcDbLine
 10
24.10164880763441
 20
71.41188751186543
 30
0.0
 11
24.01353631949984
 21
71.5
 31
0.0
  0
INSERT
  5
28F5
330
2095
100
AcDbEntity
  8
0
100
AcDbBlockReference
  2
*U29
 10
0.0
 20
0.0
 30
0.0
1001
ACAD
1000
DSTYLE
1002
{
1070
   147
1040
0.5
1070
    77
1070
     1
1002
}
  0
VIEWPORT
  5
28F8
330
2091
100
AcDbEntity
 67
     1
  8
0
100
AcDbViewport
 10
145.3197631835936
 20
101.8222458362579
 30
0.0
 40
391.2734030671862
 41
222.174172088623
 68
     1
 69
     1
1001
ACAD
1000
MVIEW
1002
{
1070
    16
1010
0.0
1020
0.0
1030
0.0
1010
0.0
1020
0.0
1030
1.0
1040
0.0
1040
222.174172088623
1040
145.3197631835936
1040
101.8222458362579
1040
50.0
1040
0.0
1040
0.0
1070
     0
1070
  1000
1070
     1
1070
     1
1070
     0
1070
     0
1070
     0
1070
     0
1040
0.0
1040
0.0
1040
0.0
1040
10.0
1040
10.0
1040
10.0
1040
10.0
1070
     0
1002
{
1002
}
1002
}
  0
ENDSEC
  0
SECTION
  2
OBJECTS
  0
DICTIONARY
  5
2083
330
0
100
AcDbDictionary
  3
ACAD_GROUP
350
2084
  3
ACAD_LAYOUT
350
2090
  3
ACAD_MLINESTYLE
350
208D
  3
ACAD_PLOTSETTINGS
350
208F
1001
ACAD
1000
TREAT_AS_HARD
1070
     0
1000
TREAT_AS_HARD
1070
     0
  0
DICTIONARY
  5
28FF
330
2095
100
AcDbDictionary
  3
ACAD_LAYOUTSELFREF
350
2923
1001
ACAD
1000
TREAT_AS_HARD
1070
     0
  0
DICTIONARY
  5
28FD
330
2091
100
AcDbDictionary
  3
ACAD_LAYOUTSELFREF
350
2922
1001
ACAD
1000
TREAT_AS_HARD
1070
     0
  0
DICTIONARY
  5
2084
102
{ACAD_REACTORS
330
2083
102
}
330
2083
100
AcDbDictionary
1001
ACAD
1000
TREAT_AS_HARD
1070
     0
1000
TREAT_AS_HARD
1070
     0
  0
DICTIONARY
  5
2090
102
{ACAD_REACTORS
330
2083
102
}
330
2083
100
AcDbDictionary
1001
ACAD
1000
TREAT_AS_HARD
1070
     0
1000
TREAT_AS_HARD
1070
     0
  0
DICTIONARY
  5
208D
102
{ACAD_REACTORS
330
2083
102
}
330
2083
100
AcDbDictionary
  3
STANDARD
350
208E
1001
ACAD
1000
TREAT_AS_HARD
1070
     0
1000
TREAT_AS_HARD
1070
     0
  0
DICTIONARY
  5
208F
102
{ACAD_REACTORS
330
2083
102
}
330
2083
100
AcDbDictionary
1001
ACAD
1000
TREAT_AS_HARD
1070
     0
1000
TREAT_AS_HARD
1070
     0
  0
XRECORD
  5
2923
102
{ACAD_REACTORS
330
28FF
102
}
330
28FF
100
AcDbXrecord
340
2095
  0
XRECORD
  5
2922
102
{ACAD_REACTORS
330
28FD
102
}
330
28FD
100
AcDbXrecord
340
2091
  0
MLINESTYLE
  5
208E
102
{ACAD_REACTORS
330
208D
102
}
330
208D
100
AcDbMlineStyle
  2
STANDARD
 70
     0
  3

 62
   256
 51
90.0
 52
90.0
 71
     2
 49
0.5
 62
   256
  6
BYLAYER
 49
-0.5
 62
   256
  6
BYLAYER
  0
ENDSEC
  0
EOF
