  0
SECTION
  2
HEADER
  9
$ACADVER
  1
AC1012
  9
$DWGCODEPAGE
  3
dos932
  9
$INSBASE
 10
0.0
 20
0.0
 30
0.0
  9
$EXTMIN
 10
9.716308950814777
 20
29.99748257919853
 30
-0.0015258207003583
  9
$EXTMAX
 10
120.7468875204758
 20
91.3206484219067
 30
0.0000000349246037
  9
$LIMMIN
 10
0.0
 20
0.0
  9
$LIMMAX
 10
148.5
 20
105.0
  9
$ORTHOMODE
 70
     0
  9
$REGENMODE
 70
     1
  9
$FILLMODE
 70
     1
  9
$QTEXTMODE
 70
     0
  9
$MIRRTEXT
 70
     0
  9
$DRAGMODE
 70
     2
  9
$LTSCALE
 40
0.25
  9
$OSMODE
 70
    37
  9
$ATTMODE
 70
     1
  9
$TEXTSIZE
 40
1.5
  9
$TRACEWID
 40
1.0
  9
$TEXTSTYLE
  7
GOTHIC
  9
$CLAYER
  8
0
  9
$CELTYPE
  6
BYLAYER
  9
$CECOLOR
 62
   256
  9
$CELTSCALE
 40
1.0
  9
$DELOBJ
 70
     1
  9
$DISPSILH
 70
     0
  9
$DIMSCALE
 40
1.0
  9
$DIMASZ
 40
1.0
  9
$DIMEXO
 40
0.0
  9
$DIMDLI
 40
1.5
  9
$DIMRND
 40
0.0
  9
$DIMDLE
 40
0.0
  9
$DIMEXE
 40
1.5
  9
$DIMTP
 40
0.0
  9
$DIMTM
 40
0.0
  9
$DIMTXT
 40
1.5
  9
$DIMCEN
 40
0.0
  9
$DIMTSZ
 40
0.0
  9
$DIMTOL
 70
     0
  9
$DIMLIM
 70
     0
  9
$DIMTIH
 70
     0
  9
$DIMTOH
 70
     0
  9
$DIMSE1
 70
     0
  9
$DIMSE2
 70
     0
  9
$DIMTAD
 70
     1
  9
$DIMZIN
 70
     8
  9
$DIMBLK
  1
OPEN30
  9
$DIMASO
 70
     1
  9
$DIMSHO
 70
     1
  9
$DIMPOST
  1

  9
$DIMAPOST
  1

  9
$DIMALT
 70
     0
  9
$DIMALTD
 70
     3
  9
$DIMALTF
 40
0.03937007874016
  9
$DIMLFAC
 40
1.0
  9
$DIMTOFL
 70
     1
  9
$DIMTVP
 40
0.0
  9
$DIMTIX
 70
     0
  9
$DIMSOXD
 70
     0
  9
$DIMSAH
 70
     0
  9
$DIMBLK1
  1

  9
$DIMBLK2
  1

  9
$DIMSTYLE
  2
VESSEL_ENGINEERING_ORIGIN0
  9
$DIMCLRD
 70
   256
  9
$DIMCLRE
 70
   256
  9
$DIMCLRT
 70
   256
  9
$DIMTFAC
 40
1.0
  9
$DIMGAP
 40
0.5
  9
$DIMJUST
 70
     0
  9
$DIMSD1
 70
     0
  9
$DIMSD2
 70
     0
  9
$DIMTOLJ
 70
     1
  9
$DIMTZIN
 70
     0
  9
$DIMALTZ
 70
     0
  9
$DIMALTTZ
 70
     0
  9
$DIMFIT
 70
     3
  9
$DIMUPT
 70
     0
  9
$DIMUNIT
 70
     2
  9
$DIMDEC
 70
     4
  9
$DIMTDEC
 70
     4
  9
$DIMALTU
 70
     2
  9
$DIMALTTD
 70
     2
  9
$DIMTXSTY
  7
STANDARD
  9
$DIMAUNIT
 70
     0
  9
$LUNITS
 70
     2
  9
$LUPREC
 70
     4
  9
$SKETCHINC
 40
1.0
  9
$FILLETRAD
 40
0.0
  9
$AUNITS
 70
     0
  9
$AUPREC
 70
     0
  9
$MENU
  1
.
  9
$ELEVATION
 40
0.0
  9
$PELEVATION
 40
0.0
  9
$THICKNESS
 40
0.0
  9
$LIMCHECK
 70
     0
  9
$BLIPMODE
 70
     1
  9
$CHAMFERA
 40
0.0
  9
$CHAMFERB
 40
0.0
  9
$CHAMFERC
 40
0.0
  9
$CHAMFERD
 40
0.0
  9
$SKPOLY
 70
     0
  9
$TDCREATE
 40
2452943.646856192
  9
$TDUPDATE
 40
2453515.476017303
  9
$TDINDWG
 40
0.3034887847
  9
$TDUSRTIMER
 40
0.3034886690
  9
$USRTIMER
 70
     1
  9
$ANGBASE
 50
0.0
  9
$ANGDIR
 70
     0
  9
$PDMODE
 70
     0
  9
$PDSIZE
 40
0.0
  9
$PLINEWID
 40
0.0
  9
$COORDS
 70
     1
  9
$SPLFRAME
 70
     0
  9
$SPLINETYPE
 70
     6
  9
$SPLINESEGS
 70
     8
  9
$ATTDIA
 70
     0
  9
$ATTREQ
 70
     1
  9
$HANDLING
 70
-16383
  9
$HANDSEED
  5
1C75
  9
$SURFTAB1
 70
     6
  9
$SURFTAB2
 70
     6
  9
$SURFTYPE
 70
     6
  9
$SURFU
 70
     6
  9
$SURFV
 70
     6
  9
$UCSNAME
  2

  9
$UCSORG
 10
0.0
 20
0.0
 30
0.0
  9
$UCSXDIR
 10
1.0
 20
0.0
 30
0.0
  9
$UCSYDIR
 10
0.0
 20
1.0
 30
0.0
  9
$PUCSNAME
  2

  9
$PUCSORG
 10
0.0
 20
0.0
 30
0.0
  9
$PUCSXDIR
 10
1.0
 20
0.0
 30
0.0
  9
$PUCSYDIR
 10
0.0
 20
1.0
 30
0.0
  9
$USERI1
 70
     0
  9
$USERI2
 70
     0
  9
$USERI3
 70
     0
  9
$USERI4
 70
     0
  9
$USERI5
 70
     0
  9
$USERR1
 40
0.0
  9
$USERR2
 40
0.0
  9
$USERR3
 40
0.0
  9
$USERR4
 40
0.0
  9
$USERR5
 40
0.0
  9
$WORLDVIEW
 70
     1
  9
$SHADEDGE
 70
     3
  9
$SHADEDIF
 70
    70
  9
$TILEMODE
 70
     1
  9
$MAXACTVP
 70
    64
  9
$PINSBASE
 10
0.0
 20
0.0
 30
0.0
  9
$PLIMCHECK
 70
     0
  9
$PEXTMIN
 10
1.000000000000000E+20
 20
1.000000000000000E+20
 30
1.000000000000000E+20
  9
$PEXTMAX
 10
-1.000000000000000E+20
 20
-1.000000000000000E+20
 30
-1.000000000000000E+20
  9
$PLIMMIN
 10
-3.17498779296875
 20
-3.174999952316283
  9
$PLIMMAX
 10
293.8145141601562
 20
206.819491624832
  9
$UNITMODE
 70
     0
  9
$VISRETAIN
 70
     1
  9
$PLINEGEN
 70
     0
  9
$PSLTSCALE
 70
     0
  9
$TREEDEPTH
 70
  3020
  9
$PICKSTYLE
 70
     3
  9
$CMLSTYLE
  2
STANDARD
  9
$CMLJUST
 70
     0
  9
$CMLSCALE
 40
1.0
  9
$SAVEIMAGES
 70
     1
  0
ENDSEC
  0
SECTION
  2
CLASSES
  0
CLASS
  1
ACDBDICTIONARYWDFLT
  2
AcDbDictionaryWithDefault
  3
AutoCAD 2000
 90
    32768
280
     0
281
     0
  0
CLASS
  1
ACDBPLACEHOLDER
  2
AcDbPlaceHolder
  3
AutoCAD 2000
 90
    32768
280
     0
281
     0
  0
CLASS
  1
LAYOUT
  2
AcDbLayout
  3
AutoCAD 2000
 90
    32768
280
     0
281
     0
  0
CLASS
  1
DICTIONARYVAR
  2
AcDbDictionaryVar
  3
AutoCAD 2000
 90
    32768
280
     0
281
     0
  0
CLASS
  1
LONG_TRANSACTION
  2
AcDbLongTransaction
  3
AutoCAD 2000
 90
    32768
280
     0
281
     0
  0
CLASS
  1
LWPOLYLINE
  2
AcDbPolyline
  3
AutoCAD 2000
 90
    32768
280
     0
281
     1
  0
CLASS
  1
HATCH
  2
AcDbHatch
  3
AutoCAD 2000
 90
    32768
280
     0
281
     1
  0
CLASS
  1
XRECORD
  2
AcDbXrecord
  3
AutoCAD 2000
 90
    32768
280
     0
281
     0
  0
CLASS
  1
LONG_TRANSACTION
  2
AcDbLongTransaction
  3
AutoCAD 2000
 90
    32768
280
     0
281
     0
  0
CLASS
  1
LWPOLYLINE
  2
AcDbPolyline
  3
AutoCAD 2000
 90
    32768
280
     0
281
     1
  0
CLASS
  1
HATCH
  2
AcDbHatch
  3
AutoCAD 2000
 90
    32768
280
     0
281
     1
  0
CLASS
  1
XRECORD
  2
AcDbXrecord
  3
AutoCAD 2000
 90
    32768
280
     0
281
     0
  0
ENDSEC
  0
SECTION
  2
TABLES
  0
TABLE
  2
VPORT
  5
1777
330
0
100
AcDbSymbolTable
 70
     2
  0
VPORT
  5
1C72
330
1777
100
AcDbSymbolTableRecord
100
AcDbViewportTableRecord
  2
*ACTIVE
 70
     0
 10
0.0
 20
0.0
 11
1.0
 21
1.0
 12
65.23159823564532
 22
60.65906550055262
 13
0.0
 23
0.0
 14
1.5
 24
1.5
 15
1.5
 25
1.5
 16
0.0
 26
0.0
 36
1.0
 17
0.0
 27
0.0
 37
0.0
 40
73.89462516643452
 41
1.510025062656641
 42
50.0
 43
0.0
 44
0.0
 50
0.0
 51
0.0
 71
     0
 72
 20000
 73
     1
 74
     3
 75
     0
 76
     0
 77
     0
 78
     0
  0
ENDTAB
  0
TABLE
  2
LTYPE
  5
1774
330
0
100
AcDbSymbolTable
 70
     2
  0
LTYPE
  5
1782
330
1774
100
AcDbSymbolTableRecord
100
AcDbLinetypeTableRecord
  2
BYBLOCK
 70
     0
  3

 72
    65
 73
     0
 40
0.0
  0
LTYPE
  5
1783
330
1774
100
AcDbSymbolTableRecord
100
AcDbLinetypeTableRecord
  2
BYLAYER
 70
     0
  3

 72
    65
 73
     0
 40
0.0
  0
LTYPE
  5
1784
330
1774
100
AcDbSymbolTableRecord
100
AcDbLinetypeTableRecord
  2
CONTINUOUS
 70
     0
  3
Solid line
 72
    65
 73
     0
 40
0.0
  0
LTYPE
  5
1793
330
1774
100
AcDbSymbolTableRecord
100
AcDbLinetypeTableRecord
  2
CENTER2
 70
     0
  3
Center (.5x) ___ _ ___ _ ___ _ ___ _ ___ _ ___
 72
    65
 73
     4
 40
28.57499999999999
 49
19.05
 74
     0
 49
-3.174999999999998
 74
     0
 49
3.174999999999998
 74
     0
 49
-3.174999999999998
 74
     0
  0
ENDTAB
  0
TABLE
  2
LAYER
  5
1771
330
0
100
AcDbSymbolTable
 70
     7
  0
LAYER
  5
177F
330
1771
100
AcDbSymbolTableRecord
100
AcDbLayerTableRecord
  2
0
 70
     0
 62
     7
  6
CONTINUOUS
  0
LAYER
  5
179E
330
1771
100
AcDbSymbolTableRecord
100
AcDbLayerTableRecord
  2
CENTER
 70
     0
 62
     4
  6
CENTER2
  0
LAYER
  5
179F
330
1771
100
AcDbSymbolTableRecord
100
AcDbLayerTableRecord
  2
DIMENSION
 70
     0
 62
     3
  6
CONTINUOUS
  0
LAYER
  5
17A1
330
1771
100
AcDbSymbolTableRecord
100
AcDbLayerTableRecord
  2
LINE
 70
     0
 62
     2
  6
CONTINUOUS
  0
LAYER
  5
17A2
330
1771
100
AcDbSymbolTableRecord
100
AcDbLayerTableRecord
  2
TEXT
 70
     0
 62
     3
  6
CONTINUOUS
  0
LAYER
  5
17A3
330
1771
100
AcDbSymbolTableRecord
100
AcDbLayerTableRecord
  2
DEFPOINTS
 70
     0
 62
    -7
  6
CONTINUOUS
  0
LAYER
  5
17A5
330
1771
100
AcDbSymbolTableRecord
100
AcDbLayerTableRecord
  2
HATCHING
 70
     0
 62
     7
  6
CONTINUOUS
  0
ENDTAB
  0
TABLE
  2
STYLE
  5
1772
330
0
100
AcDbSymbolTable
 70
     2
  0
STYLE
  5
1780
330
1772
100
AcDbSymbolTableRecord
100
AcDbTextStyleTableRecord
  2
STANDARD
 70
     0
 40
0.0
 41
1.0
 50
0.0
 71
     0
 42
2.5
  3
txt
  4
extfont.shx
  0
STYLE
  5
1791
330
1772
100
AcDbSymbolTableRecord
100
AcDbTextStyleTableRecord
  2
GOTHIC
 70
     0
 40
0.0
 41
1.0
 50
0.0
 71
     0
 42
1.5
  3
txt
  4
extfont.shx
  0
ENDTAB
  0
TABLE
  2
VIEW
  5
1775
330
0
100
AcDbSymbolTable
 70
     0
  0
ENDTAB
  0
TABLE
  2
UCS
  5
1776
330
0
100
AcDbSymbolTable
 70
     0
  0
ENDTAB
  0
TABLE
  2
APPID
  5
1778
330
0
100
AcDbSymbolTable
 70
     4
  0
APPID
  5
1781
330
1778
100
AcDbSymbolTableRecord
100
AcDbRegAppTableRecord
  2
ACAD
 70
     0
  0
APPID
  5
17AA
330
1778
100
AcDbSymbolTableRecord
100
AcDbRegAppTableRecord
  2
ACAD_DSTYLE_DIMTEXT_FILL
 70
     0
  0
APPID
  5
17AB
330
1778
100
AcDbSymbolTableRecord
100
AcDbRegAppTableRecord
  2
ACAD_PSEXT
 70
     0
  0
APPID
  5
17AC
330
1778
100
AcDbSymbolTableRecord
100
AcDbRegAppTableRecord
  2
CONTENTBLOCKICON
 70
     0
  0
ENDTAB
  0
TABLE
  2
DIMSTYLE
  5
1779
330
0
100
AcDbSymbolTable
 70
     2
  0
DIMSTYLE
105
17AD
102
{ACAD_REACTORS
330
1BC6
330
1BC7
330
1BCF
330
1BD0
330
1BD1
330
1C21
330
1C24
330
1C2C
330
1C34
330
1C4B
330
1C4C
330
1C4D
102
}
330
1779
100
AcDbSymbolTableRecord
100
AcDbDimStyleTableRecord
  2
ISO-25
 70
     0
  3

  4

  5

  6

  7

 40
1.0
 41
2.5
 42
0.625
 43
3.75
 44
1.25
 45
0.0
 46
0.0
 47
0.0
 48
0.0
140
2.5
141
2.5
142
0.0
143
0.03937007874016
144
1.0
145
0.0
146
1.0
147
0.625
 71
     0
 72
     0
 73
     0
 74
     0
 75
     0
 76
     0
 77
     1
 78
     8
170
     0
171
     3
172
     1
173
     0
174
     0
175
     0
176
     0
177
     0
178
     0
270
     2
271
     4
272
     4
273
     2
274
     3
340
1791
275
     0
280
     0
281
     0
282
     0
283
     1
284
     8
285
     8
286
     8
287
     3
288
     0
  0
DIMSTYLE
105
17AF
330
1779
100
AcDbSymbolTableRecord
100
AcDbDimStyleTableRecord
  2
VESSEL_ENGINEERING_ORIGIN0
 70
     0
  3

  4

  5

  6

  7

 40
1.0
 41
1.0
 42
0.0
 43
1.5
 44
1.5
 45
0.0
 46
0.0
 47
0.0
 48
0.0
140
1.5
141
0.0
142
0.0
143
0.03937007874016
144
1.0
145
0.0
146
1.0
147
0.5
 71
     0
 72
     0
 73
     0
 74
     0
 75
     0
 76
     0
 77
     1
 78
     8
170
     0
171
     3
172
     1
173
     0
174
     0
175
     0
176
   256
177
   256
178
   256
270
     2
271
     4
272
     4
273
     2
274
     3
340
1791
275
     0
280
     0
281
     0
282
     0
283
     1
284
     8
285
     8
286
     8
287
     3
288
     0
  0
ENDTAB
  0
TABLE
  2
BLOCK_RECORD
  5
1770
330
0
100
AcDbSymbolTable
 70
    35
  0
BLOCK_RECORD
  5
178D
102
{ACAD_XDICTIONARY
360
1C57
102
}
330
1770
100
AcDbSymbolTableRecord
100
AcDbBlockTableRecord
  2
*MODEL_SPACE
  0
BLOCK_RECORD
  5
1789
102
{ACAD_XDICTIONARY
360
1C55
102
}
330
1770
100
AcDbSymbolTableRecord
100
AcDbBlockTableRecord
  2
*PAPER_SPACE
  0
BLOCK_RECORD
  5
17C1
330
1770
100
AcDbSymbolTableRecord
100
AcDbBlockTableRecord
  2
_OPEN30
  0
BLOCK_RECORD
  5
196F
330
1770
100
AcDbSymbolTableRecord
100
AcDbBlockTableRecord
  2
*D1
  0
BLOCK_RECORD
  5
1975
330
1770
100
AcDbSymbolTableRecord
100
AcDbBlockTableRecord
  2
*U2
  0
BLOCK_RECORD
  5
197B
330
1770
100
AcDbSymbolTableRecord
100
AcDbBlockTableRecord
  2
*D3
  0
BLOCK_RECORD
  5
1982
330
1770
100
AcDbSymbolTableRecord
100
AcDbBlockTableRecord
  2
*U4
  0
BLOCK_RECORD
  5
1988
330
1770
100
AcDbSymbolTableRecord
100
AcDbBlockTableRecord
  2
*D5
  0
BLOCK_RECORD
  5
1991
330
1770
100
AcDbSymbolTableRecord
100
AcDbBlockTableRecord
  2
*U6
  0
BLOCK_RECORD
  5
1997
330
1770
100
AcDbSymbolTableRecord
100
AcDbBlockTableRecord
  2
*D7
  0
BLOCK_RECORD
  5
199D
330
1770
100
AcDbSymbolTableRecord
100
AcDbBlockTableRecord
  2
*U8
  0
BLOCK_RECORD
  5
19A3
330
1770
100
AcDbSymbolTableRecord
100
AcDbBlockTableRecord
  2
*D9
  0
BLOCK_RECORD
  5
19A9
330
1770
100
AcDbSymbolTableRecord
100
AcDbBlockTableRecord
  2
*U10
  0
BLOCK_RECORD
  5
19AF
330
1770
100
AcDbSymbolTableRecord
100
AcDbBlockTableRecord
  2
*D11
  0
BLOCK_RECORD
  5
19BD
330
1770
100
AcDbSymbolTableRecord
100
AcDbBlockTableRecord
  2
*D12
  0
BLOCK_RECORD
  5
19C4
330
1770
100
AcDbSymbolTableRecord
100
AcDbBlockTableRecord
  2
*U13
  0
BLOCK_RECORD
  5
19CA
330
1770
100
AcDbSymbolTableRecord
100
AcDbBlockTableRecord
  2
*D14
  0
BLOCK_RECORD
  5
19D1
330
1770
100
AcDbSymbolTableRecord
100
AcDbBlockTableRecord
  2
*U15
  0
BLOCK_RECORD
  5
19D7
330
1770
100
AcDbSymbolTableRecord
100
AcDbBlockTableRecord
  2
*D16
  0
BLOCK_RECORD
  5
19DE
330
1770
100
AcDbSymbolTableRecord
100
AcDbBlockTableRecord
  2
*U17
  0
BLOCK_RECORD
  5
19E4
330
1770
100
AcDbSymbolTableRecord
100
AcDbBlockTableRecord
  2
*D18
  0
BLOCK_RECORD
  5
19EB
330
1770
100
AcDbSymbolTableRecord
100
AcDbBlockTableRecord
  2
*U19
  0
BLOCK_RECORD
  5
19F1
330
1770
100
AcDbSymbolTableRecord
100
AcDbBlockTableRecord
  2
*D20
  0
BLOCK_RECORD
  5
19F8
330
1770
100
AcDbSymbolTableRecord
100
AcDbBlockTableRecord
  2
*U21
  0
BLOCK_RECORD
  5
19FD
330
1770
100
AcDbSymbolTableRecord
100
AcDbBlockTableRecord
  2
*D22
  0
BLOCK_RECORD
  5
1A04
330
1770
100
AcDbSymbolTableRecord
100
AcDbBlockTableRecord
  2
*U23
  0
BLOCK_RECORD
  5
1ACF
330
1770
100
AcDbSymbolTableRecord
100
AcDbBlockTableRecord
  2
*U24
  0
BLOCK_RECORD
  5
1AD9
330
1770
100
AcDbSymbolTableRecord
100
AcDbBlockTableRecord
  2
*X25
  0
BLOCK_RECORD
  5
1AEB
330
1770
100
AcDbSymbolTableRecord
100
AcDbBlockTableRecord
  2
*X26
  0
BLOCK_RECORD
  5
1AFD
330
1770
100
AcDbSymbolTableRecord
100
AcDbBlockTableRecord
  2
*U27
  0
BLOCK_RECORD
  5
1B01
330
1770
100
AcDbSymbolTableRecord
100
AcDbBlockTableRecord
  2
*U28
  0
BLOCK_RECORD
  5
1B05
330
1770
100
AcDbSymbolTableRecord
100
AcDbBlockTableRecord
  2
*U29
  0
BLOCK_RECORD
  5
1B0E
330
1770
100
AcDbSymbolTableRecord
100
AcDbBlockTableRecord
  2
*U30
  0
BLOCK_RECORD
  5
1B5B
330
1770
100
AcDbSymbolTableRecord
100
AcDbBlockTableRecord
  2
*U31
  0
BLOCK_RECORD
  5
1B5F
330
1770
100
AcDbSymbolTableRecord
100
AcDbBlockTableRecord
  2
*U32
  0
BLOCK_RECORD
  5
1B68
330
1770
100
AcDbSymbolTableRecord
100
AcDbBlockTableRecord
  2
*X33
  0
BLOCK_RECORD
  5
1C59
330
1770
100
AcDbSymbolTableRecord
100
AcDbBlockTableRecord
  2
*D34
  0
ENDTAB
  0
ENDSEC
  0
SECTION
  2
BLOCKS
  0
BLOCK
  5
178E
330
178D
100
AcDbEntity
  8
0
100
AcDbBlockBegin
  2
*MODEL_SPACE
 70
     0
 10
0.0
 20
0.0
 30
0.0
  3
*MODEL_SPACE
  1

  0
ENDBLK
  5
178F
330
178D
100
AcDbEntity
  8
0
100
AcDbBlockEnd
  0
BLOCK
  5
178A
330
1789
100
AcDbEntity
 67
     1
  8
0
100
AcDbBlockBegin
  2
*PAPER_SPACE
 70
     0
 10
0.0
 20
0.0
 30
0.0
  3
*PAPER_SPACE
  1

  0
ENDBLK
  5
178B
330
1789
100
AcDbEntity
 67
     1
  8
0
100
AcDbBlockEnd
  0
BLOCK
  5
17C2
330
17C1
100
AcDbEntity
  8
0
100
AcDbBlockBegin
  2
_OPEN30
 70
     0
 10
0.0
 20
0.0
 30
0.0
  3
_OPEN30
  1

  0
LINE
  5
17C3
330
17C1
100
AcDbEntity
  8
0
  6
BYBLOCK
 62
     0
100
AcDbLine
 10
-1.0
 20
0.26794919
 30
0.0
 11
0.0
 21
0.0
 31
0.0
  0
LINE
  5
17C4
330
17C1
100
AcDbEntity
  8
0
  6
BYBLOCK
 62
     0
100
AcDbLine
 10
0.0
 20
0.0
 30
0.0
 11
-1.0
 21
-0.26794919
 31
0.0
  0
LINE
  5
17C5
330
17C1
100
AcDbEntity
  8
0
  6
BYBLOCK
 62
     0
100
AcDbLine
 10
0.0
 20
0.0
 30
0.0
 11
-1.0
 21
0.0
 31
0.0
  0
ENDBLK
  5
17C6
330
17C1
100
AcDbEntity
  8
0
100
AcDbBlockEnd
  0
BLOCK
  5
1970
330
196F
100
AcDbEntity
  8
0
100
AcDbBlockBegin
  2
*D1
 70
     1
 10
0.0
 20
0.0
 30
0.0
  3
*D1
  1

  0
LINE
  5
1971
330
196F
100
AcDbEntity
  8
DIMENSION
100
AcDbLine
 10
19.10164880763441
 20
80.99999999999997
 30
0.0
 11
19.10164880763441
 21
85.74999999999997
 31
0.0
  0
LINE
  5
1972
330
196F
100
AcDbEntity
  8
DIMENSION
100
AcDbLine
 10
20.10164880763441
 20
84.24999999999997
 30
0.0
 11
23.10164880763441
 21
84.24999999999997
 31
0.0
  0
INSERT
  5
1973
330
196F
100
AcDbEntity
  8
DIMENSION
100
AcDbBlockReference
  2
_OPEN30
 10
19.10164880763441
 20
84.24999999999997
 30
0.0
 50
180.0
  0
INSERT
  5
1974
330
196F
100
AcDbEntity
  8
DIMENSION
100
AcDbBlockReference
  2
_OPEN30
 10
24.10164880763441
 20
84.24999999999997
 30
0.0
  0
INSERT
  5
1976
330
196F
100
AcDbEntity
  8
0
100
AcDbBlockReference
  2
*U2
 10
0.0
 20
0.0
 30
0.0
  0
POINT
  5
1977
330
196F
100
AcDbEntity
  8
DEFPOINTS
 62
     0
100
AcDbPoint
 10
19.10164880763441
 20
80.99999999999997
 30
0.0
  0
POINT
  5
1978
330
196F
100
AcDbEntity
  8
DEFPOINTS
 62
     0
100
AcDbPoint
 10
24.10164880763441
 20
80.99999999999997
 30
0.0
  0
POINT
  5
1979
330
196F
100
AcDbEntity
  8
DEFPOINTS
 62
     0
100
AcDbPoint
 10
24.10164880763441
 20
84.24999999999997
 30
0.0
  0
ENDBLK
  5
197A
330
196F
100
AcDbEntity
  8
0
100
AcDbBlockEnd
  0
BLOCK
  5
1BAC
330
1975
100
AcDbEntity
  8
0
100
AcDbBlockBegin
  2
*U2
 70
     1
 10
0.0
 20
0.0
 30
0.0
  3
*U2
  1

  0
TEXT
  5
1BAD
330
1975
100
AcDbEntity
  8
DIMENSION
100
AcDbText
 10
21.12956758936028
 20
84.74999999999997
 30
0.0
 40
1.5
  1
5
  7
GOTHIC
100
AcDbText
  0
ENDBLK
  5
1BAE
330
1975
100
AcDbEntity
  8
0
100
AcDbBlockEnd
  0
BLOCK
  5
197C
330
197B
100
AcDbEntity
  8
0
100
AcDbBlockBegin
  2
*D3
 70
     1
 10
0.0
 20
0.0
 30
0.0
  3
*D3
  1

  0
LINE
  5
197D
330
197B
100
AcDbEntity
  8
DIMENSION
100
AcDbLine
 10
17.10164880763441
 20
80.99999999999997
 30
0.0
 11
10.21633111563914
 21
80.99999999999997
 31
0.0
  0
LINE
  5
197E
330
197B
100
AcDbEntity
  8
DIMENSION
100
AcDbLine
 10
17.10164880763441
 20
65.99999999999997
 30
0.0
 11
10.21633111563913
 21
65.99999999999997
 31
0.0
  0
LINE
  5
197F
330
197B
100
AcDbEntity
  8
DIMENSION
100
AcDbLine
 10
11.71633111563914
 20
79.99999999999997
 30
0.0
 11
11.71633111563913
 21
66.99999999999997
 31
0.0
  0
INSERT
  5
1980
330
197B
100
AcDbEntity
  8
DIMENSION
100
AcDbBlockReference
  2
_OPEN30
 10
11.71633111563914
 20
80.99999999999997
 30
0.0
 50
90.0
  0
INSERT
  5
1981
330
197B
100
AcDbEntity
  8
DIMENSION
100
AcDbBlockReference
  2
_OPEN30
 10
11.71633111563913
 20
65.99999999999997
 30
0.0
 50
270.0
  0
INSERT
  5
1983
330
197B
100
AcDbEntity
  8
0
100
AcDbBlockReference
  2
*U4
 10
0.0
 20
0.0
 30
0.0
  0
POINT
  5
1984
330
197B
100
AcDbEntity
  8
DEFPOINTS
 62
     0
100
AcDbPoint
 10
17.10164880763441
 20
80.99999999999997
 30
0.0
  0
POINT
  5
1985
330
197B
100
AcDbEntity
  8
DEFPOINTS
 62
     0
100
AcDbPoint
 10
17.10164880763441
 20
65.99999999999997
 30
0.0
  0
POINT
  5
1986
330
197B
100
AcDbEntity
  8
DEFPOINTS
 62
     0
100
AcDbPoint
 10
11.71633111563913
 20
65.99999999999997
 30
0.0
  0
ENDBLK
  5
1987
330
197B
100
AcDbEntity
  8
0
100
AcDbBlockEnd
  0
BLOCK
  5
1BAF
330
1982
100
AcDbEntity
  8
0
100
AcDbBlockBegin
  2
*U4
 70
     1
 10
0.0
 20
0.0
 30
0.0
  3
*U4
  1

  0
TEXT
  5
1BB0
330
1982
100
AcDbEntity
  8
DIMENSION
100
AcDbText
 10
11.2163311156391
 20
72.48730964467002
 30
0.0
 40
1.5
  1
15
 50
90.0
  7
GOTHIC
100
AcDbText
  0
ENDBLK
  5
1BB1
330
1982
100
AcDbEntity
  8
0
100
AcDbBlockEnd
  0
BLOCK
  5
1989
330
1988
100
AcDbEntity
  8
0
100
AcDbBlockBegin
  2
*D5
 70
     1
 10
0.0
 20
0.0
 30
0.0
  3
*D5
  1

  0
LINE
  5
198A
330
1988
100
AcDbEntity
  8
DIMENSION
100
AcDbLine
 10
45.25
 20
74.99999999999997
 30
0.0
 11
39.75
 21
74.99999999999997
 31
0.0
  0
LINE
  5
198B
330
1988
100
AcDbEntity
  8
DIMENSION
100
AcDbLine
 10
45.25000000000001
 20
71.99999999999997
 30
0.0
 11
39.75
 21
71.99999999999997
 31
0.0
  0
LINE
  5
198C
330
1988
100
AcDbEntity
  8
DIMENSION
100
AcDbLine
 10
41.25
 20
75.99999999999997
 30
0.0
 11
41.25
 21
76.99999999999997
 31
0.0
  0
LINE
  5
198D
330
1988
100
AcDbEntity
  8
DIMENSION
100
AcDbLine
 10
41.25
 20
70.99999999999997
 30
0.0
 11
41.25
 21
69.99999999999997
 31
0.0
  0
LINE
  5
198E
330
1988
100
AcDbEntity
  8
DIMENSION
100
AcDbLine
 10
41.25
 20
74.99999999999997
 30
0.0
 11
41.25
 21
71.99999999999997
 31
0.0
  0
INSERT
  5
198F
330
1988
100
AcDbEntity
  8
DIMENSION
100
AcDbBlockReference
  2
_OPEN30
 10
41.25
 20
74.99999999999997
 30
0.0
 50
270.0
  0
INSERT
  5
1990
330
1988
100
AcDbEntity
  8
DIMENSION
100
AcDbBlockReference
  2
_OPEN30
 10
41.25
 20
71.99999999999997
 30
0.0
 50
90.0
  0
INSERT
  5
1992
330
1988
100
AcDbEntity
  8
0
100
AcDbBlockReference
  2
*U6
 10
0.0
 20
0.0
 30
0.0
  0
POINT
  5
1993
330
1988
100
AcDbEntity
  8
DEFPOINTS
 62
     0
100
AcDbPoint
 10
45.25
 20
74.99999999999997
 30
0.0
  0
POINT
  5
1994
330
1988
100
AcDbEntity
  8
DEFPOINTS
 62
     0
100
AcDbPoint
 10
45.25000000000001
 20
71.99999999999997
 30
0.0
  0
POINT
  5
1995
330
1988
100
AcDbEntity
  8
DEFPOINTS
 62
     0
100
AcDbPoint
 10
41.25
 20
71.99999999999997
 30
0.0
  0
ENDBLK
  5
1996
330
1988
100
AcDbEntity
  8
0
100
AcDbBlockEnd
  0
BLOCK
  5
1B2A
330
1991
100
AcDbEntity
  8
0
100
AcDbBlockBegin
  2
*U6
 70
     1
 10
0.0
 20
0.0
 30
0.0
  3
*U6
  1

  0
TEXT
  5
1B2B
330
1991
100
AcDbEntity
  8
DIMENSION
100
AcDbText
 10
40.74999999999999
 20
73.02791878172588
 30
0.0
 40
1.5
  1
3
 50
90.0
  7
GOTHIC
100
AcDbText
  0
ENDBLK
  5
1B2C
330
1991
100
AcDbEntity
  8
0
100
AcDbBlockEnd
  0
BLOCK
  5
1998
330
1997
100
AcDbEntity
  8
0
100
AcDbBlockBegin
  2
*D7
 70
     1
 10
0.0
 20
0.0
 30
0.0
  3
*D7
  1

  0
LINE
  5
1999
330
1997
100
AcDbEntity
  8
DIMENSION
100
AcDbLine
 10
62.75
 20
80.99999999999997
 30
0.0
 11
62.75
 21
85.74999999999997
 31
0.0
  0
LINE
  5
199A
330
1997
100
AcDbEntity
  8
DIMENSION
100
AcDbLine
 10
63.75
 20
84.24999999999997
 30
0.0
 11
73.25
 21
84.24999999999997
 31
0.0
  0
INSERT
  5
199B
330
1997
100
AcDbEntity
  8
DIMENSION
100
AcDbBlockReference
  2
_OPEN30
 10
62.75
 20
84.24999999999997
 30
0.0
 50
180.0
  0
INSERT
  5
199C
330
1997
100
AcDbEntity
  8
DIMENSION
100
AcDbBlockReference
  2
_OPEN30
 10
74.25
 20
84.24999999999997
 30
0.0
  0
INSERT
  5
199E
330
1997
100
AcDbEntity
  8
0
100
AcDbBlockReference
  2
*U8
 10
0.0
 20
0.0
 30
0.0
  0
POINT
  5
199F
330
1997
100
AcDbEntity
  8
DEFPOINTS
 62
     0
100
AcDbPoint
 10
62.75
 20
80.99999999999997
 30
0.0
  0
POINT
  5
19A0
330
1997
100
AcDbEntity
  8
DEFPOINTS
 62
     0
100
AcDbPoint
 10
74.25
 20
82.74999999999996
 30
0.0
  0
POINT
  5
19A1
330
1997
100
AcDbEntity
  8
DEFPOINTS
 62
     0
100
AcDbPoint
 10
74.25
 20
84.24999999999997
 30
0.0
  0
ENDBLK
  5
19A2
330
1997
100
AcDbEntity
  8
0
100
AcDbBlockEnd
  0
BLOCK
  5
1BA0
330
199D
100
AcDbEntity
  8
0
100
AcDbBlockBegin
  2
*U8
 70
     1
 10
0.0
 20
0.0
 30
0.0
  3
*U8
  1

  0
TEXT
  5
1BA1
330
199D
100
AcDbEntity
  8
DIMENSION
100
AcDbText
 10
66.51269035532995
 20
84.74999999999997
 30
0.0
 40
1.5
  1
11.5
  7
GOTHIC
100
AcDbText
  0
ENDBLK
  5
1BA2
330
199D
100
AcDbEntity
  8
0
100
AcDbBlockEnd
  0
BLOCK
  5
19A4
330
19A3
100
AcDbEntity
  8
0
100
AcDbBlockBegin
  2
*D9
 70
     1
 10
0.0
 20
0.0
 30
0.0
  3
*D9
  1

  0
LINE
  5
19A5
330
19A3
100
AcDbEntity
  8
DIMENSION
100
AcDbLine
 10
62.75
 20
80.99999999999997
 30
0.0
 11
62.75
 21
85.74999999999997
 31
0.0
  0
LINE
  5
19A6
330
19A3
100
AcDbEntity
  8
DIMENSION
100
AcDbLine
 10
46.24999999999981
 20
84.24999999999997
 30
0.0
 11
61.75
 21
84.24999999999997
 31
0.0
  0
INSERT
  5
19A7
330
19A3
100
AcDbEntity
  8
DIMENSION
100
AcDbBlockReference
  2
_OPEN30
 10
45.24999999999979
 20
84.24999999999997
 30
0.0
 50
180.0
  0
INSERT
  5
19A8
330
19A3
100
AcDbEntity
  8
DIMENSION
100
AcDbBlockReference
  2
_OPEN30
 10
62.75
 20
84.24999999999997
 30
0.0
  0
INSERT
  5
19AA
330
19A3
100
AcDbEntity
  8
0
100
AcDbBlockReference
  2
*U10
 10
0.0
 20
0.0
 30
0.0
  0
POINT
  5
19AB
330
19A3
100
AcDbEntity
  8
DEFPOINTS
 62
     0
100
AcDbPoint
 10
45.24999999999979
 20
74.99999999999982
 30
0.0
  0
POINT
  5
19AC
330
19A3
100
AcDbEntity
  8
DEFPOINTS
 62
     0
100
AcDbPoint
 10
62.75
 20
80.99999999999997
 30
0.0
  0
POINT
  5
19AD
330
19A3
100
AcDbEntity
  8
DEFPOINTS
 62
     0
100
AcDbPoint
 10
62.75
 20
84.24999999999997
 30
0.0
  0
ENDBLK
  5
19AE
330
19A3
100
AcDbEntity
  8
0
100
AcDbBlockEnd
  0
BLOCK
  5
1B9D
330
19A9
100
AcDbEntity
  8
0
100
AcDbBlockBegin
  2
*U10
 70
     1
 10
0.0
 20
0.0
 30
0.0
  3
*U10
  1

  0
TEXT
  5
1B9E
330
19A9
100
AcDbEntity
  8
DIMENSION
100
AcDbText
 10
52.01269035532984
 20
84.74999999999997
 30
0.0
 40
1.5
  1
17.5
  7
GOTHIC
100
AcDbText
  0
ENDBLK
  5
1B9F
330
19A9
100
AcDbEntity
  8
0
100
AcDbBlockEnd
  0
BLOCK
  5
19B0
330
19AF
100
AcDbEntity
  8
0
100
AcDbBlockBegin
  2
*D11
 70
     1
 10
0.0
 20
0.0
 30
0.0
  3
*D11
  1

  0
LINE
  5
19B1
330
19AF
100
AcDbEntity
  8
DIMENSION
100
AcDbLine
 10
22.60164880763441
 20
65.99999999999997
 30
0.0
 11
22.60164880763441
 21
60.24999999999997
 31
0.0
  0
LINE
  5
19B2
330
19AF
100
AcDbEntity
  8
DIMENSION
100
AcDbLine
 10
24.10164880763441
 20
65.99999999999997
 30
0.0
 11
24.10164880763441
 21
60.24999999999997
 31
0.0
  0
LINE
  5
19B3
330
19AF
100
AcDbEntity
  8
DIMENSION
100
AcDbLine
 10
21.60164880763441
 20
61.74999999999997
 30
0.0
 11
20.60164880763441
 21
61.74999999999997
 31
0.0
  0
LINE
  5
19B4
330
19AF
100
AcDbEntity
  8
DIMENSION
100
AcDbLine
 10
25.10164880763441
 20
61.74999999999997
 30
0.0
 11
29.77547373984307
 21
61.74999999999997
 31
0.0
  0
LINE
  5
19B5
330
19AF
100
AcDbEntity
  8
DIMENSION
100
AcDbLine
 10
22.60164880763441
 20
61.74999999999997
 30
0.0
 11
24.10164880763441
 21
61.74999999999997
 31
0.0
  0
INSERT
  5
19B6
330
19AF
100
AcDbEntity
  8
DIMENSION
100
AcDbBlockReference
  2
_OPEN30
 10
22.60164880763441
 20
61.74999999999997
 30
0.0
  0
INSERT
  5
19B7
330
19AF
100
AcDbEntity
  8
DIMENSION
100
AcDbBlockReference
  2
_OPEN30
 10
24.10164880763441
 20
61.74999999999997
 30
0.0
 50
180.0
  0
TEXT
  5
19B8
330
19AF
100
AcDbEntity
  8
DIMENSION
100
AcDbText
 10
27.9658
 20
61.05
 30
0.0
 40
1.5
  1
1.5
  7
GOTHIC
100
AcDbText
  0
POINT
  5
19B9
330
19AF
100
AcDbEntity
  8
DEFPOINTS
 62
     0
100
AcDbPoint
 10
22.60164880763441
 20
65.99999999999997
 30
0.0
  0
POINT
  5
19BA
330
19AF
100
AcDbEntity
  8
DEFPOINTS
 62
     0
100
AcDbPoint
 10
24.10164880763441
 20
65.99999999999997
 30
0.0
  0
POINT
  5
19BB
330
19AF
100
AcDbEntity
  8
DEFPOINTS
 62
     0
100
AcDbPoint
 10
24.10164880763441
 20
61.74999999999997
 30
0.0
  0
ENDBLK
  5
19BC
330
19AF
100
AcDbEntity
  8
0
100
AcDbBlockEnd
  0
BLOCK
  5
19BE
330
19BD
100
AcDbEntity
  8
0
100
AcDbBlockBegin
  2
*D12
 70
     1
 10
0.0
 20
0.0
 30
0.0
  3
*D12
  1

  0
LINE
  5
19BF
330
19BD
100
AcDbEntity
  8
DIMENSION
100
AcDbLine
 10
45.24999999999979
 20
74.99999999999982
 30
0.0
 11
45.24999999999979
 21
90.24999999999996
 31
0.0
  0
LINE
  5
19C0
330
19BD
100
AcDbEntity
  8
DIMENSION
100
AcDbLine
 10
74.24999999999998
 20
82.74999999999996
 30
0.0
 11
74.24999999999998
 21
90.24999999999996
 31
0.0
  0
LINE
  5
19C1
330
19BD
100
AcDbEntity
  8
DIMENSION
100
AcDbLine
 10
46.24999999999981
 20
88.74999999999996
 30
0.0
 11
73.24999999999999
 21
88.74999999999996
 31
0.0
  0
INSERT
  5
19C2
330
19BD
100
AcDbEntity
  8
DIMENSION
100
AcDbBlockReference
  2
_OPEN30
 10
45.24999999999979
 20
88.74999999999996
 30
0.0
 50
180.0
  0
INSERT
  5
19C3
330
19BD
100
AcDbEntity
  8
DIMENSION
100
AcDbBlockReference
  2
_OPEN30
 10
74.24999999999998
 20
88.74999999999996
 30
0.0
  0
INSERT
  5
19C5
330
19BD
100
AcDbEntity
  8
0
100
AcDbBlockReference
  2
*U13
 10
0.0
 20
0.0
 30
0.0
  0
POINT
  5
19C6
330
19BD
100
AcDbEntity
  8
DEFPOINTS
 62
     0
100
AcDbPoint
 10
45.24999999999979
 20
74.99999999999982
 30
0.0
  0
POINT
  5
19C7
330
19BD
100
AcDbEntity
  8
DEFPOINTS
 62
     0
100
AcDbPoint
 10
74.24999999999998
 20
82.74999999999996
 30
0.0
  0
POINT
  5
19C8
330
19BD
100
AcDbEntity
  8
DEFPOINTS
 62
     0
100
AcDbPoint
 10
74.24999999999998
 20
88.74999999999996
 30
0.0
  0
ENDBLK
  5
19C9
330
19BD
100
AcDbEntity
  8
0
100
AcDbBlockEnd
  0
BLOCK
  5
1BA3
330
19C4
100
AcDbEntity
  8
0
100
AcDbBlockBegin
  2
*U13
 70
     1
 10
0.0
 20
0.0
 30
0.0
  3
*U13
  1

  0
TEXT
  5
1BA4
330
19C4
100
AcDbEntity
  8
DIMENSION
100
AcDbText
 10
58.78680203045674
 20
89.24999999999995
 30
0.0
 40
1.5
  1
29
  7
GOTHIC
100
AcDbText
  0
ENDBLK
  5
1BA5
330
19C4
100
AcDbEntity
  8
0
100
AcDbBlockEnd
  0
BLOCK
  5
19CB
330
19CA
100
AcDbEntity
  8
0
100
AcDbBlockBegin
  2
*D14
 70
     1
 10
0.0
 20
0.0
 30
0.0
  3
*D14
  1

  0
LINE
  5
19CC
330
19CA
100
AcDbEntity
  8
DIMENSION
100
AcDbLine
 10
45.23746859276656
 20
47.0
 30
0.0
 11
39.73746859276655
 21
47.0
 31
0.0
  0
LINE
  5
19CD
330
19CA
100
AcDbEntity
  8
DIMENSION
100
AcDbLine
 10
57.17051095420977
 20
42.0
 30
0.0
 11
39.73746859276655
 21
42.00000000000001
 31
0.0
  0
LINE
  5
19CE
330
19CA
100
AcDbEntity
  8
DIMENSION
100
AcDbLine
 10
41.23746859276653
 20
46.0
 30
0.0
 11
41.23746859276653
 21
43.0
 31
0.0
  0
INSERT
  5
19CF
330
19CA
100
AcDbEntity
  8
DIMENSION
100
AcDbBlockReference
  2
_OPEN30
 10
41.23746859276653
 20
47.0
 30
0.0
 50
90.0
  0
INSERT
  5
19D0
330
19CA
100
AcDbEntity
  8
DIMENSION
100
AcDbBlockReference
  2
_OPEN30
 10
41.23746859276653
 20
42.00000000000001
 30
0.0
 50
270.0
  0
INSERT
  5
19D2
330
19CA
100
AcDbEntity
  8
0
100
AcDbBlockReference
  2
*U15
 10
0.0
 20
0.0
 30
0.0
  0
POINT
  5
19D3
330
19CA
100
AcDbEntity
  8
DEFPOINTS
 62
     0
100
AcDbPoint
 10
45.23746859276656
 20
47.0
 30
0.0
  0
POINT
  5
19D4
330
19CA
100
AcDbEntity
  8
DEFPOINTS
 62
     0
100
AcDbPoint
 10
57.17051095420977
 20
42.0
 30
0.0
  0
POINT
  5
19D5
330
19CA
100
AcDbEntity
  8
DEFPOINTS
 62
     0
100
AcDbPoint
 10
41.23746859276653
 20
42.00000000000001
 30
0.0
  0
ENDBLK
  5
19D6
330
19CA
100
AcDbEntity
  8
0
100
AcDbBlockEnd
  0
BLOCK
  5
1B86
330
19D1
100
AcDbEntity
  8
0
100
AcDbBlockBegin
  2
*U15
 70
     1
 10
0.0
 20
0.0
 30
0.0
  3
*U15
  1

  0
TEXT
  5
1B87
330
19D1
100
AcDbEntity
  8
DIMENSION
100
AcDbText
 10
40.73746859276654
 20
44.0279187817259
 30
0.0
 40
1.5
  1
5
 50
90.0
  7
GOTHIC
100
AcDbText
  0
ENDBLK
  5
1B88
330
19D1
100
AcDbEntity
  8
0
100
AcDbBlockEnd
  0
BLOCK
  5
19D8
330
19D7
100
AcDbEntity
  8
0
100
AcDbBlockBegin
  2
*D16
 70
     1
 10
0.0
 20
0.0
 30
0.0
  3
*D16
  1

  0
LINE
  5
19D9
330
19D7
100
AcDbEntity
  8
DIMENSION
100
AcDbLine
 10
63.23746859276654
 20
39.99999999999999
 30
0.0
 11
63.23746859276654
 21
33.74999999999999
 31
0.0
  0
LINE
  5
19DA
330
19D7
100
AcDbEntity
  8
DIMENSION
100
AcDbLine
 10
74.23746859276654
 20
38.50483583895277
 30
0.0
 11
74.23746859276654
 21
33.74999999999999
 31
0.0
  0
LINE
  5
19DB
330
19D7
100
AcDbEntity
  8
DIMENSION
100
AcDbLine
 10
64.23746859276654
 20
35.24999999999999
 30
0.0
 11
73.23746859276655
 21
35.24999999999999
 31
0.0
  0
INSERT
  5
19DC
330
19D7
100
AcDbEntity
  8
DIMENSION
100
AcDbBlockReference
  2
_OPEN30
 10
63.23746859276654
 20
35.24999999999999
 30
0.0
 50
180.0
  0
INSERT
  5
19DD
330
19D7
100
AcDbEntity
  8
DIMENSION
100
AcDbBlockReference
  2
_OPEN30
 10
74.23746859276654
 20
35.24999999999999
 30
0.0
  0
INSERT
  5
19DF
330
19D7
100
AcDbEntity
  8
0
100
AcDbBlockReference
  2
*U17
 10
0.0
 20
0.0
 30
0.0
  0
POINT
  5
19E0
330
19D7
100
AcDbEntity
  8
DEFPOINTS
 62
     0
100
AcDbPoint
 10
63.23746859276654
 20
39.99999999999999
 30
0.0
  0
POINT
  5
19E1
330
19D7
100
AcDbEntity
  8
DEFPOINTS
 62
     0
100
AcDbPoint
 10
74.23746859276654
 20
38.50483583895277
 30
0.0
  0
POINT
  5
19E2
330
19D7
100
AcDbEntity
  8
DEFPOINTS
 62
     0
100
AcDbPoint
 10
74.23746859276654
 20
35.24999999999999
 30
0.0
  0
ENDBLK
  5
19E3
330
19D7
100
AcDbEntity
  8
0
100
AcDbBlockEnd
  0
BLOCK
  5
1B8D
330
19DE
100
AcDbEntity
  8
0
100
AcDbBlockBegin
  2
*U17
 70
     1
 10
0.0
 20
0.0
 30
0.0
  3
*U17
  1

  0
TEXT
  5
1B8E
330
19DE
100
AcDbEntity
  8
DIMENSION
100
AcDbText
 10
67.85802696840106
 20
35.74999999999999
 30
0.0
 40
1.5
  1
11
  7
GOTHIC
100
AcDbText
  0
ENDBLK
  5
1B8F
330
19DE
100
AcDbEntity
  8
0
100
AcDbBlockEnd
  0
BLOCK
  5
19E5
330
19E4
100
AcDbEntity
  8
0
100
AcDbBlockBegin
  2
*D18
 70
     1
 10
0.0
 20
0.0
 30
0.0
  3
*D18
  1

  0
LINE
  5
19E6
330
19E4
100
AcDbEntity
  8
DIMENSION
100
AcDbLine
 10
108.9145929372342
 20
47.0
 30
0.0
 11
120.7374685927664
 21
46.99999999999999
 31
0.0
  0
LINE
  5
19E7
330
19E4
100
AcDbEntity
  8
DIMENSION
100
AcDbLine
 10
108.9145929372342
 20
40.0
 30
0.0
 11
120.7374685927664
 21
40.0
 31
0.0
  0
LINE
  5
19E8
330
19E4
100
AcDbEntity
  8
DIMENSION
100
AcDbLine
 10
119.2374685927664
 20
45.99999999999999
 30
0.0
 11
119.2374685927664
 21
40.99999999999999
 31
0.0
  0
INSERT
  5
19E9
330
19E4
100
AcDbEntity
  8
DIMENSION
100
AcDbBlockReference
  2
_OPEN30
 10
119.2374685927664
 20
46.99999999999999
 30
0.0
 50
90.0
  0
INSERT
  5
19EA
330
19E4
100
AcDbEntity
  8
DIMENSION
100
AcDbBlockReference
  2
_OPEN30
 10
119.2374685927664
 20
40.0
 30
0.0
 50
270.0
  0
INSERT
  5
19EC
330
19E4
100
AcDbEntity
  8
0
100
AcDbBlockReference
  2
*U19
 10
0.0
 20
0.0
 30
0.0
  0
POINT
  5
19ED
330
19E4
100
AcDbEntity
  8
DEFPOINTS
 62
     0
100
AcDbPoint
 10
108.9145929372342
 20
47.0
 30
0.0
  0
POINT
  5
19EE
330
19E4
100
AcDbEntity
  8
DEFPOINTS
 62
     0
100
AcDbPoint
 10
108.9145929372342
 20
40.0
 30
0.0
  0
POINT
  5
19EF
330
19E4
100
AcDbEntity
  8
DEFPOINTS
 62
     0
100
AcDbPoint
 10
119.2374685927664
 20
40.0
 30
0.0
  0
ENDBLK
  5
19F0
330
19E4
100
AcDbEntity
  8
0
100
AcDbBlockEnd
  0
BLOCK
  5
1B90
330
19EB
100
AcDbEntity
  8
0
100
AcDbBlockBegin
  2
*U19
 70
     1
 10
0.0
 20
0.0
 30
0.0
  3
*U19
  1

  0
TEXT
  5
1B91
330
19EB
100
AcDbEntity
  8
DIMENSION
100
AcDbText
 10
118.7374685927664
 20
41.56294416243656
 30
0.0
 40
1.5
  1
7
 50
90.0
  7
GOTHIC
100
AcDbText
  0
TEXT
  5
1B92
330
19EB
100
AcDbEntity
  8
DIMENSION
100
AcDbText
 10
117.1496513338833
 20
42.53756345177666
 30
0.0
 40
1.199999999999999
  1
 0
 50
90.0
  7
GOTHIC
100
AcDbText
  0
TEXT
  5
1B93
330
19EB
100
AcDbEntity
  8
DIMENSION
100
AcDbText
 10
118.7374685927664
 20
42.5010152284264
 30
0.0
 40
1.199999999999999
  1
-0.1
 50
90.0
  7
GOTHIC
100
AcDbText
  0
ENDBLK
  5
1B94
330
19EB
100
AcDbEntity
  8
0
100
AcDbBlockEnd
  0
BLOCK
  5
19F2
330
19F1
100
AcDbEntity
  8
0
100
AcDbBlockBegin
  2
*D20
 70
     1
 10
0.0
 20
0.0
 30
0.0
  3
*D20
  1

  0
LINE
  5
19F3
330
19F1
100
AcDbEntity
  8
DIMENSION
100
AcDbLine
 10
74.7006242161062
 20
74.44838695470723
 30
0.0
 11
73.79937578389402
 21
72.55161304529294
 31
0.0
  0
LINE
  5
19F4
330
19F1
100
AcDbEntity
  8
DIMENSION
100
AcDbLine
 10
73.37020986379295
 20
71.64838737414327
 30
0.0
 11
68.54822335025385
 21
61.50000000000002
 31
0.0
  0
LINE
  5
19F5
330
19F1
100
AcDbEntity
  8
DIMENSION
100
AcDbLine
 10
68.54822335025385
 20
61.50000000000002
 30
0.0
 11
63.95177664974625
 21
61.50000000000002
 31
0.0
  0
INSERT
  5
19F6
330
19F1
100
AcDbEntity
  8
DIMENSION
100
AcDbBlockReference
  2
_OPEN30
 10
75.12979013620726
 20
75.35161262585693
 30
0.0
 50
64.58536102135545
  0
INSERT
  5
19F7
330
19F1
100
AcDbEntity
  8
DIMENSION
100
AcDbBlockReference
  2
_OPEN30
 10
73.37020986379295
 20
71.64838737414327
 30
0.0
 50
244.5853610213555
  0
INSERT
  5
19F9
330
19F1
100
AcDbEntity
  8
0
100
AcDbBlockReference
  2
*U21
 10
0.0
 20
0.0
 30
0.0
  0
POINT
  5
19FA
330
19F1
100
AcDbEntity
  8
DEFPOINTS
 62
     0
100
AcDbPoint
 10
73.37020986379295
 20
71.64838737414327
 30
0.0
  0
POINT
  5
19FB
330
19F1
100
AcDbEntity
  8
DEFPOINTS
 62
     0
100
AcDbPoint
 10
75.12979013620726
 20
75.35161262585693
 30
0.0
  0
ENDBLK
  5
19FC
330
19F1
100
AcDbEntity
  8
0
100
AcDbBlockEnd
  0
BLOCK
  5
1BA6
330
19F8
100
AcDbEntity
  8
0
100
AcDbBlockBegin
  2
*U21
 70
     1
 10
0.0
 20
0.0
 30
0.0
  3
*U21
  1

  0
TEXT
  5
1BA7
330
19F8
100
AcDbEntity
  8
DIMENSION
100
AcDbText
 10
63.55583756345179
 20
62.24365482233505
 30
0.0
 40
1.5
  1
φ4.1
  7
GOTHIC
100
AcDbText
  0
ENDBLK
  5
1BA8
330
19F8
100
AcDbEntity
  8
0
100
AcDbBlockEnd
  0
BLOCK
  5
19FE
330
19FD
100
AcDbEntity
  8
0
100
AcDbBlockBegin
  2
*D22
 70
     1
 10
0.0
 20
0.0
 30
0.0
  3
*D22
  1

  0
LINE
  5
19FF
330
19FD
100
AcDbEntity
  8
DIMENSION
100
AcDbLine
 10
45.23746859276656
 20
47.0
 30
0.0
 11
45.23746859276656
 21
51.0
 31
0.0
  0
LINE
  5
1A00
330
19FD
100
AcDbEntity
  8
DIMENSION
100
AcDbLine
 10
62.73746859276654
 20
47.0
 30
0.0
 11
62.73746859276654
 21
51.0
 31
0.0
  0
LINE
  5
1A01
330
19FD
100
AcDbEntity
  8
DIMENSION
100
AcDbLine
 10
46.23746859276656
 20
49.5
 30
0.0
 11
61.73746859276654
 21
49.5
 31
0.0
  0
INSERT
  5
1A02
330
19FD
100
AcDbEntity
  8
DIMENSION
100
AcDbBlockReference
  2
_OPEN30
 10
45.23746859276656
 20
49.5
 30
0.0
 50
180.0
  0
INSERT
  5
1A03
330
19FD
100
AcDbEntity
  8
DIMENSION
100
AcDbBlockReference
  2
_OPEN30
 10
62.73746859276654
 20
49.5
 30
0.0
  0
INSERT
  5
1A05
330
19FD
100
AcDbEntity
  8
0
100
AcDbBlockReference
  2
*U23
 10
0.0
 20
0.0
 30
0.0
  0
POINT
  5
1A06
330
19FD
100
AcDbEntity
  8
DEFPOINTS
 62
     0
100
AcDbPoint
 10
45.23746859276656
 20
47.0
 30
0.0
  0
POINT
  5
1A07
330
19FD
100
AcDbEntity
  8
DEFPOINTS
 62
     0
100
AcDbPoint
 10
62.73746859276654
 20
47.0
 30
0.0
  0
POINT
  5
1A08
330
19FD
100
AcDbEntity
  8
DEFPOINTS
 62
     0
100
AcDbPoint
 10
62.73746859276654
 20
49.5
 30
0.0
  0
ENDBLK
  5
1A09
330
19FD
100
AcDbEntity
  8
0
100
AcDbBlockEnd
  0
BLOCK
  5
1BA9
330
1A04
100
AcDbEntity
  8
0
100
AcDbBlockBegin
  2
*U23
 70
     1
 10
0.0
 20
0.0
 30
0.0
  3
*U23
  1

  0
TEXT
  5
1BAA
330
1A04
100
AcDbEntity
  8
DIMENSION
100
AcDbText
 10
52.00015894809649
 20
50.0
 30
0.0
 40
1.5
  1
17.5
  7
GOTHIC
100
AcDbText
  0
ENDBLK
  5
1BAB
330
1A04
100
AcDbEntity
  8
0
100
AcDbBlockEnd
  0
BLOCK
  5
1AD0
330
1ACF
100
AcDbEntity
  8
0
100
AcDbBlockBegin
  2
*U24
 70
     1
 10
0.0
 20
0.0
 30
0.0
  3
*U24
  1

  0
INSERT
  5
1AD1
330
1ACF
100
AcDbEntity
  8
DIMENSION
100
AcDbBlockReference
  2
_OPEN30
 10
53.48826537680674
 20
67.31787761165922
 30
0.0
 50
59.81781145565282
  0
POLYLINE
  5
1AD2
330
1ACF
100
AcDbEntity
  8
DIMENSION
100
AcDb2dPolyline
 66
     1
 10
0.0
 20
0.0
 30
0.0
  0
VERTEX
  5
1AD3
330
1AD2
100
AcDbEntity
  8
DIMENSION
100
AcDbVertex
100
AcDb2dVertex
 10
52.98551413032868
 20
66.45344647839021
 30
0.0
  0
VERTEX
  5
1AD4
330
1AD2
100
AcDbEntity
  8
DIMENSION
100
AcDbVertex
100
AcDb2dVertex
 10
50.25
 20
61.74999999999997
 30
0.0
  0
VERTEX
  5
1AD5
330
1AD2
100
AcDbEntity
  8
DIMENSION
100
AcDbVertex
100
AcDb2dVertex
 10
47.25
 20
61.74999999999997
 30
0.0
  0
VERTEX
  5
1AD6
330
1AD2
100
AcDbEntity
  8
DIMENSION
100
AcDbVertex
100
AcDb2dVertex
 10
46.74999999999999
 20
61.74999999999997
 30
0.0
  0
SEQEND
  5
1AD7
330
1AD2
100
AcDbEntity
  8
DIMENSION
  0
ENDBLK
  5
1AD8
330
1ACF
100
AcDbEntity
  8
0
100
AcDbBlockEnd
  0
BLOCK
  5
1ADA
330
1AD9
100
AcDbEntity
  8
0
100
AcDbBlockBegin
  2
*X25
 70
     1
 10
0.0
 20
0.0
 30
0.0
  3
*X25
  1

  0
LINE
  5
1ADB
330
1AD9
100
AcDbEntity
  8
0
 62
     0
100
AcDbLine
 10
24.10164880763441
 20
73.18553348192587
 30
0.0
 11
23.9721400144303
 21
73.31504227512997
 31
0.0
  0
LINE
  5
1ADC
330
1AD9
100
AcDbEntity
  8
0
 62
     0
100
AcDbLine
 10
24.10164880763441
 20
72.47842670073932
 30
0.0
 11
23.6809276257196
 21
72.89914788265415
 31
0.0
  0
LINE
  5
1ADD
330
1AD9
100
AcDbEntity
  8
0
 62
     0
100
AcDbLine
 10
23.8729687271872
 20
71.99999999999999
 30
0.0
 11
23.38971523700887
 21
72.4832534901783
 31
0.0
  0
LINE
  5
1ADE
330
1AD9
100
AcDbEntity
  8
0
 62
     0
100
AcDbLine
 10
24.10164880763441
 20
71.77131991955278
 30
0.0
 11
23.8729687271872
 21
71.99999999999997
 31
0.0
  0
LINE
  5
1ADF
330
1AD9
100
AcDbEntity
  8
0
 62
     0
100
AcDbLine
 10
23.16586194600067
 20
71.99999999999997
 30
0.0
 11
23.09850284829815
 21
72.06735909770248
 31
0.0
  0
LINE
  5
1AE0
330
1AD9
100
AcDbEntity
  8
0
 62
     0
100
AcDbLine
 10
24.10164880763441
 20
71.06421313836623
 30
0.0
 11
23.16586194600067
 21
71.99999999999997
 31
0.0
  0
LINE
  5
1AE1
330
1AD9
100
AcDbEntity
  8
0
 62
     0
100
AcDbLine
 10
24.10164880763441
 20
70.35710635717967
 30
0.0
 11
22.80729045958743
 21
71.65146470522666
 31
0.0
  0
LINE
  5
1AE2
330
1AD9
100
AcDbEntity
  8
0
 62
     0
100
AcDbLine
 10
24.10164880763441
 20
69.64999957599314
 30
0.0
 11
22.60164880763441
 21
71.14999957599312
 31
0.0
  0
LINE
  5
1AE3
330
1AD9
100
AcDbEntity
  8
0
 62
     0
100
AcDbLine
 10
24.10164880763441
 20
68.94289279480658
 30
0.0
 11
22.60164880763443
 21
70.44289279480658
 31
0.0
  0
LINE
  5
1AE4
330
1AD9
100
AcDbEntity
  8
0
 62
     0
100
AcDbLine
 10
24.10164880763441
 20
68.23578601362005
 30
0.0
 11
22.60164880763443
 21
69.73578601362003
 31
0.0
  0
LINE
  5
1AE5
330
1AD9
100
AcDbEntity
  8
0
 62
     0
100
AcDbLine
 10
24.10164880763441
 20
67.52867923243349
 30
0.0
 11
22.60164880763441
 21
69.02867923243348
 31
0.0
  0
LINE
  5
1AE6
330
1AD9
100
AcDbEntity
  8
0
 62
     0
100
AcDbLine
 10
24.10164880763441
 20
66.82157245124692
 30
0.0
 11
22.60164880763441
 21
68.32157245124692
 31
0.0
  0
LINE
  5
1AE7
330
1AD9
100
AcDbEntity
  8
0
 62
     0
100
AcDbLine
 10
24.10164880763441
 20
66.1144656700604
 30
0.0
 11
22.6016488076344
 21
67.61446567006038
 31
0.0
  0
LINE
  5
1AE8
330
1AD9
100
AcDbEntity
  8
0
 62
     0
100
AcDbLine
 10
23.50900769650829
 20
65.99999999999997
 30
0.0
 11
22.60164880763443
 21
66.90735888887386
 31
0.0
  0
LINE
  5
1AE9
330
1AD9
100
AcDbEntity
  8
0
 62
     0
100
AcDbLine
 10
22.80190091532173
 20
65.99999999999996
 30
0.0
 11
22.60164880763441
 21
66.2002521076873
 31
0.0
  0
ENDBLK
  5
1AEA
330
1AD9
100
AcDbEntity
  8
0
100
AcDbBlockEnd
  0
BLOCK
  5
1AEC
330
1AEB
100
AcDbEntity
  8
0
100
AcDbBlockBegin
  2
*X26
 70
     1
 10
0.0
 20
0.0
 30
0.0
  3
*X26
  1

  0
LINE
  5
1AED
330
1AEB
100
AcDbEntity
  8
0
 62
     0
100
AcDbLine
 10
23.97378926041768
 20
73.68260235750051
 30
0.0
 11
24.10164880763441
 21
73.81046190471725
 31
0.0
  0
LINE
  5
1AEE
330
1AEB
100
AcDbEntity
  8
0
 62
     0
100
AcDbLine
 10
23.68257687170694
 20
74.09849674997634
 30
0.0
 11
24.10164880763441
 21
74.51756868590379
 31
0.0
  0
LINE
  5
1AEF
330
1AEB
100
AcDbEntity
  8
0
 62
     0
100
AcDbLine
 10
23.87697334054403
 20
74.99999999999997
 30
0.0
 11
24.10164880763439
 21
75.2246754670903
 31
0.0
  0
LINE
  5
1AF0
330
1AEB
100
AcDbEntity
  8
0
 62
     0
100
AcDbLine
 10
23.39136448299622
 20
74.51439114245214
 30
0.0
 11
23.87697334054403
 21
74.99999999999997
 31
0.0
  0
LINE
  5
1AF1
330
1AEB
100
AcDbEntity
  8
0
 62
     0
100
AcDbLine
 10
23.16986655935749
 20
74.99999999999997
 30
0.0
 11
24.10164880763441
 21
75.93178224827692
 31
0.0
  0
LINE
  5
1AF2
330
1AEB
100
AcDbEntity
  8
0
 62
     0
100
AcDbLine
 10
23.10015209428549
 20
74.93028553492798
 30
0.0
 11
23.16986655935746
 21
74.99999999999992
 31
0.0
  0
LINE
  5
1AF3
330
1AEB
100
AcDbEntity
  8
0
 62
     0
100
AcDbLine
 10
22.80893970557476
 20
75.34617992740379
 30
0.0
 11
24.10164880763441
 21
76.63888902946343
 31
0.0
  0
LINE
  5
1AF4
330
1AEB
100
AcDbEntity
  8
0
 62
     0
100
AcDbLine
 10
22.60164880763441
 20
75.84599581064998
 30
0.0
 11
24.10164880763441
 21
77.34599581064998
 31
0.0
  0
LINE
  5
1AF5
330
1AEB
100
AcDbEntity
  8
0
 62
     0
100
AcDbLine
 10
22.60164880763441
 20
76.55310259183655
 30
0.0
 11
24.10164880763439
 21
78.05310259183653
 31
0.0
  0
LINE
  5
1AF6
330
1AEB
100
AcDbEntity
  8
0
 62
     0
100
AcDbLine
 10
22.60164880763441
 20
77.26020937302306
 30
0.0
 11
24.10164880763439
 21
78.76020937302306
 31
0.0
  0
LINE
  5
1AF7
330
1AEB
100
AcDbEntity
  8
0
 62
     0
100
AcDbLine
 10
22.60164880763441
 20
77.96731615420963
 30
0.0
 11
24.10164880763441
 21
79.46731615420962
 31
0.0
  0
LINE
  5
1AF8
330
1AEB
100
AcDbEntity
  8
0
 62
     0
100
AcDbLine
 10
22.6016488076344
 20
78.67442293539617
 30
0.0
 11
24.10164880763441
 21
80.17442293539614
 31
0.0
  0
LINE
  5
1AF9
330
1AEB
100
AcDbEntity
  8
0
 62
     0
100
AcDbLine
 10
22.60164880763443
 20
79.38152971658273
 30
0.0
 11
24.10164880763441
 21
80.88152971658272
 31
0.0
  0
LINE
  5
1AFA
330
1AEB
100
AcDbEntity
  8
0
 62
     0
100
AcDbLine
 10
22.60164880763443
 20
80.08863649776928
 30
0.0
 11
23.5130123098651
 21
80.99999999999997
 31
0.0
  0
LINE
  5
1AFB
330
1AEB
100
AcDbEntity
  8
0
 62
     0
100
AcDbLine
 10
22.60164880763441
 20
80.79574327895581
 30
0.0
 11
22.80590552867856
 21
80.99999999999997
 31
0.0
  0
ENDBLK
  5
1AFC
330
1AEB
100
AcDbEntity
  8
0
100
AcDbBlockEnd
  0
BLOCK
  5
1AFE
330
1AFD
100
AcDbEntity
  8
0
100
AcDbBlockBegin
  2
*U27
 70
     1
 10
0.0
 20
0.0
 30
0.0
  3
*U27
  1

  0
TEXT
  5
1AFF
330
1AFD
100
AcDbEntity
  8
DIMENSION
 62
     3
100
AcDbText
 10
18.1375407017533
 20
88.94996974758212
 30
0.0
 40
1.5
  1
35°
 50
17.50000000000001
  7
GOTHIC
100
AcDbText
  0
ENDBLK
  5
1B00
330
1AFD
100
AcDbEntity
  8
0
100
AcDbBlockEnd
  0
BLOCK
  5
1B02
330
1B01
100
AcDbEntity
  8
0
100
AcDbBlockBegin
  2
*U28
 70
     1
 10
0.0
 20
0.0
 30
0.0
  3
*U28
  1

  0
TEXT
  5
1B03
330
1B01
100
AcDbEntity
  8
DIMENSION
 62
     3
100
AcDbText
 10
36.22140724272436
 20
72.69709210407929
 30
0.0
 40
1.5
  1
90°
 50
90.0
  7
GOTHIC
100
AcDbText
  0
ENDBLK
  5
1B04
330
1B01
100
AcDbEntity
  8
0
100
AcDbBlockEnd
  0
BLOCK
  5
1B06
330
1B05
100
AcDbEntity
  8
0
100
AcDbBlockBegin
  2
*U29
 70
     1
 10
0.0
 20
0.0
 30
0.0
  3
*U29
  1

  0
INSERT
  5
1B07
330
1B05
100
AcDbEntity
  8
TEXT
100
AcDbBlockReference
  2
_OPEN30
 10
24.10164880763441
 20
77.34599581064998
 30
0.0
 50
228.4695911234485
  0
POLYLINE
  5
1B08
330
1B05
100
AcDbEntity
  8
TEXT
100
AcDb2dPolyline
 66
     1
 10
0.0
 20
0.0
 30
0.0
  0
VERTEX
  5
1B09
330
1B08
100
AcDbEntity
  8
TEXT
100
AcDbVertex
100
AcDb2dVertex
 10
24.7646662595359
 20
78.09459975030971
 30
0.0
  0
VERTEX
  5
1B0A
330
1B08
100
AcDbEntity
  8
TEXT
100
AcDbVertex
100
AcDb2dVertex
 10
30.21633111563914
 20
84.24999999999997
 30
0.0
  0
VERTEX
  5
1B0B
330
1B08
100
AcDbEntity
  8
TEXT
100
AcDbVertex
100
AcDb2dVertex
 10
41.31785395827871
 20
84.24999999999997
 30
0.0
  0
SEQEND
  5
1B0C
330
1B08
100
AcDbEntity
  8
TEXT
  0
ENDBLK
  5
1B0D
330
1B05
100
AcDbEntity
  8
0
100
AcDbBlockEnd
  0
BLOCK
  5
1B0F
330
1B0E
100
AcDbEntity
  8
0
100
AcDbBlockBegin
  2
*U30
 70
     1
 10
0.0
 20
0.0
 30
0.0
  3
*U30
  1

  0
TEXT
  5
1B10
330
1B0E
100
AcDbEntity
  8
TEXT
 62
     3
100
AcDbText
 10
31.61734634406553
 20
84.93274111675123
 30
0.0
 40
1.5
  1
超硬チップ
  7
GOTHIC
100
AcDbText
  0
ENDBLK
  5
1B11
330
1B0E
100
AcDbEntity
  8
0
100
AcDbBlockEnd
  0
BLOCK
  5
1B5C
330
1B5B
100
AcDbEntity
  8
0
100
AcDbBlockBegin
  2
*U31
 70
     1
 10
0.0
 20
0.0
 30
0.0
  3
*U31
  1

  0
TEXT
  5
1B5D
330
1B5B
100
AcDbEntity
  8
TEXT
 62
     3
100
AcDbText
 10
38.53696097855335
 20
53.93274111675125
 30
0.0
 40
1.5
  1
超硬チップ
  7
GOTHIC
100
AcDbText
  0
ENDBLK
  5
1B5E
330
1B5B
100
AcDbEntity
  8
0
100
AcDbBlockEnd
  0
BLOCK
  5
1B60
330
1B5F
100
AcDbEntity
  8
0
100
AcDbBlockBegin
  2
*U32
 70
     1
 10
0.0
 20
0.0
 30
0.0
  3
*U32
  1

  0
INSERT
  5
1B61
330
1B5F
100
AcDbEntity
  8
TEXT
100
AcDbBlockReference
  2
_OPEN30
 10
53.88696352937822
 20
47.0
 30
0.0
 50
303.5809470219443
  0
POLYLINE
  5
1B62
330
1B5F
100
AcDbEntity
  8
TEXT
100
AcDb2dPolyline
 66
     1
 10
0.0
 20
0.0
 30
0.0
  0
VERTEX
  5
1B63
330
1B62
100
AcDbEntity
  8
TEXT
100
AcDbVertex
100
AcDb2dVertex
 10
53.33384898802375
 20
47.83310521793
 30
0.0
  0
VERTEX
  5
1B64
330
1B62
100
AcDbEntity
  8
TEXT
100
AcDbVertex
100
AcDb2dVertex
 10
49.73746859276654
 20
53.25
 30
0.0
  0
VERTEX
  5
1B65
330
1B62
100
AcDbEntity
  8
TEXT
100
AcDbVertex
100
AcDb2dVertex
 10
38.63594575012695
 20
53.25
 30
0.0
  0
SEQEND
  5
1B66
330
1B62
100
AcDbEntity
  8
TEXT
  0
ENDBLK
  5
1B67
330
1B5F
100
AcDbEntity
  8
0
100
AcDbBlockEnd
  0
BLOCK
  5
1B69
330
1B68
100
AcDbEntity
  8
0
100
AcDbBlockBegin
  2
*X33
 70
     1
 10
0.0
 20
0.0
 30
0.0
  3
*X33
  1

  0
LINE
  5
1B6A
330
1B68
100
AcDbEntity
  8
0
 62
     0
100
AcDbLine
 10
62.2864584659899
 20
45.49999999999999
 30
0.0
 11
62.73746859276653
 21
45.95101012677663
 31
0.0
  0
LINE
  5
1B6B
330
1B68
100
AcDbEntity
  8
0
 62
     0
100
AcDbLine
 10
61.57935168480332
 20
45.49999999999999
 30
0.0
 11
62.73746859276654
 21
46.6581169079632
 31
0.0
  0
LINE
  5
1B6C
330
1B68
100
AcDbEntity
  8
0
 62
     0
100
AcDbLine
 10
60.87224490361679
 20
45.49999999999998
 30
0.0
 11
62.37224490361679
 21
46.99999999999998
 31
0.0
  0
LINE
  5
1B6D
330
1B68
100
AcDbEntity
  8
0
 62
     0
100
AcDbLine
 10
60.16513812243022
 20
45.49999999999998
 30
0.0
 11
61.66513812243024
 21
47.0
 31
0.0
  0
LINE
  5
1B6E
330
1B68
100
AcDbEntity
  8
0
 62
     0
100
AcDbLine
 10
59.4580313412437
 20
45.49999999999999
 30
0.0
 11
60.9580313412437
 21
47.0
 31
0.0
  0
LINE
  5
1B6F
330
1B68
100
AcDbEntity
  8
0
 62
     0
100
AcDbLine
 10
58.75092456005714
 20
45.49999999999999
 30
0.0
 11
60.25092456005714
 21
46.99999999999999
 31
0.0
  0
LINE
  5
1B70
330
1B68
100
AcDbEntity
  8
0
 62
     0
100
AcDbLine
 10
58.04381777887061
 20
45.49999999999999
 30
0.0
 11
59.54381777887061
 21
46.99999999999999
 31
0.0
  0
LINE
  5
1B71
330
1B68
100
AcDbEntity
  8
0
 62
     0
100
AcDbLine
 10
57.33671099768405
 20
45.49999999999998
 30
0.0
 11
58.83671099768405
 21
46.99999999999998
 31
0.0
  0
LINE
  5
1B72
330
1B68
100
AcDbEntity
  8
0
 62
     0
100
AcDbLine
 10
56.62960421649749
 20
45.49999999999999
 30
0.0
 11
58.1296042164975
 21
47.0
 31
0.0
  0
LINE
  5
1B73
330
1B68
100
AcDbEntity
  8
0
 62
     0
100
AcDbLine
 10
55.92249743531096
 20
45.49999999999999
 30
0.0
 11
57.42249743531097
 21
47.0
 31
0.0
  0
LINE
  5
1B74
330
1B68
100
AcDbEntity
  8
0
 62
     0
100
AcDbLine
 10
55.2153906541244
 20
45.49999999999999
 30
0.0
 11
56.7153906541244
 21
46.99999999999999
 31
0.0
  0
LINE
  5
1B75
330
1B68
100
AcDbEntity
  8
0
 62
     0
100
AcDbLine
 10
54.50828387293785
 20
45.49999999999999
 30
0.0
 11
56.00828387293786
 21
46.99999999999999
 31
0.0
  0
LINE
  5
1B76
330
1B68
100
AcDbEntity
  8
0
 62
     0
100
AcDbLine
 10
53.80117709175131
 20
45.49999999999998
 30
0.0
 11
55.30117709175129
 21
46.99999999999998
 31
0.0
  0
LINE
  5
1B77
330
1B68
100
AcDbEntity
  8
0
 62
     0
100
AcDbLine
 10
53.09407031056477
 20
45.49999999999999
 30
0.0
 11
54.59407031056475
 21
47.0
 31
0.0
  0
LINE
  5
1B78
330
1B68
100
AcDbEntity
  8
0
 62
     0
100
AcDbLine
 10
52.38696352937822
 20
45.49999999999999
 30
0.0
 11
53.88696352937822
 21
47.0
 31
0.0
  0
LINE
  5
1B79
330
1B68
100
AcDbEntity
  8
0
 62
     0
100
AcDbLine
 10
51.67985674819167
 20
45.49999999999999
 30
0.0
 11
53.17985674819167
 21
46.99999999999999
 31
0.0
  0
LINE
  5
1B7A
330
1B68
100
AcDbEntity
  8
0
 62
     0
100
AcDbLine
 10
50.97274996700512
 20
45.49999999999999
 30
0.0
 11
52.47274996700512
 21
46.99999999999999
 31
0.0
  0
LINE
  5
1B7B
330
1B68
100
AcDbEntity
  8
0
 62
     0
100
AcDbLine
 10
50.26564318581858
 20
45.49999999999998
 30
0.0
 11
51.76564318581856
 21
46.99999999999998
 31
0.0
  0
LINE
  5
1B7C
330
1B68
100
AcDbEntity
  8
0
 62
     0
100
AcDbLine
 10
49.55853640463202
 20
45.49999999999999
 30
0.0
 11
51.05853640463202
 21
47.0
 31
0.0
  0
LINE
  5
1B7D
330
1B68
100
AcDbEntity
  8
0
 62
     0
100
AcDbLine
 10
48.85142962344549
 20
45.49999999999999
 30
0.0
 11
50.35142962344547
 21
47.0
 31
0.0
  0
LINE
  5
1B7E
330
1B68
100
AcDbEntity
  8
0
 62
     0
100
AcDbLine
 10
48.14432284225894
 20
45.49999999999999
 30
0.0
 11
49.64432284225892
 21
46.99999999999999
 31
0.0
  0
LINE
  5
1B7F
330
1B68
100
AcDbEntity
  8
0
 62
     0
100
AcDbLine
 10
47.43721606107238
 20
45.49999999999999
 30
0.0
 11
48.93721606107238
 21
46.99999999999999
 31
0.0
  0
LINE
  5
1B80
330
1B68
100
AcDbEntity
  8
0
 62
     0
100
AcDbLine
 10
46.73010927988584
 20
45.49999999999998
 30
0.0
 11
48.23010927988581
 21
46.99999999999998
 31
0.0
  0
LINE
  5
1B81
330
1B68
100
AcDbEntity
  8
0
 62
     0
100
AcDbLine
 10
46.02300249869929
 20
45.49999999999999
 30
0.0
 11
47.52300249869928
 21
47.0
 31
0.0
  0
LINE
  5
1B82
330
1B68
100
AcDbEntity
  8
0
 62
     0
100
AcDbLine
 10
45.54311014261637
 20
45.72721442510363
 30
0.0
 11
46.81589571751272
 21
47.0
 31
0.0
  0
LINE
  5
1B83
330
1B68
100
AcDbEntity
  8
0
 62
     0
100
AcDbLine
 10
45.23746859276656
 20
46.12867965644036
 30
0.0
 11
46.10878893632619
 21
46.99999999999999
 31
0.0
  0
LINE
  5
1B84
330
1B68
100
AcDbEntity
  8
0
 62
     0
100
AcDbLine
 10
45.23746859276654
 20
46.83578643762689
 30
0.0
 11
45.40168215513964
 21
46.99999999999999
 31
0.0
  0
ENDBLK
  5
1B85
330
1B68
100
AcDbEntity
  8
0
100
AcDbBlockEnd
  0
BLOCK
  5
1C65
330
1C59
100
AcDbEntity
  8
0
100
AcDbBlockBegin
  2
*D34
 70
     1
 10
0.0
 20
0.0
 30
0.0
  3
*D34
  1

  0
LINE
  5
1C5A
330
1C59
100
AcDbEntity
  8
DIMENSION
 62
     0
100
AcDbLine
 10
22.60164880763441
 20
65.37499999999997
 30
0.0
 11
22.60164880763441
 21
60.49999999999997
 31
0.0
  0
LINE
  5
1C5B
330
1C59
100
AcDbEntity
  8
DIMENSION
 62
     0
100
AcDbLine
 10
24.10164880763441
 20
65.37499999999997
 30
0.0
 11
24.10164880763441
 21
60.49999999999997
 31
0.0
  0
LINE
  5
1C5C
330
1C59
100
AcDbEntity
  8
DIMENSION
 62
     0
100
AcDbLine
 10
20.10164880763441
 20
61.74999999999997
 30
0.0
 11
17.60164880763441
 21
61.74999999999997
 31
0.0
  0
LINE
  5
1C5D
330
1C59
100
AcDbEntity
  8
DIMENSION
 62
     0
100
AcDbLine
 10
26.60164880763441
 20
61.74999999999997
 30
0.0
 11
34.51831547430106
 21
61.74999999999997
 31
0.0
  0
LINE
  5
1C5E
330
1C59
100
AcDbEntity
  8
DIMENSION
 62
     0
100
AcDbLine
 10
22.60164880763441
 20
61.74999999999997
 30
0.0
 11
24.10164880763441
 21
61.74999999999997
 31
0.0
  0
SOLID
  5
1C5F
330
1C59
100
AcDbEntity
  8
DIMENSION
 62
     0
100
AcDbTrace
 10
20.10164880763441
 20
62.16666666666665
 30
0.0
 11
20.10164880763441
 21
61.33333333333331
 31
0.0
 12
22.60164880763441
 22
61.74999999999997
 32
0.0
 13
22.60164880763441
 23
61.74999999999997
 33
0.0
  0
SOLID
  5
1C60
330
1C59
100
AcDbEntity
  8
DIMENSION
 62
     0
100
AcDbTrace
 10
26.60164880763441
 20
62.16666666666665
 30
0.0
 11
26.60164880763441
 21
61.33333333333331
 31
0.0
 12
24.10164880763441
 22
61.74999999999997
 32
0.0
 13
24.10164880763441
 23
61.74999999999997
 33
0.0
  0
MTEXT
  5
1C61
330
1C59
100
AcDbEntity
  8
DIMENSION
 62
     0
100
AcDbMText
 10
31.80998214096773
 20
63.62499999999997
 30
0.0
 40
2.5
 41
0.0
 71
     5
 72
     1
  1
\A1;1.5
  7
GOTHIC
1001
ACAD
1000
MTEXTBEGIN
1070
    73
1070
     1
1070
    44
1040
1.0
1070
    74
1070
     0
1000
MTEXTEND
  0
POINT
  5
1C62
330
1C59
100
AcDbEntity
  8
DEFPOINTS
 62
     0
100
AcDbPoint
 10
22.60164880763441
 20
65.99999999999997
 30
0.0
  0
POINT
  5
1C63
330
1C59
100
AcDbEntity
  8
DEFPOINTS
 62
     0
100
AcDbPoint
 10
24.10164880763441
 20
65.99999999999997
 30
0.0
  0
POINT
  5
1C64
330
1C59
100
AcDbEntity
  8
DEFPOINTS
 62
     0
100
AcDbPoint
 10
24.10164880763441
 20
61.74999999999997
 30
0.0
  0
ENDBLK
  5
1C66
330
1C59
100
AcDbEntity
  8
0
100
AcDbBlockEnd
  0
ENDSEC
  0
SECTION
  2
ENTITIES
  0
TEXT
  5
1BB2
330
178D
100
AcDbEntity
  8
TEXT
100
AcDbText
 10
15.0
 20
36.75
 30
0.0
 40
1.5
  1
◇ブレード仕様
  7
GOTHIC
 11
15.0
 21
37.5
 31
0.0
100
AcDbText
 73
     2
  0
TEXT
  5
1BB3
330
178D
100
AcDbEntity
  8
TEXT
100
AcDbText
 10
18.0
 20
33.75
 30
0.0
 40
1.5
  1
切刃有効長　＝　15
  7
GOTHIC
 11
18.0
 21
34.5
 31
0.0
100
AcDbText
 73
     2
  0
TEXT
  5
1BB4
330
178D
100
AcDbEntity
  8
TEXT
100
AcDbText
 10
18.0
 20
30.75
 30
0.0
 40
1.5
  1
刃開き最大　＝　 6
  7
GOTHIC
 11
18.0
 21
31.5
 31
0.0
100
AcDbText
 73
     2
  0
LINE
  5
1BB5
330
178D
100
AcDbEntity
  8
TEXT
100
AcDbLine
 10
18.0
 20
33.0
 30
0.0
 11
36.0
 21
33.0
 31
0.0
  0
LINE
  5
1BB6
330
178D
100
AcDbEntity
  8
TEXT
100
AcDbLine
 10
18.0
 20
30.0
 30
0.0
 11
36.0
 21
30.0
 31
0.0
  0
TEXT
  5
1BB7
330
178D
100
AcDbEntity
  8
TEXT
100
AcDbText
 10
21.0
 20
48.75
 30
0.0
 40
1.5
  1
ＮＴ０５ＡＪＢ
  7
GOTHIC
 11
21.0
 21
49.5
 31
0.0
100
AcDbText
 73
     2
  0
TEXT
  5
1BB9
330
178D
100
AcDbEntity
  8
TEXT
100
AcDbText
 10
21.0
 20
42.75
 30
0.0
 40
1.5
  1
2005/03/23
  7
GOTHIC
 11
21.0
 21
43.5
 31
0.0
100
AcDbText
 73
     2
  0
INSERT
  5
1BBA
330
178D
100
AcDbEntity
  8
0
100
AcDbBlockReference
  2
*U24
 10
0.0
 20
0.0
 30
0.0
1001
ACAD
1000
DSTYLE
1002
{
1070
   147
1040
0.5
1070
    77
1070
     1
1002
}
  0
INSERT
  5
1BBB
330
178D
100
AcDbEntity
  8
HATCHING
  6
CONTINUOUS
100
AcDbBlockReference
  2
*X25
 10
0.0
 20
0.0
 30
0.0
1001
ACAD
1000
HATCH
1002
{
1070
    19
1000
_USER
1040
0.5
1040
2.356194490192343
1002
}
  0
INSERT
  5
1BBC
330
178D
100
AcDbEntity
  8
HATCHING
  6
CONTINUOUS
100
AcDbBlockReference
  2
*X26
 10
0.0
 20
0.0
 30
0.0
1001
ACAD
1000
HATCH
1002
{
1070
    19
1000
_USER
1040
0.5
1040
0.7853981633974483
1002
}
  0
LINE
  5
1BBD
330
178D
100
AcDbEntity
  8
LINE
100
AcDbLine
 10
22.60164880763441
 20
71.3577779898868
 30
0.0
 11
22.60164880763441
 21
65.99999999999997
 31
0.0
1001
ACAD
1000
ASC_BOUNDS
1002
{
1070
    19
1005
1213
1002
}
  0
LINE
  5
1BBE
330
178D
100
AcDbEntity
  8
LINE
100
AcDbLine
 10
22.60164880763441
 20
80.99999999999997
 30
0.0
 11
22.6016488076344
 21
75.6422220101131
 31
0.0
1001
ACAD
1000
ASC_BOUNDS
1002
{
1070
    19
1005
1214
1002
}
  0
TEXT
  5
1BBF
330
178D
100
AcDbEntity
  8
TEXT
100
AcDbText
 10
80.08363094478877
 20
78.27297077300912
 30
0.0
 40
1.5
  1
Ｂ
 50
134.9999999999994
  7
GOTHIC
 72
     1
 11
79.02297077300895
 21
78.27297077300913
 31
0.0
100
AcDbText
 73
     2
  0
INSERT
  5
1BC0
330
178D
100
AcDbEntity
  8
0
100
AcDbBlockReference
  2
*U27
 10
0.0
 20
0.0
 30
0.0
  0
INSERT
  5
1BC1
330
178D
100
AcDbEntity
  8
DIMENSION
 62
     3
100
AcDbBlockReference
  2
_OPEN30
 10
14.9167425990545
 20
86.61740549389667
 30
0.0
 50
213.2107138297239
  0
INSERT
  5
1BC2
330
178D
100
AcDbEntity
  8
DIMENSION
 62
     3
100
AcDbBlockReference
  2
_OPEN30
 10
24.10164880763441
 20
89.51339529742899
 30
0.0
 50
1.789286170275173
  0
ARC
  5
1BC3
330
178D
100
AcDbEntity
  8
DIMENSION
 62
     3
100
AcDbCircle
 10
24.10164880763441
 20
73.49999999999997
 30
0.0
 40
16.01339529742901
100
AcDbArc
 50
93.57857234055193
 51
121.4214276594491
  0
LINE
  5
1BC4
330
178D
100
AcDbEntity
  8
DIMENSION
 62
     3
100
AcDbLine
 10
19.10164880763442
 20
80.64074003371052
 30
0.0
 11
14.05637794452792
 21
87.84613356033018
 31
0.0
  0
LINE
  5
1BC5
330
178D
100
AcDbEntity
  8
DIMENSION
 62
     3
100
AcDbLine
 10
24.10164880763441
 20
80.99999999999999
 30
0.0
 11
24.10164880763441
 21
91.01339529742901
 31
0.0
  0
DIMENSION
  5
1BC6
330
178D
100
AcDbEntity
  8
DIMENSION
100
AcDbDimension
  2
*D1
 10
24.10164880763441
 20
84.24999999999997
 30
0.0
 11
21.60164880763441
 21
85.49999999999997
 31
0.0
  3
ISO-25
100
AcDbAlignedDimension
 13
19.10164880763441
 23
80.99999999999997
 33
0.0
 14
24.10164880763441
 24
80.99999999999997
 34
0.0
100
AcDbRotatedDimension
1001
ACAD
1000
DSTYLE
1002
{
1070
    76
1070
     1
1002
}
  0
DIMENSION
  5
1BC7
330
178D
100
AcDbEntity
  8
DIMENSION
100
AcDbDimension
  2
*D3
 10
11.71633111563913
 20
65.99999999999997
 30
0.0
 11
10.46633111563912
 21
73.49999999999997
 31
0.0
  3
ISO-25
100
AcDbAlignedDimension
 13
17.10164880763441
 23
80.99999999999997
 33
0.0
 14
17.10164880763441
 24
65.99999999999997
 34
0.0
 50
90.0
100
AcDbRotatedDimension
  0
TEXT
  5
1BC8
330
178D
100
AcDbEntity
  8
DIMENSION
100
AcDbText
 10
46.9585144334536
 20
62.51548129141205
 30
0.0
 40
1.5
  1
R25
  7
GOTHIC
 11
46.9585144334536
 21
63.26548129141205
 31
0.0
100
AcDbText
 73
     2
  0
INSERT
  5
1BC9
330
178D
100
AcDbEntity
  8
0
100
AcDbBlockReference
  2
*U28
 10
0.0
 20
0.0
 30
0.0
  0
INSERT
  5
1BCA
330
178D
100
AcDbEntity
  8
DIMENSION
 62
     3
100
AcDbBlockReference
  2
_OPEN30
 10
39.67672282460243
 20
66.42672282460243
 30
0.0
 50
312.1349119648123
  0
INSERT
  5
1BCB
330
178D
100
AcDbEntity
  8
DIMENSION
 62
     3
100
AcDbBlockReference
  2
_OPEN30
 10
39.67672282460245
 20
80.57327717539752
 30
0.0
 50
47.86508803518777
  0
ARC
  5
1BCC
330
178D
100
AcDbEntity
  8
DIMENSION
 62
     3
100
AcDbCircle
 10
46.74999999999999
 20
73.49999999999997
 30
0.0
 40
10.00312451187127
100
AcDbArc
 50
140.7301760703738
 51
219.2698239296241
  0
LINE
  5
1BCD
330
178D
100
AcDbEntity
  8
DIMENSION
 62
     3
100
AcDbLine
 10
45.25
 20
71.99999999999997
 30
0.0
 11
38.6160626528226
 21
65.36606265282262
 31
0.0
  0
LINE
  5
1BCE
330
178D
100
AcDbEntity
  8
DIMENSION
 62
     3
100
AcDbLine
 10
45.25
 20
74.99999999999997
 30
0.0
 11
38.61606265282264
 21
81.63393734717731
 31
0.0
  0
DIMENSION
  5
1BCF
330
178D
100
AcDbEntity
  8
DIMENSION
100
AcDbDimension
  2
*D5
 10
41.25
 20
71.99999999999997
 30
0.0
 11
40.0
 21
73.49999999999998
 31
0.0
  3
ISO-25
100
AcDbAlignedDimension
 13
45.25
 23
74.99999999999997
 33
0.0
 14
45.25000000000001
 24
71.99999999999997
 34
0.0
 50
90.0
100
AcDbRotatedDimension
  0
DIMENSION
  5
1BD0
330
178D
100
AcDbEntity
  8
DIMENSION
100
AcDbDimension
  2
*D7
 10
74.25
 20
84.24999999999997
 30
0.0
 11
68.5
 21
85.49999999999997
 31
0.0
  3
ISO-25
100
AcDbAlignedDimension
 13
62.75
 23
80.99999999999997
 33
0.0
 14
74.25
 24
82.74999999999996
 34
0.0
100
AcDbRotatedDimension
1001
ACAD
1000
DSTYLE
1002
{
1070
    76
1070
     1
1002
}
  0
DIMENSION
  5
1BD1
330
178D
100
AcDbEntity
  8
DIMENSION
100
AcDbDimension
  2
*D9
 10
62.75
 20
84.24999999999997
 30
0.0
 11
53.99999999999991
 21
85.49999999999997
 31
0.0
  3
ISO-25
100
AcDbAlignedDimension
 13
45.24999999999979
 23
74.99999999999982
 33
0.0
 14
62.75
 24
80.99999999999997
 34
0.0
100
AcDbRotatedDimension
1001
ACAD
1000
DSTYLE
1002
{
1070
    75
1070
     1
1002
}
  0
TEXT
  5
1BD2
330
178D
100
AcDbEntity
  8
TEXT
  6
BYBLOCK
100
AcDbText
 10
69.91601295855862
 20
69.29208408774378
 30
0.0
 40
1.5
  1
Ｖ
 50
127.499999999999
  7
GOTHIC
 72
     1
 11
68.8948649530341
 21
69.39086035419113
 31
0.0
100
AcDbText
 73
     2
  0
TEXT
  5
1BD3
330
178D
100
AcDbEntity
  8
TEXT
  6
BYBLOCK
100
AcDbText
 10
81.09519052838322
 20
76.64378221735091
 30
0.0
 40
1.5
  1
Ｊ
 50
119.999999999999
  7
GOTHIC
 72
     1
 11
80.0956714755449
 21
76.87500000000004
 31
0.0
100
AcDbText
 73
     2
  0
TEXT
  5
1BD4
330
178D
100
AcDbEntity
  8
TEXT
  6
BYBLOCK
100
AcDbText
 10
68.97460120758778
 20
70.55718373305158
 30
0.0
 40
1.5
  1
Ｅ
 50
112.5000000000005
  7
GOTHIC
 72
     1
 11
68.01381315554874
 21
70.91688683153565
 31
0.0
100
AcDbText
 73
     2
  0
TEXT
  5
1BD5
330
178D
100
AcDbEntity
  8
TEXT
  6
BYBLOCK
100
AcDbText
 10
81.67561702873973
 20
74.76499475986658
 30
0.0
 40
1.5
  1
Ａ
 50
105.0000000000004
  7
GOTHIC
 72
     1
 11
80.76999932745115
 21
75.24702855444203
 31
0.0
100
AcDbText
 73
     2
  0
TEXT
  5
1BD6
330
178D
100
AcDbEntity
  8
TEXT
  6
BYBLOCK
100
AcDbText
 10
68.39269916631112
 20
72.02283144371801
 30
0.0
 40
1.5
  1
Ｓ
 50
97.49999999999971
  7
GOTHIC
 72
     1
 11
67.55774718572673
 21
72.61894820251463
 31
0.0
100
AcDbText
 73
     2
  0
TEXT
  5
1BD7
330
178D
100
AcDbEntity
  8
TEXT
  6
BYBLOCK
100
AcDbText
 10
81.74999999999993
 20
72.85000000000001
 30
0.0
 40
1.5
  1
５
 50
90.0
  7
GOTHIC
 72
     1
 11
80.99999999999992
 21
73.50000000000001
 31
0.0
100
AcDbText
 73
     2
  0
TEXT
  5
1BD8
330
178D
100
AcDbEntity
  8
TEXT
  6
BYBLOCK
100
AcDbText
 10
68.20996249720305
 20
73.58914575035864
 30
0.0
 40
1.5
  1
Ｓ
 50
82.5000000000003
  7
GOTHIC
 72
     1
 11
67.55774718572673
 21
74.38105179748534
 31
0.0
100
AcDbText
 73
     2
  0
TEXT
  5
1BD9
330
178D
100
AcDbEntity
  8
TEXT
  6
BYBLOCK
100
AcDbText
 10
81.31327036559619
 20
70.8827090833288
 30
0.0
 40
1.5
  1
０
 50
74.99999999999963
  7
GOTHIC
 72
     1
 11
80.76999932745115
 21
71.75297144555805
 31
0.0
100
AcDbText
 73
     2
  0
TEXT
  5
1BDA
330
178D
100
AcDbEntity
  8
TEXT
  6
BYBLOCK
100
AcDbText
 10
68.43884440227665
 20
75.14938492143262
 30
0.0
 40
1.5
  1
Ｅ
 50
67.49999999999936
  7
GOTHIC
 72
     1
 11
68.01381315554874
 21
76.08311316846435
 31
0.0
100
AcDbText
 73
     2
  0
TEXT
  5
1BDB
330
178D
100
AcDbEntity
  8
TEXT
  6
BYBLOCK
100
AcDbText
 10
80.39519052838324
 20
69.1437822173509
 30
0.0
 40
1.5
  1
Ｔ
 50
60.00000000000097
  7
GOTHIC
 72
     1
 11
80.0956714755449
 21
70.125
 31
0.0
100
AcDbText
 73
     2
  0
TEXT
  5
1BDC
330
178D
100
AcDbEntity
  8
TEXT
  6
BYBLOCK
100
AcDbText
 10
69.06374695794643
 20
76.59722123584844
 30
0.0
 40
1.5
  1
Ｌ
 50
52.50000000000096
  7
GOTHIC
 72
     1
 11
68.8948649530341
 21
77.60913964580884
 31
0.0
100
AcDbText
 73
     2
  0
TEXT
  5
1BDD
330
178D
100
AcDbEntity
  8
TEXT
  6
BYBLOCK
100
AcDbText
 10
79.05832611206843
 20
67.70172439427033
 30
0.0
 40
1.5
  1
Ｎ
 50
45.00000000000057
  7
GOTHIC
 72
     1
 11
79.02297077300909
 21
68.72702922699082
 31
0.0
100
AcDbText
 73
     2
  0
LINE
  5
1BDE
330
178D
100
AcDbEntity
  8
CENTER
100
AcDbLine
 10
44.24999999999999
 20
73.49999999999997
 30
0.0
 11
46.74999999999999
 21
73.49999999999997
 31
0.0
  0
LINE
  5
1BDF
330
178D
100
AcDbEntity
  8
LINE
100
AcDbLine
 10
105.0179491924309
 20
67.63977858497288
 30
0.0
 11
108.4820508075688
 21
70.1006403817006
 31
0.0
  0
LINE
  5
1BE0
330
178D
100
AcDbEntity
  8
LINE
100
AcDbLine
 10
105.0179491924309
 20
79.36022141502707
 30
0.0
 11
108.4820508075688
 21
76.89935961829934
 31
0.0
  0
LINE
  5
1BE1
330
178D
100
AcDbEntity
  8
LINE
100
AcDbLine
 10
17.10164880763441
 20
65.99999999999997
 30
0.0
 11
17.10164880763441
 21
73.49999999999997
 31
0.0
  0
LINE
  5
1BE2
330
178D
100
AcDbEntity
  8
LINE
100
AcDbLine
 10
24.10164880763441
 20
65.99999999999997
 30
0.0
 11
24.10164880763441
 21
73.49999999999997
 31
0.0
1001
ACAD
1000
ASC_BOUNDS
1002
{
1070
    19
1005
1213
1005
1213
1002
}
  0
LINE
  5
1BE3
330
178D
100
AcDbEntity
  8
LINE
100
AcDbLine
 10
24.10164880763441
 20
65.99999999999997
 30
0.0
 11
17.10164880763441
 21
65.99999999999997
 31
0.0
1001
ACAD
1000
ASC_BOUNDS
1002
{
1070
    19
1005
1213
1002
}
  0
LINE
  5
1BE4
330
178D
100
AcDbEntity
  8
LINE
100
AcDbLine
 10
17.10164880763441
 20
72.99999999999997
 30
0.0
 11
23.75154503852955
 21
72.99999999999997
 31
0.0
  0
LINE
  5
1BE5
330
178D
100
AcDbEntity
  8
LINE
100
AcDbLine
 10
20.60164880763441
 20
72.99999999999997
 30
0.0
 11
20.60164880763441
 21
73.49999999999997
 31
0.0
  0
LINE
  5
1BE6
330
178D
100
AcDbEntity
  8
LINE
100
AcDbLine
 10
19.10164880763441
 20
66.3592599662894
 30
0.0
 11
19.10164880763441
 21
65.99999999999997
 31
0.0
  0
LINE
  5
1BE7
330
178D
100
AcDbEntity
  8
LINE
100
AcDbLine
 10
19.10164880763441
 20
66.3592599662894
 30
0.0
 11
24.10164880763441
 21
73.49999999999997
 31
0.0
1001
ACAD
1000
ASC_BOUNDS
1002
{
1070
    19
1005
1213
1005
1213
1002
}
  0
LINE
  5
1BE8
330
178D
100
AcDbEntity
  8
LINE
100
AcDbLine
 10
23.05133750031985
 20
71.99999999999997
 30
0.0
 11
24.10164880763441
 21
71.99999999999997
 31
0.0
1001
ACAD
1000
ASC_BOUNDS
1002
{
1070
    19
1005
1213
1005
1213
1002
}
  0
LINE
  5
1BE9
330
178D
100
AcDbEntity
  8
LINE
100
AcDbLine
 10
23.05133750031985
 20
74.99999999999997
 30
0.0
 11
24.10164880763441
 21
74.99999999999997
 31
0.0
1001
ACAD
1000
ASC_BOUNDS
1002
{
1070
    19
1005
1214
1005
1214
1002
}
  0
LINE
  5
1BEA
330
178D
100
AcDbEntity
  8
LINE
100
AcDbLine
 10
19.10164880763441
 20
80.64074003371054
 30
0.0
 11
24.10164880763441
 21
73.49999999999997
 31
0.0
1001
ACAD
1000
ASC_BOUNDS
1002
{
1070
    19
1005
1214
1005
1214
1002
}
  0
LINE
  5
1BEB
330
178D
100
AcDbEntity
  8
LINE
100
AcDbLine
 10
19.10164880763441
 20
80.64074003371054
 30
0.0
 11
19.10164880763441
 21
80.99999999999997
 31
0.0
  0
LINE
  5
1BEC
330
178D
100
AcDbEntity
  8
LINE
100
AcDbLine
 10
20.60164880763441
 20
73.99999999999997
 30
0.0
 11
20.60164880763441
 21
73.49999999999997
 31
0.0
  0
LINE
  5
1BED
330
178D
100
AcDbEntity
  8
LINE
100
AcDbLine
 10
17.10164880763441
 20
73.99999999999997
 30
0.0
 11
23.75154503852955
 21
73.99999999999997
 31
0.0
  0
LINE
  5
1BEE
330
178D
100
AcDbEntity
  8
LINE
100
AcDbLine
 10
24.10164880763441
 20
80.99999999999997
 30
0.0
 11
17.10164880763441
 21
80.99999999999997
 31
0.0
1001
ACAD
1000
ASC_BOUNDS
1002
{
1070
    19
1005
1214
1002
}
  0
LINE
  5
1BEF
330
178D
100
AcDbEntity
  8
LINE
100
AcDbLine
 10
24.10164880763441
 20
80.99999999999997
 30
0.0
 11
24.10164880763441
 21
73.49999999999997
 31
0.0
1001
ACAD
1000
ASC_BOUNDS
1002
{
1070
    19
1005
1214
1005
1214
1002
}
  0
LINE
  5
1BF0
330
178D
100
AcDbEntity
  8
LINE
100
AcDbLine
 10
17.10164880763441
 20
80.99999999999997
 30
0.0
 11
17.10164880763441
 21
73.49999999999997
 31
0.0
  0
LINE
  5
1BF1
330
178D
100
AcDbEntity
  8
LINE
100
AcDbLine
 10
46.74999999999999
 20
73.49999999999997
 30
0.0
 11
62.75
 21
73.49999999999997
 31
0.0
  0
LINE
  5
1BF2
330
178D
100
AcDbEntity
  8
CENTER
100
AcDbLine
 10
62.75
 20
73.49999999999998
 30
0.0
 11
107.25
 21
73.49999999999998
 31
0.0
  0
LINE
  5
1BF3
330
178D
100
AcDbEntity
  8
CENTER
100
AcDbLine
 10
14.71633111563913
 20
73.49999999999997
 30
0.0
 11
26.71633111563914
 21
73.49999999999997
 31
0.0
  0
LINE
  5
1BF4
330
178D
100
AcDbEntity
  8
LINE
100
AcDbLine
 10
74.25
 20
80.99999999999997
 30
0.0
 11
79.25
 21
80.99999999999997
 31
0.0
  0
LINE
  5
1BF5
330
178D
100
AcDbEntity
  8
LINE
100
AcDbLine
 10
79.25
 20
80.99999999999997
 30
0.0
 11
105.3547131864717
 21
79.3387909790427
 31
0.0
  0
LINE
  5
1BF6
330
178D
100
AcDbEntity
  8
LINE
100
AcDbLine
 10
107.5793569890054
 20
78.12444408634971
 30
0.0
 11
110.25
 21
74.49999999999997
 31
0.0
  0
LINE
  5
1BF7
330
178D
100
AcDbEntity
  8
LINE
100
AcDbLine
 10
110.25
 20
74.49999999999997
 30
0.0
 11
110.25
 21
73.49999999999997
 31
0.0
  0
LINE
  5
1BF8
330
178D
100
AcDbEntity
  8
LINE
100
AcDbLine
 10
82.75
 20
73.49999999999997
 30
0.0
 11
82.74999999999998
 21
73.49999999999997
 31
0.0
  0
LINE
  5
1BF9
330
178D
100
AcDbEntity
  8
LINE
100
AcDbLine
 10
83.74999999999998
 20
74.49999999999997
 30
0.0
 11
106.25
 21
74.49999999999997
 31
0.0
  0
LINE
  5
1BFA
330
178D
100
AcDbEntity
  8
LINE
100
AcDbLine
 10
107.25
 20
73.49999999999997
 30
0.0
 11
107.25
 21
73.49999999999997
 31
0.0
  0
ARC
  5
1BFB
330
178D
100
AcDbEntity
  8
LINE
100
AcDbCircle
 10
83.74999999999998
 20
73.49999999999997
 30
0.0
 40
1.0
100
AcDbArc
 50
90.0
 51
180.0
  0
ARC
  5
1BFC
330
178D
100
AcDbEntity
  8
LINE
100
AcDbCircle
 10
106.25
 20
73.49999999999997
 30
0.0
 40
1.0
100
AcDbArc
 50
0.0
 51
90.0
  0
LINE
  5
1BFD
330
178D
100
AcDbEntity
  8
LINE
100
AcDbLine
 10
74.25
 20
80.99999999999997
 30
0.0
 11
61.49807680927191
 21
80.99999999999997
 31
0.0
  0
ARC
  5
1BFE
330
178D
100
AcDbEntity
  8
LINE
100
AcDbCircle
 10
61.49807680927191
 20
55.99999999999997
 30
0.0
 40
25.0
100
AcDbArc
 50
90.0
 51
130.5358021113171
  0
LINE
  5
1BFF
330
178D
100
AcDbEntity
  8
LINE
100
AcDbLine
 10
45.25
 20
74.99999999999997
 30
0.0
 11
46.74999999999999
 21
73.49999999999997
 31
0.0
  0
LINE
  5
1C00
330
178D
100
AcDbEntity
  8
LINE
100
AcDbLine
 10
65.75
 20
73.49999999999997
 30
0.0
 11
65.75
 21
73.49999999999997
 31
0.0
  0
LINE
  5
1C01
330
178D
100
AcDbEntity
  8
LINE
100
AcDbLine
 10
65.25
 20
73.99999999999997
 30
0.0
 11
63.25
 21
73.99999999999997
 31
0.0
  0
LINE
  5
1C02
330
178D
100
AcDbEntity
  8
LINE
100
AcDbLine
 10
62.75
 20
73.49999999999997
 30
0.0
 11
62.75
 21
73.49999999999997
 31
0.0
  0
ARC
  5
1C03
330
178D
100
AcDbEntity
  8
LINE
100
AcDbCircle
 10
63.25
 20
73.49999999999997
 30
0.0
 40
0.5
100
AcDbArc
 50
90.0
 51
180.0
  0
ARC
  5
1C04
330
178D
100
AcDbEntity
  8
LINE
100
AcDbCircle
 10
65.25
 20
73.49999999999997
 30
0.0
 40
0.5
100
AcDbArc
 50
0.0
 51
90.0
  0
LINE
  5
1C05
330
178D
100
AcDbEntity
  8
LINE
100
AcDbLine
 10
62.75
 20
73.49999999999996
 30
0.0
 11
62.75
 21
80.99999999999997
 31
0.0
  0
ARC
  5
1C06
330
178D
100
AcDbEntity
  8
LINE
100
AcDbCircle
 10
105.1641894769453
 20
76.34484697220013
 30
0.0
 40
3.0
100
AcDbArc
 50
36.38435181583583
 51
86.35881474209861
  0
ARC
  5
1C07
330
178D
100
AcDbEntity
  8
LINE
100
AcDbCircle
 10
105.1641894769453
 20
70.65515302779981
 30
0.0
 40
3.0
100
AcDbArc
 50
273.6411852579014
 51
323.6156481841641
  0
LINE
  5
1C08
330
178D
100
AcDbEntity
  8
LINE
100
AcDbLine
 10
62.75
 20
73.49999999999996
 30
0.0
 11
62.75
 21
65.99999999999997
 31
0.0
  0
ARC
  5
1C09
330
178D
100
AcDbEntity
  8
LINE
100
AcDbCircle
 10
65.25
 20
73.49999999999997
 30
0.0
 40
0.5
100
AcDbArc
 50
270.0
 51
0.0
  0
ARC
  5
1C0A
330
178D
100
AcDbEntity
  8
LINE
100
AcDbCircle
 10
63.25
 20
73.49999999999997
 30
0.0
 40
0.5
100
AcDbArc
 50
180.0
 51
270.0
  0
LINE
  5
1C0B
330
178D
100
AcDbEntity
  8
LINE
100
AcDbLine
 10
62.75
 20
73.49999999999997
 30
0.0
 11
62.75
 21
73.49999999999997
 31
0.0
  0
LINE
  5
1C0C
330
178D
100
AcDbEntity
  8
LINE
100
AcDbLine
 10
65.25
 20
72.99999999999997
 30
0.0
 11
63.25
 21
72.99999999999997
 31
0.0
  0
LINE
  5
1C0D
330
178D
100
AcDbEntity
  8
LINE
100
AcDbLine
 10
65.75
 20
73.49999999999997
 30
0.0
 11
65.75
 21
73.49999999999997
 31
0.0
  0
LINE
  5
1C0E
330
178D
100
AcDbEntity
  8
LINE
100
AcDbLine
 10
45.25
 20
71.99999999999997
 30
0.0
 11
46.74999999999999
 21
73.49999999999997
 31
0.0
  0
ARC
  5
1C0F
330
178D
100
AcDbEntity
  8
LINE
100
AcDbCircle
 10
61.49807680927191
 20
90.99999999999996
 30
0.0
 40
25.0
100
AcDbArc
 50
229.4641978886828
 51
270.0
  0
LINE
  5
1C10
330
178D
100
AcDbEntity
  8
LINE
100
AcDbLine
 10
74.25
 20
65.99999999999997
 30
0.0
 11
61.49807680927191
 21
65.99999999999997
 31
0.0
  0
ARC
  5
1C11
330
178D
100
AcDbEntity
  8
LINE
100
AcDbCircle
 10
106.25
 20
73.49999999999997
 30
0.0
 40
1.0
100
AcDbArc
 50
270.0
 51
0.0
  0
ARC
  5
1C12
330
178D
100
AcDbEntity
  8
LINE
100
AcDbCircle
 10
83.74999999999998
 20
73.49999999999997
 30
0.0
 40
1.0
100
AcDbArc
 50
180.0
 51
270.0
  0
LINE
  5
1C13
330
178D
100
AcDbEntity
  8
LINE
100
AcDbLine
 10
107.25
 20
73.49999999999997
 30
0.0
 11
107.25
 21
73.49999999999997
 31
0.0
  0
LINE
  5
1C14
330
178D
100
AcDbEntity
  8
LINE
100
AcDbLine
 10
83.74999999999998
 20
72.49999999999997
 30
0.0
 11
106.25
 21
72.49999999999997
 31
0.0
  0
LINE
  5
1C15
330
178D
100
AcDbEntity
  8
LINE
100
AcDbLine
 10
82.75
 20
73.49999999999997
 30
0.0
 11
82.74999999999998
 21
73.49999999999997
 31
0.0
  0
LINE
  5
1C16
330
178D
100
AcDbEntity
  8
LINE
100
AcDbLine
 10
110.25
 20
72.49999999999997
 30
0.0
 11
110.25
 21
73.49999999999997
 31
0.0
  0
LINE
  5
1C17
330
178D
100
AcDbEntity
  8
LINE
100
AcDbLine
 10
107.5793569890054
 20
68.87555591365026
 30
0.0
 11
110.25
 21
72.49999999999997
 31
0.0
  0
LINE
  5
1C18
330
178D
100
AcDbEntity
  8
LINE
100
AcDbLine
 10
79.25
 20
65.99999999999997
 30
0.0
 11
105.3547131864717
 21
67.66120902095727
 31
0.0
  0
LINE
  5
1C19
330
178D
100
AcDbEntity
  8
LINE
100
AcDbLine
 10
74.25
 20
65.99999999999997
 30
0.0
 11
79.25
 21
65.99999999999997
 31
0.0
  0
CIRCLE
  5
1C1A
330
178D
100
AcDbEntity
  8
LINE
100
AcDbCircle
 10
74.25
 20
73.49999999999997
 30
0.0
 40
2.049999999999998
  0
CIRCLE
  5
1C1B
330
178D
100
AcDbEntity
  8
LINE
100
AcDbCircle
 10
74.25
 20
73.49999999999997
 30
0.0
 40
5.0
  0
ARC
  5
1C1C
330
178D
100
AcDbEntity
  8
LINE
100
AcDbCircle
 10
74.25
 20
73.49999999999997
 30
0.0
 40
8.5
100
AcDbArc
 50
118.072486935853
 51
180.0
  0
ARC
  5
1C1D
330
178D
100
AcDbEntity
  8
LINE
100
AcDbCircle
 10
74.25
 20
73.49999999999997
 30
0.0
 40
9.0
100
AcDbArc
 50
123.55730976192
 51
176.8164916468274
  0
ARC
  5
1C1E
330
178D
100
AcDbEntity
  8
LINE
100
AcDbCircle
 10
74.25
 20
73.49999999999997
 30
0.0
 40
9.0
100
AcDbArc
 50
303.55730976192
 51
354.6317953008377
  0
ARC
  5
1C1F
330
178D
100
AcDbEntity
  8
LINE
100
AcDbCircle
 10
74.25
 20
73.49999999999997
 30
0.0
 40
8.5
100
AcDbArc
 50
298.072486935853
 51
0.0
  0
LINE
  5
1C20
330
178D
100
AcDbEntity
  8
CENTER
100
AcDbLine
 10
74.25
 20
82.74999999999996
 30
0.0
 11
74.25
 21
63.9873260552326
 31
0.0
  0
DIMENSION
  5
1C21
330
178D
100
AcDbEntity
  8
DIMENSION
100
AcDbDimension
  2
*D34
 10
24.10164880763441
 20
61.74999999999997
 30
0.0
 11
31.80998214096773
 21
61.74999999999997
 31
0.0
 70
   160
  3
ISO-25
100
AcDbAlignedDimension
 13
22.60164880763441
 23
65.99999999999997
 33
0.0
 14
24.10164880763441
 24
65.99999999999997
 34
0.0
100
AcDbRotatedDimension
1001
ACAD
1000
DSTYLE
1002
{
1070
   287
1070
     3
1070
   287
1070
     3
1070
   279
1070
     0
1002
}
  0
LINE
  5
1C22
330
178D
100
AcDbEntity
  8
CENTER
100
AcDbLine
 10
110.25
 20
73.49999999999998
 30
0.0
 11
111.7499999999999
 21
73.49999999999998
 31
0.0
  0
LINE
  5
1C23
330
178D
100
AcDbEntity
  8
LINE
100
AcDbLine
 10
107.25
 20
73.49999999999997
 30
0.0
 11
110.25
 21
73.49999999999997
 31
0.0
  0
DIMENSION
  5
1C24
330
178D
100
AcDbEntity
  8
DIMENSION
100
AcDbDimension
  2
*D12
 10
74.24999999999998
 20
88.74999999999996
 30
0.0
 11
59.74999999999989
 21
89.99999999999996
 31
0.0
  3
ISO-25
100
AcDbAlignedDimension
 13
45.24999999999979
 23
74.99999999999982
 33
0.0
 14
74.24999999999998
 24
82.74999999999996
 34
0.0
100
AcDbRotatedDimension
1001
ACAD
1000
DSTYLE
1002
{
1070
    75
1070
     0
1002
}
  0
INSERT
  5
1C25
330
178D
100
AcDbEntity
  8
0
100
AcDbBlockReference
  2
*U29
 10
0.0
 20
0.0
 30
0.0
1001
ACAD
1000
DSTYLE
1002
{
1070
   147
1040
0.5
1070
    77
1070
     1
1002
}
  0
INSERT
  5
1C26
330
178D
100
AcDbEntity
  8
0
100
AcDbBlockReference
  2
*U30
 10
0.0
 20
0.0
 30
0.0
  0
INSERT
  5
1C27
330
178D
100
AcDbEntity
  8
0
100
AcDbBlockReference
  2
*U31
 10
0.0
 20
0.0
 30
0.0
  0
INSERT
  5
1C28
330
178D
100
AcDbEntity
  8
0
100
AcDbBlockReference
  2
*U32
 10
0.0
 20
0.0
 30
0.0
1001
ACAD
1000
DSTYLE
1002
{
1070
   147
1040
0.5
1070
    77
1070
     1
1002
}
  0
INSERT
  5
1C29
330
178D
100
AcDbEntity
  8
HATCHING
  6
CONTINUOUS
100
AcDbBlockReference
  2
*X33
 10
0.0
 20
0.0
 30
0.0
1001
ACAD
1000
HATCH
1002
{
1070
    19
1000
_USER
1040
0.5
1040
0.7853981633974483
1002
}
  0
LINE
  5
1C2A
330
178D
100
AcDbEntity
  8
LINE
100
AcDbLine
 10
62.73746859276654
 20
47.0
 30
0.0
 11
62.73746859276654
 21
45.49999999999999
 31
0.0
1001
ACAD
1000
ASC_BOUNDS
1002
{
1070
    19
1005
1477
1002
}
  0
LINE
  5
1C2B
330
178D
100
AcDbEntity
  8
LINE
100
AcDbLine
 10
62.73746859276654
 20
45.49999999999999
 30
0.0
 11
45.86785639875254
 21
45.49999999999999
 31
0.0
1001
ACAD
1000
ASC_BOUNDS
1002
{
1070
    19
1005
1477
1002
}
  0
DIMENSION
  5
1C2C
330
178D
100
AcDbEntity
  8
DIMENSION
100
AcDbDimension
  2
*D14
 10
41.23746859276653
 20
42.00000000000001
 30
0.0
 11
39.98746859276653
 21
44.50000000000001
 31
0.0
  3
ISO-25
100
AcDbAlignedDimension
 13
45.23746859276656
 23
47.0
 33
0.0
 14
57.17051095420977
 24
42.0
 34
0.0
 50
90.0
100
AcDbRotatedDimension
  0
TEXT
  5
1C2D
330
178D
100
AcDbEntity
  8
DIMENSION
100
AcDbText
 10
57.1907464161009
 20
38.73031373738649
 30
0.0
 40
1.5
  1
R2
  7
GOTHIC
 11
57.1907464161009
 21
39.48031373738649
 31
0.0
100
AcDbText
 73
     2
  0
POLYLINE
  5
1C2E
330
178D
100
AcDbEntity
  8
DIMENSION
100
AcDb2dPolyline
 66
     1
 10
0.0
 20
0.0
 30
0.0
1001
ACAD
1000
DSTYLE
1002
{
1070
   147
1040
0.5
1070
    77
1070
     1
1002
}
  0
VERTEX
  5
1C2F
330
1C2E
100
AcDbEntity
  8
DIMENSION
100
AcDbVertex
100
AcDb2dVertex
 10
62.03469237195637
 20
40.63042597246171
 30
0.0
  0
VERTEX
  5
1C30
330
1C2E
100
AcDbEntity
  8
DIMENSION
100
AcDbVertex
100
AcDb2dVertex
 10
60.23746859276654
 20
38.25
 30
0.0
  0
VERTEX
  5
1C31
330
1C2E
100
AcDbEntity
  8
DIMENSION
100
AcDbVertex
100
AcDb2dVertex
 10
56.52088075750224
 20
38.25
 30
0.0
  0
SEQEND
  5
1C32
330
1C2E
100
AcDbEntity
  8
DIMENSION
  0
INSERT
  5
1C33
330
178D
100
AcDbEntity
  8
DIMENSION
100
AcDbBlockReference
  2
_OPEN30
 10
62.63724363575366
 20
41.42850615295503
 30
0.0
 50
52.94716219181799
1001
ACAD
1000
DSTYLE
1002
{
1070
   147
1040
0.5
1070
    77
1070
     1
1002
}
  0
DIMENSION
  5
1C34
330
178D
100
AcDbEntity
  8
DIMENSION
100
AcDbDimension
  2
*D16
 10
74.23746859276654
 20
35.24999999999999
 30
0.0
 11
68.73746859276654
 21
36.49999999999999
 31
0.0
  3
ISO-25
100
AcDbAlignedDimension
 13
63.23746859276654
 23
39.99999999999999
 33
0.0
 14
74.23746859276654
 24
38.50483583895277
 34
0.0
100
AcDbRotatedDimension
  0
LINE
  5
1C35
330
178D
100
AcDbEntity
  8
CENTER
100
AcDbLine
 10
74.23746859276654
 20
48.34102768272578
 30
0.0
 11
74.23746859276654
 21
38.50483583895277
 31
0.0
  0
LINE
  5
1C36
330
178D
100
AcDbEntity
  8
CENTER
100
AcDbLine
 10
47.58576531834981
 20
43.5
 30
0.0
 11
69.26253140723345
 21
43.5
 31
0.0
  0
ARC
  5
1C37
330
178D
100
AcDbEntity
  8
LINE
100
AcDbCircle
 10
108.9145929372342
 20
42.0
 30
0.0
 40
2.0
100
AcDbArc
 50
270.0
 51
311.409622109271
  0
LINE
  5
1C38
330
178D
100
AcDbEntity
  8
LINE
100
AcDbLine
 10
106.7374685927664
 20
41.0
 30
0.0
 11
108.4695194003354
 21
40.0
 31
0.0
  0
LINE
  5
1C39
330
178D
100
AcDbEntity
  8
LINE
100
AcDbLine
 10
106.7374685927664
 20
41.0
 30
0.0
 11
105.0054177851976
 21
40.0
 31
0.0
  0
LINE
  5
1C3A
330
178D
100
AcDbEntity
  8
LINE
100
AcDbLine
 10
106.7374685927664
 20
46.0
 30
0.0
 11
105.0054177851976
 21
47.0
 31
0.0
  0
LINE
  5
1C3B
330
178D
100
AcDbEntity
  8
LINE
100
AcDbLine
 10
106.7374685927664
 20
46.0
 30
0.0
 11
108.4695194003354
 21
47.0
 31
0.0
  0
ARC
  5
1C3C
330
178D
100
AcDbEntity
  8
LINE
100
AcDbCircle
 10
108.9145929372342
 20
45.0
 30
0.0
 40
2.0
100
AcDbArc
 50
48.59037789072903
 51
90.0
  0
ARC
  5
1C3D
330
178D
100
AcDbEntity
  8
LINE
100
AcDbCircle
 10
61.23746859276653
 20
39.99999999999999
 30
0.0
 40
2.0
100
AcDbArc
 50
0.0
 51
90.0
  0
ARC
  5
1C3E
330
178D
100
AcDbEntity
  8
LINE
100
AcDbCircle
 10
57.17051095420984
 20
62.0
 30
0.0
 40
20.0
100
AcDbArc
 50
233.3695023238318
 51
270.0
1001
ACAD
1000
ASC_BOUNDS
1002
{
1070
    19
1005
1477
1002
}
  0
LINE
  5
1C3F
330
178D
100
AcDbEntity
  8
LINE
100
AcDbLine
 10
57.17051095420984
 20
42.0
 30
0.0
 11
61.23746859276653
 21
41.99999999999998
 31
0.0
  0
LINE
  5
1C40
330
178D
100
AcDbEntity
  8
LINE
100
AcDbLine
 10
69.26253140723345
 20
43.5
 30
0.0
 11
79.23746859276654
 21
43.5
 31
0.0
  0
LINE
  5
1C41
330
178D
100
AcDbEntity
  8
CENTER
100
AcDbLine
 10
79.23746859276654
 20
43.5
 30
0.0
 11
111.7374685927664
 21
43.5
 31
0.0
  0
LINE
  5
1C42
330
178D
100
AcDbEntity
  8
LINE
100
AcDbLine
 10
63.23746859276654
 20
39.99999999999999
 30
0.0
 11
63.23746859276654
 21
40.0
 31
0.0
  0
LINE
  5
1C43
330
178D
100
AcDbEntity
  8
LINE
100
AcDbLine
 10
79.23746859276654
 20
47.0
 30
0.0
 11
79.23746859276654
 21
43.5
 31
0.0
  0
LINE
  5
1C44
330
178D
100
AcDbEntity
  8
LINE
100
AcDbLine
 10
78.23746859276655
 20
47.0
 30
0.0
 11
78.23746859276655
 21
43.5
 31
0.0
  0
LINE
  5
1C45
330
178D
100
AcDbEntity
  8
LINE
100
AcDbLine
 10
70.23746859276653
 20
43.5
 30
0.0
 11
70.23746859276653
 21
40.0
 31
0.0
  0
LINE
  5
1C46
330
178D
100
AcDbEntity
  8
LINE
100
AcDbLine
 10
69.26253140723345
 20
43.5
 30
0.0
 11
69.26253140723345
 21
40.0
 31
0.0
  0
LINE
  5
1C47
330
178D
100
AcDbEntity
  8
LINE
100
AcDbLine
 10
110.2374685927663
 20
46.5
 30
0.0
 11
110.2374685927663
 21
40.49999999999999
 31
0.0
  0
LINE
  5
1C48
330
178D
100
AcDbEntity
  8
LINE
100
AcDbLine
 10
45.23746859276656
 20
47.0
 30
0.0
 11
45.23746859276656
 21
45.95
 31
0.0
1001
ACAD
1000
ASC_BOUNDS
1002
{
1070
    19
1005
1477
1002
}
  0
LINE
  5
1C49
330
178D
100
AcDbEntity
  8
LINE
100
AcDbLine
 10
63.23746859276654
 20
40.0
 30
0.0
 11
108.9145929372342
 21
40.0
 31
0.0
  0
LINE
  5
1C4A
330
178D
100
AcDbEntity
  8
LINE
100
AcDbLine
 10
45.23746859276656
 20
47.0
 30
0.0
 11
108.9145929372342
 21
47.0
 31
0.0
1001
ACAD
1000
ASC_BOUNDS
1002
{
1070
    19
1005
1477
1002
}
  0
DIMENSION
  5
1C4B
330
178D
100
AcDbEntity
  8
DIMENSION
100
AcDbDimension
  2
*D18
 10
119.2374685927664
 20
40.0
 30
0.0
 11
117.3466056486039
 21
43.5
 31
0.0
  3
ISO-25
100
AcDbAlignedDimension
 13
108.9145929372342
 23
47.0
 33
0.0
 14
108.9145929372342
 24
40.0
 34
0.0
 50
90.0
100
AcDbRotatedDimension
1001
ACAD
1000
DSTYLE
1002
{
1070
   146
1040
0.8
1070
    47
1040
0.0
1070
    48
1040
0.1
1070
   147
1040
0.5
1070
    72
1070
     0
1070
    71
1070
     1
1002
}
  0
DIMENSION
  5
1C4C
330
178D
100
AcDbEntity
  8
DIMENSION
100
AcDbDimension
  2
*D20
 10
75.12979013620726
 20
75.35161262585693
 30
0.0
 11
66.00000000000001
 21
61.50000000000002
 31
0.0
 70
   131
  3
ISO-25
100
AcDbDiametricDimension
 15
73.37020986379295
 25
71.64838737414327
 35
0.0
 40
0.0
1001
ACAD
1000
DSTYLE
1002
{
1070
     3
1000
φ<>
1070
   288
1070
     1
1002
}
  0
DIMENSION
  5
1C4D
330
178D
100
AcDbEntity
  8
DIMENSION
100
AcDbDimension
  2
*D22
 10
62.73746859276654
 20
49.5
 30
0.0
 11
53.98746859276656
 21
50.75
 31
0.0
  3
ISO-25
100
AcDbAlignedDimension
 13
45.23746859276656
 23
47.0
 33
0.0
 14
62.73746859276654
 24
47.0
 34
0.0
100
AcDbRotatedDimension
  0
VIEWPORT
  5
1C50
330
1789
100
AcDbEntity
 67
     1
  8
0
100
AcDbViewport
 10
145.3197631835936
 20
101.8222458362579
 30
0.0
 40
391.2734030671862
 41
222.174172088623
 68
     1
 69
     1
1001
ACAD
1000
MVIEW
1002
{
1070
    16
1010
0.0
1020
0.0
1030
0.0
1010
0.0
1020
0.0
1030
1.0
1040
0.0
1040
222.174172088623
1040
145.3197631835936
1040
101.8222458362579
1040
50.0
1040
0.0
1040
0.0
1070
     0
1070
  1000
1070
     1
1070
     1
1070
     0
1070
     0
1070
     0
1070
     0
1040
0.0
1040
0.0
1040
0.0
1040
10.0
1040
10.0
1040
10.0
1040
10.0
1070
     0
1002
{
1002
}
1002
}
  0
ENDSEC
  0
SECTION
  2
OBJECTS
  0
DICTIONARY
  5
177B
330
0
100
AcDbDictionary
  3
ACAD_GROUP
350
177C
  3
ACAD_LAYOUT
350
1788
  3
ACAD_MLINESTYLE
350
1785
  3
ACAD_PLOTSETTINGS
350
1787
1001
ACAD
1000
TREAT_AS_HARD
1070
     0
1000
TREAT_AS_HARD
1070
     0
  0
DICTIONARY
  5
1C57
330
178D
100
AcDbDictionary
  3
ACAD_LAYOUTSELFREF
350
1C74
1001
ACAD
1000
TREAT_AS_HARD
1070
     0
  0
DICTIONARY
  5
1C55
330
1789
100
AcDbDictionary
  3
ACAD_LAYOUTSELFREF
350
1C73
1001
ACAD
1000
TREAT_AS_HARD
1070
     0
  0
DICTIONARY
  5
177C
102
{ACAD_REACTORS
330
177B
102
}
330
177B
100
AcDbDictionary
1001
ACAD
1000
TREAT_AS_HARD
1070
     0
1000
TREAT_AS_HARD
1070
     0
  0
DICTIONARY
  5
1788
102
{ACAD_REACTORS
330
177B
102
}
330
177B
100
AcDbDictionary
1001
ACAD
1000
TREAT_AS_HARD
1070
     0
1000
TREAT_AS_HARD
1070
     0
  0
DICTIONARY
  5
1785
102
{ACAD_REACTORS
330
177B
102
}
330
177B
100
AcDbDictionary
  3
STANDARD
350
1786
1001
ACAD
1000
TREAT_AS_HARD
1070
     0
1000
TREAT_AS_HARD
1070
     0
  0
DICTIONARY
  5
1787
102
{ACAD_REACTORS
330
177B
102
}
330
177B
100
AcDbDictionary
1001
ACAD
1000
TREAT_AS_HARD
1070
     0
1000
TREAT_AS_HARD
1070
     0
  0
XRECORD
  5
1C74
102
{ACAD_REACTORS
330
1C57
102
}
330
1C57
100
AcDbXrecord
340
178D
  0
XRECORD
  5
1C73
102
{ACAD_REACTORS
330
1C55
102
}
330
1C55
100
AcDbXrecord
340
1789
  0
MLINESTYLE
  5
1786
102
{ACAD_REACTORS
330
1785
102
}
330
1785
100
AcDbMlineStyle
  2
STANDARD
 70
     0
  3

 62
   256
 51
90.0
 52
90.0
 71
     2
 49
0.5
 62
   256
  6
BYLAYER
 49
-0.5
 62
   256
  6
BYLAYER
  0
ENDSEC
  0
EOF
