  0
SECTION
  2
HEADER
  9
$ACADVER
  1
AC1012
  9
$DWGCODEPAGE
  3
dos932
  9
$INSBASE
 10
0.0
 20
0.0
 30
0.0
  9
$EXTMIN
 10
9.093178151749498
 20
29.99748257919853
 30
-0.0015258207003583
  9
$EXTMAX
 10
120.7582171713679
 20
93.50761436683546
 30
0.0000000349246037
  9
$LIMMIN
 10
0.0
 20
0.0
  9
$LIMMAX
 10
148.5
 20
105.0
  9
$ORTHOMODE
 70
     0
  9
$REGENMODE
 70
     1
  9
$FILLMODE
 70
     1
  9
$QTEXTMODE
 70
     0
  9
$MIRRTEXT
 70
     0
  9
$DRAGMODE
 70
     2
  9
$LTSCALE
 40
0.25
  9
$OSMODE
 70
    37
  9
$ATTMODE
 70
     1
  9
$TEXTSIZE
 40
1.5
  9
$TRACEWID
 40
1.0
  9
$TEXTSTYLE
  7
GOTHIC
  9
$CLAYER
  8
0
  9
$CELTYPE
  6
BYLAYER
  9
$CECOLOR
 62
   256
  9
$CELTSCALE
 40
1.0
  9
$DELOBJ
 70
     1
  9
$DISPSILH
 70
     0
  9
$DIMSCALE
 40
1.0
  9
$DIMASZ
 40
1.0
  9
$DIMEXO
 40
0.0
  9
$DIMDLI
 40
1.5
  9
$DIMRND
 40
0.0
  9
$DIMDLE
 40
0.0
  9
$DIMEXE
 40
1.5
  9
$DIMTP
 40
0.0
  9
$DIMTM
 40
0.0
  9
$DIMTXT
 40
1.5
  9
$DIMCEN
 40
0.0
  9
$DIMTSZ
 40
0.0
  9
$DIMTOL
 70
     0
  9
$DIMLIM
 70
     0
  9
$DIMTIH
 70
     0
  9
$DIMTOH
 70
     0
  9
$DIMSE1
 70
     0
  9
$DIMSE2
 70
     0
  9
$DIMTAD
 70
     1
  9
$DIMZIN
 70
     8
  9
$DIMBLK
  1
OPEN30
  9
$DIMASO
 70
     1
  9
$DIMSHO
 70
     1
  9
$DIMPOST
  1

  9
$DIMAPOST
  1

  9
$DIMALT
 70
     0
  9
$DIMALTD
 70
     3
  9
$DIMALTF
 40
0.03937007874016
  9
$DIMLFAC
 40
1.0
  9
$DIMTOFL
 70
     1
  9
$DIMTVP
 40
0.0
  9
$DIMTIX
 70
     0
  9
$DIMSOXD
 70
     0
  9
$DIMSAH
 70
     0
  9
$DIMBLK1
  1

  9
$DIMBLK2
  1

  9
$DIMSTYLE
  2
VESSEL_ENGINEERING_ORIGIN0
  9
$DIMCLRD
 70
   256
  9
$DIMCLRE
 70
   256
  9
$DIMCLRT
 70
   256
  9
$DIMTFAC
 40
1.0
  9
$DIMGAP
 40
0.5
  9
$DIMJUST
 70
     0
  9
$DIMSD1
 70
     0
  9
$DIMSD2
 70
     0
  9
$DIMTOLJ
 70
     1
  9
$DIMTZIN
 70
     0
  9
$DIMALTZ
 70
     0
  9
$DIMALTTZ
 70
     0
  9
$DIMFIT
 70
     3
  9
$DIMUPT
 70
     0
  9
$DIMUNIT
 70
     2
  9
$DIMDEC
 70
     4
  9
$DIMTDEC
 70
     4
  9
$DIMALTU
 70
     2
  9
$DIMALTTD
 70
     2
  9
$DIMTXSTY
  7
STANDARD
  9
$DIMAUNIT
 70
     0
  9
$LUNITS
 70
     2
  9
$LUPREC
 70
     4
  9
$SKETCHINC
 40
1.0
  9
$FILLETRAD
 40
0.0
  9
$AUNITS
 70
     0
  9
$AUPREC
 70
     0
  9
$MENU
  1
.
  9
$ELEVATION
 40
0.0
  9
$PELEVATION
 40
0.0
  9
$THICKNESS
 40
0.0
  9
$LIMCHECK
 70
     0
  9
$BLIPMODE
 70
     1
  9
$CHAMFERA
 40
0.0
  9
$CHAMFERB
 40
0.0
  9
$CHAMFERC
 40
0.0
  9
$CHAMFERD
 40
0.0
  9
$SKPOLY
 70
     0
  9
$TDCREATE
 40
2452943.646856192
  9
$TDUPDATE
 40
2453515.809762835
  9
$TDINDWG
 40
0.5148556597
  9
$TDUSRTIMER
 40
0.5148556597
  9
$USRTIMER
 70
     1
  9
$ANGBASE
 50
0.0
  9
$ANGDIR
 70
     0
  9
$PDMODE
 70
     0
  9
$PDSIZE
 40
0.0
  9
$PLINEWID
 40
0.0
  9
$COORDS
 70
     1
  9
$SPLFRAME
 70
     0
  9
$SPLINETYPE
 70
     6
  9
$SPLINESEGS
 70
     8
  9
$ATTDIA
 70
     0
  9
$ATTREQ
 70
     1
  9
$HANDLING
 70
-16383
  9
$HANDSEED
  5
5481
  9
$SURFTAB1
 70
     6
  9
$SURFTAB2
 70
     6
  9
$SURFTYPE
 70
     6
  9
$SURFU
 70
     6
  9
$SURFV
 70
     6
  9
$UCSNAME
  2

  9
$UCSORG
 10
0.0
 20
0.0
 30
0.0
  9
$UCSXDIR
 10
1.0
 20
0.0
 30
0.0
  9
$UCSYDIR
 10
0.0
 20
1.0
 30
0.0
  9
$PUCSNAME
  2

  9
$PUCSORG
 10
0.0
 20
0.0
 30
0.0
  9
$PUCSXDIR
 10
1.0
 20
0.0
 30
0.0
  9
$PUCSYDIR
 10
0.0
 20
1.0
 30
0.0
  9
$USERI1
 70
     0
  9
$USERI2
 70
     0
  9
$USERI3
 70
     0
  9
$USERI4
 70
     0
  9
$USERI5
 70
     0
  9
$USERR1
 40
0.0
  9
$USERR2
 40
0.0
  9
$USERR3
 40
0.0
  9
$USERR4
 40
0.0
  9
$USERR5
 40
0.0
  9
$WORLDVIEW
 70
     1
  9
$SHADEDGE
 70
     3
  9
$SHADEDIF
 70
    70
  9
$TILEMODE
 70
     1
  9
$MAXACTVP
 70
    64
  9
$PINSBASE
 10
0.0
 20
0.0
 30
0.0
  9
$PLIMCHECK
 70
     0
  9
$PEXTMIN
 10
1.000000000000000E+20
 20
1.000000000000000E+20
 30
1.000000000000000E+20
  9
$PEXTMAX
 10
-1.000000000000000E+20
 20
-1.000000000000000E+20
 30
-1.000000000000000E+20
  9
$PLIMMIN
 10
-3.17498779296875
 20
-3.174999952316284
  9
$PLIMMAX
 10
293.8145141601562
 20
206.8194916248321
  9
$UNITMODE
 70
     0
  9
$VISRETAIN
 70
     1
  9
$PLINEGEN
 70
     0
  9
$PSLTSCALE
 70
     0
  9
$TREEDEPTH
 70
  3020
  9
$PICKSTYLE
 70
     3
  9
$CMLSTYLE
  2
STANDARD
  9
$CMLJUST
 70
     0
  9
$CMLSCALE
 40
1.0
  9
$SAVEIMAGES
 70
     1
  0
ENDSEC
  0
SECTION
  2
CLASSES
  0
CLASS
  1
ACDBDICTIONARYWDFLT
  2
AcDbDictionaryWithDefault
  3
AutoCAD 2000
 90
    32768
280
     0
281
     0
  0
CLASS
  1
ACDBPLACEHOLDER
  2
AcDbPlaceHolder
  3
AutoCAD 2000
 90
    32768
280
     0
281
     0
  0
CLASS
  1
LAYOUT
  2
AcDbLayout
  3
AutoCAD 2000
 90
    32768
280
     0
281
     0
  0
CLASS
  1
LONG_TRANSACTION
  2
AcDbLongTransaction
  3
AutoCAD 2000
 90
    32768
280
     0
281
     0
  0
CLASS
  1
LWPOLYLINE
  2
AcDbPolyline
  3
AutoCAD 2000
 90
    32768
280
     0
281
     1
  0
CLASS
  1
HATCH
  2
AcDbHatch
  3
AutoCAD 2000
 90
    32768
280
     0
281
     1
  0
CLASS
  1
XRECORD
  2
AcDbXrecord
  3
AutoCAD 2000
 90
    32768
280
     0
281
     0
  0
ENDSEC
  0
SECTION
  2
TABLES
  0
TABLE
  2
VPORT
  5
4DAF
330
0
100
AcDbSymbolTable
 70
     2
  0
VPORT
  5
5454
330
4DAF
100
AcDbSymbolTableRecord
100
AcDbViewportTableRecord
  2
*ACTIVE
 70
     0
 10
0.0
 20
0.0
 11
1.0
 21
1.0
 12
64.92569766155873
 22
61.75254847301699
 13
0.0
 23
0.0
 14
1.5
 24
1.5
 15
1.5
 25
1.5
 16
0.0
 26
0.0
 36
1.0
 17
0.0
 27
0.0
 37
0.0
 40
74.31688016804303
 41
1.510025062656641
 42
50.0
 43
0.0
 44
0.0
 50
0.0
 51
0.0
 71
     0
 72
 20000
 73
     1
 74
     3
 75
     0
 76
     0
 77
     0
 78
     0
  0
ENDTAB
  0
TABLE
  2
LTYPE
  5
4DAC
330
0
100
AcDbSymbolTable
 70
    12
  0
LTYPE
  5
4DBA
330
4DAC
100
AcDbSymbolTableRecord
100
AcDbLinetypeTableRecord
  2
BYBLOCK
 70
     0
  3

 72
    65
 73
     0
 40
0.0
  0
LTYPE
  5
4DBB
330
4DAC
100
AcDbSymbolTableRecord
100
AcDbLinetypeTableRecord
  2
BYLAYER
 70
     0
  3

 72
    65
 73
     0
 40
0.0
  0
LTYPE
  5
4DBC
330
4DAC
100
AcDbSymbolTableRecord
100
AcDbLinetypeTableRecord
  2
CONTINUOUS
 70
     0
  3
Solid line
 72
    65
 73
     0
 40
0.0
  0
LTYPE
  5
4DCB
330
4DAC
100
AcDbSymbolTableRecord
100
AcDbLinetypeTableRecord
  2
CENTER2
 70
     0
  3
Center (.5x) ___ _ ___ _ ___ _ ___ _ ___ _ ___
 72
    65
 73
     4
 40
28.57499999999999
 49
19.05
 74
     0
 49
-3.174999999999998
 74
     0
 49
3.174999999999998
 74
     0
 49
-3.174999999999998
 74
     0
  0
LTYPE
  5
4DCC
330
4DAC
100
AcDbSymbolTableRecord
100
AcDbLinetypeTableRecord
  2
HIDDEN2
 70
     0
  3
Hidden (.5x) _ _ _ _ _ _ _ _ _ _ _ _ _ _ _ _ _
 72
    65
 73
     2
 40
4.762499999999999
 49
3.174999999999998
 74
     0
 49
-1.587499999999999
 74
     0
  0
LTYPE
  5
4DCD
330
4DAC
100
AcDbSymbolTableRecord
100
AcDbLinetypeTableRecord
  2
DASHED
 70
     0
  3
__ __ __ __ __ __ __ __ __ __ __ __ __ __ __
 72
    65
 73
     2
 40
0.75
 49
0.5
 74
     0
 49
-0.25
 74
     0
  0
LTYPE
  5
4DCE
330
4DAC
100
AcDbSymbolTableRecord
100
AcDbLinetypeTableRecord
  2
HIDDEN
 70
     0
  3
_ _ _ _ _ _ _ _ _ _ _ _ _ _ _ _ _ _ _ _ _ _ _
 72
    65
 73
     2
 40
0.375
 49
0.25
 74
     0
 49
-0.125
 74
     0
  0
LTYPE
  5
4DCF
330
4DAC
100
AcDbSymbolTableRecord
100
AcDbLinetypeTableRecord
  2
CENTER
 70
     0
  3
____ _ ____ _ ____ _ ____ _ ____ _ ____ _ ____
 72
    65
 73
     4
 40
2.0
 49
1.25
 74
     0
 49
-0.25
 74
     0
 49
0.25
 74
     0
 49
-0.25
 74
     0
  0
LTYPE
  5
4DD0
330
4DAC
100
AcDbSymbolTableRecord
100
AcDbLinetypeTableRecord
  2
PHANTOM
 70
     0
  3
_____ _ _ _____ _ _ _____ _ _ _____ _ _ ____
 72
    65
 73
     6
 40
2.5
 49
1.25
 74
     0
 49
-0.25
 74
     0
 49
0.25
 74
     0
 49
-0.25
 74
     0
 49
0.25
 74
     0
 49
-0.25
 74
     0
  0
LTYPE
  5
4DD1
330
4DAC
100
AcDbSymbolTableRecord
100
AcDbLinetypeTableRecord
  2
DOT
 70
     0
  3
...............................................
 72
    65
 73
     2
 40
0.25
 49
0.0
 74
     0
 49
-0.25
 74
     0
  0
LTYPE
  5
4DD2
330
4DAC
100
AcDbSymbolTableRecord
100
AcDbLinetypeTableRecord
  2
DASHDOT
 70
     0
  3
__ . __ . __ . __ . __ . __ . __ . __ . __ . __
 72
    65
 73
     4
 40
1.0
 49
0.5
 74
     0
 49
-0.25
 74
     0
 49
0.0
 74
     0
 49
-0.25
 74
     0
  0
LTYPE
  5
4DD3
330
4DAC
100
AcDbSymbolTableRecord
100
AcDbLinetypeTableRecord
  2
BORDER
 70
     0
  3
__ __ . __ __ . __ __ . __ __ . __ __ . __ __
 72
    65
 73
     6
 40
1.75
 49
0.5
 74
     0
 49
-0.25
 74
     0
 49
0.5
 74
     0
 49
-0.25
 74
     0
 49
0.0
 74
     0
 49
-0.25
 74
     0
  0
LTYPE
  5
4DD4
330
4DAC
100
AcDbSymbolTableRecord
100
AcDbLinetypeTableRecord
  2
DIVIDE
 70
     0
  3
__ . . __ . . __ . . __ . . __ . . __ . . __
 72
    65
 73
     6
 40
1.25
 49
0.5
 74
     0
 49
-0.25
 74
     0
 49
0.0
 74
     0
 49
-0.25
 74
     0
 49
0.0
 74
     0
 49
-0.25
 74
     0
  0
LTYPE
  5
4DD5
330
4DAC
100
AcDbSymbolTableRecord
100
AcDbLinetypeTableRecord
  2
PHANTOM2
 70
     0
  3
Phantom (.5x) ___ _ _ ___ _ _ ___ _ _ ___ _ _
 72
    65
 73
     6
 40
31.75
 49
15.875
 74
     0
 49
-3.174999999999998
 74
     0
 49
3.174999999999998
 74
     0
 49
-3.174999999999998
 74
     0
 49
3.174999999999998
 74
     0
 49
-3.174999999999998
 74
     0
  0
ENDTAB
  0
TABLE
  2
LAYER
  5
4DA9
330
0
100
AcDbSymbolTable
 70
     9
  0
LAYER
  5
4DB7
330
4DA9
100
AcDbSymbolTableRecord
100
AcDbLayerTableRecord
  2
0
 70
     0
 62
     7
  6
CONTINUOUS
  0
LAYER
  5
4DD6
330
4DA9
100
AcDbSymbolTableRecord
100
AcDbLayerTableRecord
  2
CENTER
 70
     0
 62
     4
  6
CENTER2
  0
LAYER
  5
4DD7
330
4DA9
100
AcDbSymbolTableRecord
100
AcDbLayerTableRecord
  2
DIMENSION
 70
     0
 62
     3
  6
CONTINUOUS
  0
LAYER
  5
4DD8
330
4DA9
100
AcDbSymbolTableRecord
100
AcDbLayerTableRecord
  2
HIDDEN
 70
     0
 62
     4
  6
HIDDEN2
  0
LAYER
  5
4DD9
330
4DA9
100
AcDbSymbolTableRecord
100
AcDbLayerTableRecord
  2
LINE
 70
     0
 62
     2
  6
CONTINUOUS
  0
LAYER
  5
4DDA
330
4DA9
100
AcDbSymbolTableRecord
100
AcDbLayerTableRecord
  2
TEXT
 70
     0
 62
     3
  6
CONTINUOUS
  0
LAYER
  5
4DDB
330
4DA9
100
AcDbSymbolTableRecord
100
AcDbLayerTableRecord
  2
DEFPOINTS
 70
     0
 62
    -7
  6
CONTINUOUS
  0
LAYER
  5
4DDC
330
4DA9
100
AcDbSymbolTableRecord
100
AcDbLayerTableRecord
  2
UNDER_LINE
 70
     0
 62
     6
  6
CONTINUOUS
  0
LAYER
  5
4DDD
330
4DA9
100
AcDbSymbolTableRecord
100
AcDbLayerTableRecord
  2
HATCHING
 70
     0
 62
     7
  6
CONTINUOUS
  0
ENDTAB
  0
TABLE
  2
STYLE
  5
4DAA
330
0
100
AcDbSymbolTable
 70
     6
  0
STYLE
  5
4DB8
330
4DAA
100
AcDbSymbolTableRecord
100
AcDbTextStyleTableRecord
  2
STANDARD
 70
     0
 40
0.0
 41
1.0
 50
0.0
 71
     0
 42
2.5
  3
txt
  4

  0
STYLE
  5
4DC9
330
4DAA
100
AcDbSymbolTableRecord
100
AcDbTextStyleTableRecord
  2
GOTHIC
 70
     0
 40
0.0
 41
1.0
 50
0.0
 71
     0
 42
1.5
  3
txt.shx
  4
bigfont.shx
  0
STYLE
  5
4DDE
330
4DAA
100
AcDbSymbolTableRecord
100
AcDbTextStyleTableRecord
  2

 70
     1
 40
0.0
 41
1.0
 50
0.0
 71
     0
 42
2.5
  3
ltypeshp.shx
  4

  0
STYLE
  5
4DDF
330
4DAA
100
AcDbSymbolTableRecord
100
AcDbTextStyleTableRecord
  2
KANJI
 70
     0
 40
0.0
 41
1.0
 50
0.0
 71
     0
 42
2.5
  3
romans.shx
  4
extfont.shx
  0
STYLE
  5
4DE0
330
4DAA
100
AcDbSymbolTableRecord
100
AcDbTextStyleTableRecord
  2
KANJI1
 70
     0
 40
0.0
 41
1.0
 50
0.0
 71
     0
 42
0.2
  3
txt.shx
  4
BIGFONT
  0
STYLE
  5
4DE1
330
4DAA
100
AcDbSymbolTableRecord
100
AcDbTextStyleTableRecord
  2
KANJI2
 70
     4
 40
0.0
 41
1.0
 50
0.0
 71
     0
 42
0.2
  3
txt.shx
  4
BIGFONT
  0
ENDTAB
  0
TABLE
  2
VIEW
  5
4DAD
330
0
100
AcDbSymbolTable
 70
     0
  0
ENDTAB
  0
TABLE
  2
UCS
  5
4DAE
330
0
100
AcDbSymbolTable
 70
     0
  0
ENDTAB
  0
TABLE
  2
APPID
  5
4DB0
330
0
100
AcDbSymbolTable
 70
     4
  0
APPID
  5
4DB9
330
4DB0
100
AcDbSymbolTableRecord
100
AcDbRegAppTableRecord
  2
ACAD
 70
     0
  0
APPID
  5
4DE2
330
4DB0
100
AcDbSymbolTableRecord
100
AcDbRegAppTableRecord
  2
ACAD_DSTYLE_DIMTEXT_FILL
 70
     0
  0
APPID
  5
4DE3
330
4DB0
100
AcDbSymbolTableRecord
100
AcDbRegAppTableRecord
  2
ACAD_PSEXT
 70
     0
  0
APPID
  5
4DE4
330
4DB0
100
AcDbSymbolTableRecord
100
AcDbRegAppTableRecord
  2
CONTENTBLOCKICON
 70
     0
  0
ENDTAB
  0
TABLE
  2
DIMSTYLE
  5
4DB1
330
0
100
AcDbSymbolTable
 70
     9
  0
DIMSTYLE
105
4DE5
102
{ACAD_REACTORS
330
53DD
330
53E5
330
53E6
330
53F5
330
53F6
330
5431
330
5434
330
5446
330
5447
330
5448
330
5449
330
544C
330
544D
102
}
330
4DB1
100
AcDbSymbolTableRecord
100
AcDbDimStyleTableRecord
  2
ISO-25
 70
     0
  3

  4

  5

  6

  7

 40
1.0
 41
2.5
 42
0.625
 43
3.75
 44
1.25
 45
0.0
 46
0.0
 47
0.0
 48
0.0
140
2.5
141
2.5
142
0.0
143
0.03937007874016
144
1.0
145
0.0
146
1.0
147
0.625
 71
     0
 72
     0
 73
     0
 74
     0
 75
     0
 76
     0
 77
     1
 78
     8
170
     0
171
     3
172
     1
173
     0
174
     0
175
     0
176
     0
177
     0
178
     0
270
     2
271
     4
272
     4
273
     2
274
     3
340
4DC9
275
     0
280
     0
281
     0
282
     0
283
     1
284
     8
285
     8
286
     8
287
     5
288
     0
  0
DIMSTYLE
105
4DE6
102
{ACAD_REACTORS
330
4F3D
330
4F73
330
4F74
330
4F75
330
4F76
330
4F77
330
4F7F
330
4F80
330
4F87
330
4F91
330
4F92
330
4F93
330
4F94
330
4F95
330
4F96
330
4F97
330
4F98
102
}
330
4DB1
100
AcDbSymbolTableRecord
100
AcDbDimStyleTableRecord
  2
VESSEL_ENGINEERING_ORIGINA
 70
     0
  3

  4

  5

  6

  7

 40
1.0
 41
1.0
 42
0.0
 43
1.5
 44
1.5
 45
0.0
 46
0.0
 47
0.0
 48
0.0
140
1.5
141
0.0
142
0.0
143
0.03937007874016
144
1.0
145
0.0
146
1.0
147
0.5
 71
     0
 72
     0
 73
     0
 74
     0
 75
     0
 76
     0
 77
     1
 78
     8
170
     0
171
     3
172
     1
173
     0
174
     0
175
     0
176
   256
177
   256
178
   256
270
     2
271
     4
272
     4
273
     2
274
     3
340
4DC9
275
     0
280
     0
281
     0
282
     0
283
     1
284
     8
285
     8
286
     8
287
     5
288
     0
  0
DIMSTYLE
105
4DE7
330
4DB1
100
AcDbSymbolTableRecord
100
AcDbDimStyleTableRecord
  2
VESSEL_ENGINEERING_ORIGIN0
 70
     0
  3

  4

  5

  6

  7

 40
1.0
 41
1.0
 42
0.0
 43
1.5
 44
1.5
 45
0.0
 46
0.0
 47
0.0
 48
0.0
140
1.5
141
0.0
142
0.0
143
0.03937007874016
144
1.0
145
0.0
146
1.0
147
0.5
 71
     0
 72
     0
 73
     0
 74
     0
 75
     0
 76
     0
 77
     1
 78
     8
170
     0
171
     3
172
     1
173
     0
174
     0
175
     0
176
   256
177
   256
178
   256
270
     2
271
     4
272
     4
273
     2
274
     3
340
4DC9
275
     0
280
     0
281
     0
282
     0
283
     1
284
     8
285
     8
286
     8
287
     5
288
     0
  0
DIMSTYLE
105
4DE8
330
4DB1
100
AcDbSymbolTableRecord
100
AcDbDimStyleTableRecord
  2
VESSEL_ENGINEERING_ORIGIN1
 70
     0
  3

  4

  5

  6

  7

 40
1.0
 41
1.0
 42
0.0
 43
1.5
 44
1.5
 45
0.0
 46
0.0
 47
0.0
 48
0.0
140
1.5
141
0.0
142
0.0
143
0.03937007874016
144
1.0
145
0.0
146
1.0
147
0.5
 71
     0
 72
     0
 73
     0
 74
     1
 75
     0
 76
     0
 77
     1
 78
     8
170
     0
171
     3
172
     1
173
     0
174
     0
175
     0
176
   256
177
   256
178
   256
270
     2
271
     4
272
     4
273
     2
274
     3
340
4DC9
275
     0
280
     0
281
     0
282
     0
283
     1
284
     8
285
     8
286
     8
287
     5
288
     0
  0
DIMSTYLE
105
4DE9
330
4DB1
100
AcDbSymbolTableRecord
100
AcDbDimStyleTableRecord
  2
VESSEL_ENGINEERING_ORIGIN2
 70
     0
  3

  4

  5

  6

  7

 40
1.0
 41
1.0
 42
0.0
 43
1.5
 44
1.5
 45
0.0
 46
0.0
 47
0.0
 48
0.0
140
1.5
141
0.0
142
0.0
143
0.03937007874016
144
1.0
145
0.0
146
1.0
147
0.5
 71
     0
 72
     0
 73
     0
 74
     1
 75
     0
 76
     0
 77
     1
 78
     8
170
     0
171
     3
172
     1
173
     0
174
     0
175
     0
176
   256
177
   256
178
   256
270
     2
271
     4
272
     4
273
     2
274
     3
340
4DC9
275
     0
280
     0
281
     0
282
     0
283
     1
284
     8
285
     8
286
     8
287
     5
288
     0
  0
DIMSTYLE
105
4DEA
102
{ACAD_REACTORS
330
4F86
330
4FA5
102
}
330
4DB1
100
AcDbSymbolTableRecord
100
AcDbDimStyleTableRecord
  2
VESSEL_ENGINEERING_ORIGIN3
 70
     0
  3

  4

  5

  6

  7

 40
1.0
 41
1.0
 42
0.0
 43
1.5
 44
1.5
 45
0.0
 46
0.0
 47
0.0
 48
0.0
140
1.5
141
0.0
142
0.0
143
0.03937007874016
144
1.0
145
0.0
146
1.0
147
0.5
 71
     0
 72
     0
 73
     0
 74
     1
 75
     0
 76
     0
 77
     1
 78
     8
170
     0
171
     3
172
     1
173
     0
174
     0
175
     0
176
   256
177
   256
178
   256
270
     2
271
     4
272
     4
273
     2
274
     3
340
4DC9
275
     0
280
     0
281
     0
282
     0
283
     1
284
     8
285
     8
286
     8
287
     5
288
     0
  0
DIMSTYLE
105
4DEB
330
4DB1
100
AcDbSymbolTableRecord
100
AcDbDimStyleTableRecord
  2
VESSEL_ENGINEERING_ORIGIN4
 70
     0
  3

  4

  5

  6

  7

 40
1.0
 41
1.0
 42
0.0
 43
1.5
 44
1.5
 45
0.0
 46
0.0
 47
0.0
 48
0.0
140
1.5
141
0.0
142
0.0
143
0.03937007874016
144
1.0
145
0.0
146
1.0
147
0.5
 71
     0
 72
     0
 73
     0
 74
     0
 75
     0
 76
     0
 77
     1
 78
     8
170
     0
171
     3
172
     1
173
     0
174
     0
175
     0
176
   256
177
   256
178
   256
270
     2
271
     4
272
     4
273
     2
274
     3
340
4DC9
275
     0
280
     0
281
     0
282
     0
283
     1
284
     8
285
     8
286
     8
287
     5
288
     0
  0
DIMSTYLE
105
4DEC
330
4DB1
100
AcDbSymbolTableRecord
100
AcDbDimStyleTableRecord
  2
VESSEL_ENGINEERING_ORIGIN5
 70
     0
  3

  4

  5

  6

  7

 40
1.0
 41
1.0
 42
0.0
 43
1.5
 44
1.5
 45
0.0
 46
0.0
 47
0.0
 48
0.0
140
1.5
141
0.0
142
0.0
143
0.03937007874016
144
1.0
145
0.0
146
1.0
147
0.5
 71
     0
 72
     0
 73
     0
 74
     0
 75
     0
 76
     0
 77
     1
 78
     8
170
     0
171
     3
172
     1
173
     0
174
     0
175
     0
176
   256
177
   256
178
   256
270
     2
271
     4
272
     4
273
     2
274
     3
340
4DC9
275
     0
280
     0
281
     0
282
     0
283
     1
284
     8
285
     8
286
     8
287
     5
288
     0
  0
DIMSTYLE
105
4DED
330
4DB1
100
AcDbSymbolTableRecord
100
AcDbDimStyleTableRecord
  2
STANDARD
 70
     0
  3

  4

  5

  6

  7

 40
1.0
 41
0.18
 42
0.0625
 43
0.38
 44
0.18
 45
0.0
 46
0.0
 47
0.0
 48
0.0
140
0.18
141
0.09
142
0.0
143
25.4
144
1.0
145
0.0
146
1.0
147
0.09
 71
     0
 72
     0
 73
     1
 74
     1
 75
     0
 76
     0
 77
     0
 78
     0
170
     0
171
     2
172
     0
173
     0
174
     0
175
     0
176
     0
177
     0
178
     0
270
     2
271
     4
272
     4
273
     2
274
     3
340
4DC9
275
     0
280
     0
281
     0
282
     0
283
     1
284
     8
285
     8
286
     8
287
     5
288
     0
  0
ENDTAB
  0
TABLE
  2
BLOCK_RECORD
  5
4DA8
330
0
100
AcDbSymbolTable
 70
   240
  0
BLOCK_RECORD
  5
4DC5
102
{ACAD_XDICTIONARY
360
5457
102
}
330
4DA8
100
AcDbSymbolTableRecord
100
AcDbBlockTableRecord
  2
*MODEL_SPACE
  0
BLOCK_RECORD
  5
4DC1
102
{ACAD_XDICTIONARY
360
5455
102
}
330
4DA8
100
AcDbSymbolTableRecord
100
AcDbBlockTableRecord
  2
*PAPER_SPACE
  0
BLOCK_RECORD
  5
4DF3
330
4DA8
100
AcDbSymbolTableRecord
100
AcDbBlockTableRecord
  2
$MODEL_SPACE
  0
BLOCK_RECORD
  5
4DF6
330
4DA8
100
AcDbSymbolTableRecord
100
AcDbBlockTableRecord
  2
$PAPER_SPACE
  0
BLOCK_RECORD
  5
4DF9
330
4DA8
100
AcDbSymbolTableRecord
100
AcDbBlockTableRecord
  2
_OPEN30
  0
BLOCK_RECORD
  5
4DFF
330
4DA8
100
AcDbSymbolTableRecord
100
AcDbBlockTableRecord
  2
FORMAT
  0
BLOCK_RECORD
  5
4E39
330
4DA8
100
AcDbSymbolTableRecord
100
AcDbBlockTableRecord
  2
*D4
  0
BLOCK_RECORD
  5
4E40
330
4DA8
100
AcDbSymbolTableRecord
100
AcDbBlockTableRecord
  2
*U5
  0
BLOCK_RECORD
  5
4E46
330
4DA8
100
AcDbSymbolTableRecord
100
AcDbBlockTableRecord
  2
*D6
  0
BLOCK_RECORD
  5
4E4D
330
4DA8
100
AcDbSymbolTableRecord
100
AcDbBlockTableRecord
  2
*U7
  0
BLOCK_RECORD
  5
4E53
330
4DA8
100
AcDbSymbolTableRecord
100
AcDbBlockTableRecord
  2
*D8
  0
BLOCK_RECORD
  5
4E5C
330
4DA8
100
AcDbSymbolTableRecord
100
AcDbBlockTableRecord
  2
*U9
  0
BLOCK_RECORD
  5
4E62
330
4DA8
100
AcDbSymbolTableRecord
100
AcDbBlockTableRecord
  2
*D10
  0
BLOCK_RECORD
  5
4E69
330
4DA8
100
AcDbSymbolTableRecord
100
AcDbBlockTableRecord
  2
*U11
  0
BLOCK_RECORD
  5
4E6F
330
4DA8
100
AcDbSymbolTableRecord
100
AcDbBlockTableRecord
  2
*D12
  0
BLOCK_RECORD
  5
4E73
330
4DA8
100
AcDbSymbolTableRecord
100
AcDbBlockTableRecord
  2
*U13
  0
BLOCK_RECORD
  5
4E7C
330
4DA8
100
AcDbSymbolTableRecord
100
AcDbBlockTableRecord
  2
*D14
  0
BLOCK_RECORD
  5
4E85
330
4DA8
100
AcDbSymbolTableRecord
100
AcDbBlockTableRecord
  2
*U15
  0
BLOCK_RECORD
  5
4E8B
330
4DA8
100
AcDbSymbolTableRecord
100
AcDbBlockTableRecord
  2
*D16
  0
BLOCK_RECORD
  5
4E92
330
4DA8
100
AcDbSymbolTableRecord
100
AcDbBlockTableRecord
  2
*U17
  0
BLOCK_RECORD
  5
4E98
330
4DA8
100
AcDbSymbolTableRecord
100
AcDbBlockTableRecord
  2
*D18
  0
BLOCK_RECORD
  5
4EA1
330
4DA8
100
AcDbSymbolTableRecord
100
AcDbBlockTableRecord
  2
*U19
  0
BLOCK_RECORD
  5
4EA7
330
4DA8
100
AcDbSymbolTableRecord
100
AcDbBlockTableRecord
  2
*D20
  0
BLOCK_RECORD
  5
4EAB
330
4DA8
100
AcDbSymbolTableRecord
100
AcDbBlockTableRecord
  2
*U21
  0
BLOCK_RECORD
  5
4EB0
330
4DA8
100
AcDbSymbolTableRecord
100
AcDbBlockTableRecord
  2
*D22
  0
BLOCK_RECORD
  5
4EB4
330
4DA8
100
AcDbSymbolTableRecord
100
AcDbBlockTableRecord
  2
*U23
  0
BLOCK_RECORD
  5
4EBC
330
4DA8
100
AcDbSymbolTableRecord
100
AcDbBlockTableRecord
  2
*D24
  0
BLOCK_RECORD
  5
4EC3
330
4DA8
100
AcDbSymbolTableRecord
100
AcDbBlockTableRecord
  2
*U25
  0
BLOCK_RECORD
  5
4EC9
330
4DA8
100
AcDbSymbolTableRecord
100
AcDbBlockTableRecord
  2
*D26
  0
BLOCK_RECORD
  5
4ECF
330
4DA8
100
AcDbSymbolTableRecord
100
AcDbBlockTableRecord
  2
*U27
  0
BLOCK_RECORD
  5
4ED5
330
4DA8
100
AcDbSymbolTableRecord
100
AcDbBlockTableRecord
  2
*D28
  0
BLOCK_RECORD
  5
4EDB
330
4DA8
100
AcDbSymbolTableRecord
100
AcDbBlockTableRecord
  2
*U29
  0
BLOCK_RECORD
  5
4EE1
330
4DA8
100
AcDbSymbolTableRecord
100
AcDbBlockTableRecord
  2
*D30
  0
BLOCK_RECORD
  5
4EE7
330
4DA8
100
AcDbSymbolTableRecord
100
AcDbBlockTableRecord
  2
*U31
  0
BLOCK_RECORD
  5
4EED
330
4DA8
100
AcDbSymbolTableRecord
100
AcDbBlockTableRecord
  2
*D32
  0
BLOCK_RECORD
  5
4EF4
330
4DA8
100
AcDbSymbolTableRecord
100
AcDbBlockTableRecord
  2
*U33
  0
BLOCK_RECORD
  5
4EFA
330
4DA8
100
AcDbSymbolTableRecord
100
AcDbBlockTableRecord
  2
*D34
  0
BLOCK_RECORD
  5
4EFE
330
4DA8
100
AcDbSymbolTableRecord
100
AcDbBlockTableRecord
  2
*U35
  0
BLOCK_RECORD
  5
4F06
330
4DA8
100
AcDbSymbolTableRecord
100
AcDbBlockTableRecord
  2
*D36
  0
BLOCK_RECORD
  5
4F0C
330
4DA8
100
AcDbSymbolTableRecord
100
AcDbBlockTableRecord
  2
*U37
  0
BLOCK_RECORD
  5
4F12
330
4DA8
100
AcDbSymbolTableRecord
100
AcDbBlockTableRecord
  2
*D38
  0
BLOCK_RECORD
  5
4F17
330
4DA8
100
AcDbSymbolTableRecord
100
AcDbBlockTableRecord
  2
*U39
  0
BLOCK_RECORD
  5
4F1D
330
4DA8
100
AcDbSymbolTableRecord
100
AcDbBlockTableRecord
  2
*D40
  0
BLOCK_RECORD
  5
4F23
330
4DA8
100
AcDbSymbolTableRecord
100
AcDbBlockTableRecord
  2
*U41
  0
BLOCK_RECORD
  5
4F28
330
4DA8
100
AcDbSymbolTableRecord
100
AcDbBlockTableRecord
  2
A$C3D9D1D5D
  0
BLOCK_RECORD
  5
4F7D
330
4DA8
100
AcDbSymbolTableRecord
100
AcDbBlockTableRecord
  2
*U43
  0
BLOCK_RECORD
  5
4F81
330
4DA8
100
AcDbSymbolTableRecord
100
AcDbBlockTableRecord
  2
*U44
  0
BLOCK_RECORD
  5
4FA7
330
4DA8
100
AcDbSymbolTableRecord
100
AcDbBlockTableRecord
  2
*D45
  0
BLOCK_RECORD
  5
4FAE
330
4DA8
100
AcDbSymbolTableRecord
100
AcDbBlockTableRecord
  2
*U46
  0
BLOCK_RECORD
  5
4FB4
330
4DA8
100
AcDbSymbolTableRecord
100
AcDbBlockTableRecord
  2
*D47
  0
BLOCK_RECORD
  5
4FBB
330
4DA8
100
AcDbSymbolTableRecord
100
AcDbBlockTableRecord
  2
*U48
  0
BLOCK_RECORD
  5
4FC1
330
4DA8
100
AcDbSymbolTableRecord
100
AcDbBlockTableRecord
  2
*D49
  0
BLOCK_RECORD
  5
4FCA
330
4DA8
100
AcDbSymbolTableRecord
100
AcDbBlockTableRecord
  2
*U50
  0
BLOCK_RECORD
  5
4FD0
330
4DA8
100
AcDbSymbolTableRecord
100
AcDbBlockTableRecord
  2
*D51
  0
BLOCK_RECORD
  5
4FDB
330
4DA8
100
AcDbSymbolTableRecord
100
AcDbBlockTableRecord
  2
*D52
  0
BLOCK_RECORD
  5
4FE1
330
4DA8
100
AcDbSymbolTableRecord
100
AcDbBlockTableRecord
  2
*U53
  0
BLOCK_RECORD
  5
4FE6
330
4DA8
100
AcDbSymbolTableRecord
100
AcDbBlockTableRecord
  2
*D54
  0
BLOCK_RECORD
  5
4FED
330
4DA8
100
AcDbSymbolTableRecord
100
AcDbBlockTableRecord
  2
*U55
  0
BLOCK_RECORD
  5
4FF3
330
4DA8
100
AcDbSymbolTableRecord
100
AcDbBlockTableRecord
  2
*D56
  0
BLOCK_RECORD
  5
4FF7
330
4DA8
100
AcDbSymbolTableRecord
100
AcDbBlockTableRecord
  2
*U57
  0
BLOCK_RECORD
  5
4FFC
330
4DA8
100
AcDbSymbolTableRecord
100
AcDbBlockTableRecord
  2
*D58
  0
BLOCK_RECORD
  5
4FFF
330
4DA8
100
AcDbSymbolTableRecord
100
AcDbBlockTableRecord
  2
*U59
  0
BLOCK_RECORD
  5
5007
330
4DA8
100
AcDbSymbolTableRecord
100
AcDbBlockTableRecord
  2
*D60
  0
BLOCK_RECORD
  5
500E
330
4DA8
100
AcDbSymbolTableRecord
100
AcDbBlockTableRecord
  2
*U61
  0
BLOCK_RECORD
  5
5014
330
4DA8
100
AcDbSymbolTableRecord
100
AcDbBlockTableRecord
  2
*D62
  0
BLOCK_RECORD
  5
5018
330
4DA8
100
AcDbSymbolTableRecord
100
AcDbBlockTableRecord
  2
*U63
  0
BLOCK_RECORD
  5
5021
330
4DA8
100
AcDbSymbolTableRecord
100
AcDbBlockTableRecord
  2
*D64
  0
BLOCK_RECORD
  5
5028
330
4DA8
100
AcDbSymbolTableRecord
100
AcDbBlockTableRecord
  2
*U65
  0
BLOCK_RECORD
  5
502E
330
4DA8
100
AcDbSymbolTableRecord
100
AcDbBlockTableRecord
  2
*D66
  0
BLOCK_RECORD
  5
5035
330
4DA8
100
AcDbSymbolTableRecord
100
AcDbBlockTableRecord
  2
*U67
  0
BLOCK_RECORD
  5
503B
330
4DA8
100
AcDbSymbolTableRecord
100
AcDbBlockTableRecord
  2
*D68
  0
BLOCK_RECORD
  5
5042
330
4DA8
100
AcDbSymbolTableRecord
100
AcDbBlockTableRecord
  2
*U69
  0
BLOCK_RECORD
  5
5048
330
4DA8
100
AcDbSymbolTableRecord
100
AcDbBlockTableRecord
  2
*D70
  0
BLOCK_RECORD
  5
504D
330
4DA8
100
AcDbSymbolTableRecord
100
AcDbBlockTableRecord
  2
*U71
  0
BLOCK_RECORD
  5
5055
330
4DA8
100
AcDbSymbolTableRecord
100
AcDbBlockTableRecord
  2
*D72
  0
BLOCK_RECORD
  5
505C
330
4DA8
100
AcDbSymbolTableRecord
100
AcDbBlockTableRecord
  2
*U73
  0
BLOCK_RECORD
  5
5062
330
4DA8
100
AcDbSymbolTableRecord
100
AcDbBlockTableRecord
  2
*D74
  0
BLOCK_RECORD
  5
5068
330
4DA8
100
AcDbSymbolTableRecord
100
AcDbBlockTableRecord
  2
*U75
  0
BLOCK_RECORD
  5
506E
330
4DA8
100
AcDbSymbolTableRecord
100
AcDbBlockTableRecord
  2
*D76
  0
BLOCK_RECORD
  5
5074
330
4DA8
100
AcDbSymbolTableRecord
100
AcDbBlockTableRecord
  2
*U77
  0
BLOCK_RECORD
  5
507A
330
4DA8
100
AcDbSymbolTableRecord
100
AcDbBlockTableRecord
  2
*D78
  0
BLOCK_RECORD
  5
5081
330
4DA8
100
AcDbSymbolTableRecord
100
AcDbBlockTableRecord
  2
*U79
  0
BLOCK_RECORD
  5
5087
330
4DA8
100
AcDbSymbolTableRecord
100
AcDbBlockTableRecord
  2
*D80
  0
BLOCK_RECORD
  5
508C
330
4DA8
100
AcDbSymbolTableRecord
100
AcDbBlockTableRecord
  2
*U81
  0
BLOCK_RECORD
  5
5092
330
4DA8
100
AcDbSymbolTableRecord
100
AcDbBlockTableRecord
  2
*D82
  0
BLOCK_RECORD
  5
5098
330
4DA8
100
AcDbSymbolTableRecord
100
AcDbBlockTableRecord
  2
*U83
  0
BLOCK_RECORD
  5
509D
330
4DA8
100
AcDbSymbolTableRecord
100
AcDbBlockTableRecord
  2
*D84
  0
BLOCK_RECORD
  5
50A4
330
4DA8
100
AcDbSymbolTableRecord
100
AcDbBlockTableRecord
  2
*U85
  0
BLOCK_RECORD
  5
50AA
330
4DA8
100
AcDbSymbolTableRecord
100
AcDbBlockTableRecord
  2
*D86
  0
BLOCK_RECORD
  5
50B1
330
4DA8
100
AcDbSymbolTableRecord
100
AcDbBlockTableRecord
  2
*U87
  0
BLOCK_RECORD
  5
50B7
330
4DA8
100
AcDbSymbolTableRecord
100
AcDbBlockTableRecord
  2
*D88
  0
BLOCK_RECORD
  5
50C1
330
4DA8
100
AcDbSymbolTableRecord
100
AcDbBlockTableRecord
  2
*U89
  0
BLOCK_RECORD
  5
50C9
330
4DA8
100
AcDbSymbolTableRecord
100
AcDbBlockTableRecord
  2
*D90
  0
BLOCK_RECORD
  5
50D0
330
4DA8
100
AcDbSymbolTableRecord
100
AcDbBlockTableRecord
  2
*U91
  0
BLOCK_RECORD
  5
50D6
330
4DA8
100
AcDbSymbolTableRecord
100
AcDbBlockTableRecord
  2
*D92
  0
BLOCK_RECORD
  5
50DD
330
4DA8
100
AcDbSymbolTableRecord
100
AcDbBlockTableRecord
  2
*U93
  0
BLOCK_RECORD
  5
50E3
330
4DA8
100
AcDbSymbolTableRecord
100
AcDbBlockTableRecord
  2
*D94
  0
BLOCK_RECORD
  5
50EA
330
4DA8
100
AcDbSymbolTableRecord
100
AcDbBlockTableRecord
  2
*U95
  0
BLOCK_RECORD
  5
50F2
330
4DA8
100
AcDbSymbolTableRecord
100
AcDbBlockTableRecord
  2
*D96
  0
BLOCK_RECORD
  5
50F6
330
4DA8
100
AcDbSymbolTableRecord
100
AcDbBlockTableRecord
  2
*U97
  0
BLOCK_RECORD
  5
50FB
330
4DA8
100
AcDbSymbolTableRecord
100
AcDbBlockTableRecord
  2
*D98
  0
BLOCK_RECORD
  5
5103
330
4DA8
100
AcDbSymbolTableRecord
100
AcDbBlockTableRecord
  2
*U99
  0
BLOCK_RECORD
  5
514C
330
4DA8
100
AcDbSymbolTableRecord
100
AcDbBlockTableRecord
  2
*U100
  0
BLOCK_RECORD
  5
5150
330
4DA8
100
AcDbSymbolTableRecord
100
AcDbBlockTableRecord
  2
*U101
  0
BLOCK_RECORD
  5
5154
330
4DA8
100
AcDbSymbolTableRecord
100
AcDbBlockTableRecord
  2
*U102
  0
BLOCK_RECORD
  5
5158
330
4DA8
100
AcDbSymbolTableRecord
100
AcDbBlockTableRecord
  2
*U103
  0
BLOCK_RECORD
  5
515C
330
4DA8
100
AcDbSymbolTableRecord
100
AcDbBlockTableRecord
  2
*U104
  0
BLOCK_RECORD
  5
5162
330
4DA8
100
AcDbSymbolTableRecord
100
AcDbBlockTableRecord
  2
*U105
  0
BLOCK_RECORD
  5
5166
330
4DA8
100
AcDbSymbolTableRecord
100
AcDbBlockTableRecord
  2
*U106
  0
BLOCK_RECORD
  5
516A
330
4DA8
100
AcDbSymbolTableRecord
100
AcDbBlockTableRecord
  2
*U107
  0
BLOCK_RECORD
  5
516E
330
4DA8
100
AcDbSymbolTableRecord
100
AcDbBlockTableRecord
  2
*U108
  0
BLOCK_RECORD
  5
5172
330
4DA8
100
AcDbSymbolTableRecord
100
AcDbBlockTableRecord
  2
*U109
  0
BLOCK_RECORD
  5
5176
330
4DA8
100
AcDbSymbolTableRecord
100
AcDbBlockTableRecord
  2
*U110
  0
BLOCK_RECORD
  5
517A
330
4DA8
100
AcDbSymbolTableRecord
100
AcDbBlockTableRecord
  2
*U111
  0
BLOCK_RECORD
  5
517E
330
4DA8
100
AcDbSymbolTableRecord
100
AcDbBlockTableRecord
  2
*U112
  0
BLOCK_RECORD
  5
5182
330
4DA8
100
AcDbSymbolTableRecord
100
AcDbBlockTableRecord
  2
*U113
  0
BLOCK_RECORD
  5
5186
330
4DA8
100
AcDbSymbolTableRecord
100
AcDbBlockTableRecord
  2
*U114
  0
BLOCK_RECORD
  5
518A
330
4DA8
100
AcDbSymbolTableRecord
100
AcDbBlockTableRecord
  2
*U115
  0
BLOCK_RECORD
  5
518E
330
4DA8
100
AcDbSymbolTableRecord
100
AcDbBlockTableRecord
  2
*U116
  0
BLOCK_RECORD
  5
5192
330
4DA8
100
AcDbSymbolTableRecord
100
AcDbBlockTableRecord
  2
*U117
  0
BLOCK_RECORD
  5
5196
330
4DA8
100
AcDbSymbolTableRecord
100
AcDbBlockTableRecord
  2
*U118
  0
BLOCK_RECORD
  5
519A
330
4DA8
100
AcDbSymbolTableRecord
100
AcDbBlockTableRecord
  2
*U119
  0
BLOCK_RECORD
  5
519E
330
4DA8
100
AcDbSymbolTableRecord
100
AcDbBlockTableRecord
  2
*U120
  0
BLOCK_RECORD
  5
51A2
330
4DA8
100
AcDbSymbolTableRecord
100
AcDbBlockTableRecord
  2
*U121
  0
BLOCK_RECORD
  5
51A6
330
4DA8
100
AcDbSymbolTableRecord
100
AcDbBlockTableRecord
  2
*U122
  0
BLOCK_RECORD
  5
51AA
330
4DA8
100
AcDbSymbolTableRecord
100
AcDbBlockTableRecord
  2
*U123
  0
BLOCK_RECORD
  5
51AE
330
4DA8
100
AcDbSymbolTableRecord
100
AcDbBlockTableRecord
  2
*U124
  0
BLOCK_RECORD
  5
51B2
330
4DA8
100
AcDbSymbolTableRecord
100
AcDbBlockTableRecord
  2
*U125
  0
BLOCK_RECORD
  5
51B6
330
4DA8
100
AcDbSymbolTableRecord
100
AcDbBlockTableRecord
  2
*U126
  0
BLOCK_RECORD
  5
51BA
330
4DA8
100
AcDbSymbolTableRecord
100
AcDbBlockTableRecord
  2
*U127
  0
BLOCK_RECORD
  5
51BE
330
4DA8
100
AcDbSymbolTableRecord
100
AcDbBlockTableRecord
  2
*U128
  0
BLOCK_RECORD
  5
51C2
330
4DA8
100
AcDbSymbolTableRecord
100
AcDbBlockTableRecord
  2
*U129
  0
BLOCK_RECORD
  5
51C6
330
4DA8
100
AcDbSymbolTableRecord
100
AcDbBlockTableRecord
  2
*U130
  0
BLOCK_RECORD
  5
51CA
330
4DA8
100
AcDbSymbolTableRecord
100
AcDbBlockTableRecord
  2
*U131
  0
BLOCK_RECORD
  5
51CE
330
4DA8
100
AcDbSymbolTableRecord
100
AcDbBlockTableRecord
  2
*U132
  0
BLOCK_RECORD
  5
51D2
330
4DA8
100
AcDbSymbolTableRecord
100
AcDbBlockTableRecord
  2
*U133
  0
BLOCK_RECORD
  5
51D6
330
4DA8
100
AcDbSymbolTableRecord
100
AcDbBlockTableRecord
  2
*U134
  0
BLOCK_RECORD
  5
51DA
330
4DA8
100
AcDbSymbolTableRecord
100
AcDbBlockTableRecord
  2
*U135
  0
BLOCK_RECORD
  5
51DE
330
4DA8
100
AcDbSymbolTableRecord
100
AcDbBlockTableRecord
  2
*U136
  0
BLOCK_RECORD
  5
51E2
330
4DA8
100
AcDbSymbolTableRecord
100
AcDbBlockTableRecord
  2
*U137
  0
BLOCK_RECORD
  5
51E6
330
4DA8
100
AcDbSymbolTableRecord
100
AcDbBlockTableRecord
  2
*U138
  0
BLOCK_RECORD
  5
51EA
330
4DA8
100
AcDbSymbolTableRecord
100
AcDbBlockTableRecord
  2
*U139
  0
BLOCK_RECORD
  5
51EE
330
4DA8
100
AcDbSymbolTableRecord
100
AcDbBlockTableRecord
  2
*U140
  0
BLOCK_RECORD
  5
51F2
330
4DA8
100
AcDbSymbolTableRecord
100
AcDbBlockTableRecord
  2
*U141
  0
BLOCK_RECORD
  5
51F6
330
4DA8
100
AcDbSymbolTableRecord
100
AcDbBlockTableRecord
  2
*U142
  0
BLOCK_RECORD
  5
51FA
330
4DA8
100
AcDbSymbolTableRecord
100
AcDbBlockTableRecord
  2
*U143
  0
BLOCK_RECORD
  5
51FE
330
4DA8
100
AcDbSymbolTableRecord
100
AcDbBlockTableRecord
  2
*U144
  0
BLOCK_RECORD
  5
5202
330
4DA8
100
AcDbSymbolTableRecord
100
AcDbBlockTableRecord
  2
*U145
  0
BLOCK_RECORD
  5
5206
330
4DA8
100
AcDbSymbolTableRecord
100
AcDbBlockTableRecord
  2
*U146
  0
BLOCK_RECORD
  5
520A
330
4DA8
100
AcDbSymbolTableRecord
100
AcDbBlockTableRecord
  2
*U147
  0
BLOCK_RECORD
  5
520E
330
4DA8
100
AcDbSymbolTableRecord
100
AcDbBlockTableRecord
  2
*U148
  0
BLOCK_RECORD
  5
5214
330
4DA8
100
AcDbSymbolTableRecord
100
AcDbBlockTableRecord
  2
*U149
  0
BLOCK_RECORD
  5
5218
330
4DA8
100
AcDbSymbolTableRecord
100
AcDbBlockTableRecord
  2
*U150
  0
BLOCK_RECORD
  5
521C
330
4DA8
100
AcDbSymbolTableRecord
100
AcDbBlockTableRecord
  2
*U151
  0
BLOCK_RECORD
  5
5220
330
4DA8
100
AcDbSymbolTableRecord
100
AcDbBlockTableRecord
  2
*U152
  0
BLOCK_RECORD
  5
5226
330
4DA8
100
AcDbSymbolTableRecord
100
AcDbBlockTableRecord
  2
*U153
  0
BLOCK_RECORD
  5
522A
330
4DA8
100
AcDbSymbolTableRecord
100
AcDbBlockTableRecord
  2
*U154
  0
BLOCK_RECORD
  5
522E
330
4DA8
100
AcDbSymbolTableRecord
100
AcDbBlockTableRecord
  2
*U155
  0
BLOCK_RECORD
  5
5232
330
4DA8
100
AcDbSymbolTableRecord
100
AcDbBlockTableRecord
  2
*U156
  0
BLOCK_RECORD
  5
5236
330
4DA8
100
AcDbSymbolTableRecord
100
AcDbBlockTableRecord
  2
*U157
  0
BLOCK_RECORD
  5
523A
330
4DA8
100
AcDbSymbolTableRecord
100
AcDbBlockTableRecord
  2
*U158
  0
BLOCK_RECORD
  5
523E
330
4DA8
100
AcDbSymbolTableRecord
100
AcDbBlockTableRecord
  2
*U159
  0
BLOCK_RECORD
  5
5242
330
4DA8
100
AcDbSymbolTableRecord
100
AcDbBlockTableRecord
  2
*U160
  0
BLOCK_RECORD
  5
5246
330
4DA8
100
AcDbSymbolTableRecord
100
AcDbBlockTableRecord
  2
*U161
  0
BLOCK_RECORD
  5
524A
330
4DA8
100
AcDbSymbolTableRecord
100
AcDbBlockTableRecord
  2
*U162
  0
BLOCK_RECORD
  5
524E
330
4DA8
100
AcDbSymbolTableRecord
100
AcDbBlockTableRecord
  2
*U163
  0
BLOCK_RECORD
  5
5252
330
4DA8
100
AcDbSymbolTableRecord
100
AcDbBlockTableRecord
  2
*U164
  0
BLOCK_RECORD
  5
5256
330
4DA8
100
AcDbSymbolTableRecord
100
AcDbBlockTableRecord
  2
*U165
  0
BLOCK_RECORD
  5
525A
330
4DA8
100
AcDbSymbolTableRecord
100
AcDbBlockTableRecord
  2
*U166
  0
BLOCK_RECORD
  5
525E
330
4DA8
100
AcDbSymbolTableRecord
100
AcDbBlockTableRecord
  2
*U167
  0
BLOCK_RECORD
  5
5262
330
4DA8
100
AcDbSymbolTableRecord
100
AcDbBlockTableRecord
  2
*U168
  0
BLOCK_RECORD
  5
5266
330
4DA8
100
AcDbSymbolTableRecord
100
AcDbBlockTableRecord
  2
*U169
  0
BLOCK_RECORD
  5
526A
330
4DA8
100
AcDbSymbolTableRecord
100
AcDbBlockTableRecord
  2
*U170
  0
BLOCK_RECORD
  5
526E
330
4DA8
100
AcDbSymbolTableRecord
100
AcDbBlockTableRecord
  2
*U171
  0
BLOCK_RECORD
  5
5272
330
4DA8
100
AcDbSymbolTableRecord
100
AcDbBlockTableRecord
  2
*U172
  0
BLOCK_RECORD
  5
5276
330
4DA8
100
AcDbSymbolTableRecord
100
AcDbBlockTableRecord
  2
*U173
  0
BLOCK_RECORD
  5
527A
330
4DA8
100
AcDbSymbolTableRecord
100
AcDbBlockTableRecord
  2
*U174
  0
BLOCK_RECORD
  5
527E
330
4DA8
100
AcDbSymbolTableRecord
100
AcDbBlockTableRecord
  2
*U175
  0
BLOCK_RECORD
  5
5282
330
4DA8
100
AcDbSymbolTableRecord
100
AcDbBlockTableRecord
  2
*U176
  0
BLOCK_RECORD
  5
5286
330
4DA8
100
AcDbSymbolTableRecord
100
AcDbBlockTableRecord
  2
*U177
  0
BLOCK_RECORD
  5
528A
330
4DA8
100
AcDbSymbolTableRecord
100
AcDbBlockTableRecord
  2
*U178
  0
BLOCK_RECORD
  5
528E
330
4DA8
100
AcDbSymbolTableRecord
100
AcDbBlockTableRecord
  2
*U179
  0
BLOCK_RECORD
  5
5292
330
4DA8
100
AcDbSymbolTableRecord
100
AcDbBlockTableRecord
  2
*U180
  0
BLOCK_RECORD
  5
5296
330
4DA8
100
AcDbSymbolTableRecord
100
AcDbBlockTableRecord
  2
*U181
  0
BLOCK_RECORD
  5
529A
330
4DA8
100
AcDbSymbolTableRecord
100
AcDbBlockTableRecord
  2
*U182
  0
BLOCK_RECORD
  5
529E
330
4DA8
100
AcDbSymbolTableRecord
100
AcDbBlockTableRecord
  2
*U183
  0
BLOCK_RECORD
  5
52A2
330
4DA8
100
AcDbSymbolTableRecord
100
AcDbBlockTableRecord
  2
*U184
  0
BLOCK_RECORD
  5
52A6
330
4DA8
100
AcDbSymbolTableRecord
100
AcDbBlockTableRecord
  2
*U185
  0
BLOCK_RECORD
  5
52AA
330
4DA8
100
AcDbSymbolTableRecord
100
AcDbBlockTableRecord
  2
*U186
  0
BLOCK_RECORD
  5
52AE
330
4DA8
100
AcDbSymbolTableRecord
100
AcDbBlockTableRecord
  2
*U187
  0
BLOCK_RECORD
  5
52B2
330
4DA8
100
AcDbSymbolTableRecord
100
AcDbBlockTableRecord
  2
*U188
  0
BLOCK_RECORD
  5
52B6
330
4DA8
100
AcDbSymbolTableRecord
100
AcDbBlockTableRecord
  2
*U189
  0
BLOCK_RECORD
  5
52BA
330
4DA8
100
AcDbSymbolTableRecord
100
AcDbBlockTableRecord
  2
*U190
  0
BLOCK_RECORD
  5
52BE
330
4DA8
100
AcDbSymbolTableRecord
100
AcDbBlockTableRecord
  2
*U191
  0
BLOCK_RECORD
  5
52C2
330
4DA8
100
AcDbSymbolTableRecord
100
AcDbBlockTableRecord
  2
*U192
  0
BLOCK_RECORD
  5
52C6
330
4DA8
100
AcDbSymbolTableRecord
100
AcDbBlockTableRecord
  2
*U193
  0
BLOCK_RECORD
  5
52CA
330
4DA8
100
AcDbSymbolTableRecord
100
AcDbBlockTableRecord
  2
*U194
  0
BLOCK_RECORD
  5
52CE
330
4DA8
100
AcDbSymbolTableRecord
100
AcDbBlockTableRecord
  2
*U195
  0
BLOCK_RECORD
  5
52D2
330
4DA8
100
AcDbSymbolTableRecord
100
AcDbBlockTableRecord
  2
*U196
  0
BLOCK_RECORD
  5
52D6
330
4DA8
100
AcDbSymbolTableRecord
100
AcDbBlockTableRecord
  2
*U197
  0
BLOCK_RECORD
  5
52DA
330
4DA8
100
AcDbSymbolTableRecord
100
AcDbBlockTableRecord
  2
*U198
  0
BLOCK_RECORD
  5
52DE
330
4DA8
100
AcDbSymbolTableRecord
100
AcDbBlockTableRecord
  2
*U199
  0
BLOCK_RECORD
  5
52E4
330
4DA8
100
AcDbSymbolTableRecord
100
AcDbBlockTableRecord
  2
*U200
  0
BLOCK_RECORD
  5
52E8
330
4DA8
100
AcDbSymbolTableRecord
100
AcDbBlockTableRecord
  2
*U201
  0
BLOCK_RECORD
  5
52EC
330
4DA8
100
AcDbSymbolTableRecord
100
AcDbBlockTableRecord
  2
*U202
  0
BLOCK_RECORD
  5
52F2
330
4DA8
100
AcDbSymbolTableRecord
100
AcDbBlockTableRecord
  2
*U203
  0
BLOCK_RECORD
  5
52F6
330
4DA8
100
AcDbSymbolTableRecord
100
AcDbBlockTableRecord
  2
*U204
  0
BLOCK_RECORD
  5
52FA
330
4DA8
100
AcDbSymbolTableRecord
100
AcDbBlockTableRecord
  2
*U205
  0
BLOCK_RECORD
  5
52FE
330
4DA8
100
AcDbSymbolTableRecord
100
AcDbBlockTableRecord
  2
*U206
  0
BLOCK_RECORD
  5
5302
330
4DA8
100
AcDbSymbolTableRecord
100
AcDbBlockTableRecord
  2
*U207
  0
BLOCK_RECORD
  5
5306
330
4DA8
100
AcDbSymbolTableRecord
100
AcDbBlockTableRecord
  2
*U208
  0
BLOCK_RECORD
  5
530A
330
4DA8
100
AcDbSymbolTableRecord
100
AcDbBlockTableRecord
  2
*U209
  0
BLOCK_RECORD
  5
530E
330
4DA8
100
AcDbSymbolTableRecord
100
AcDbBlockTableRecord
  2
*U210
  0
BLOCK_RECORD
  5
5312
330
4DA8
100
AcDbSymbolTableRecord
100
AcDbBlockTableRecord
  2
*U211
  0
BLOCK_RECORD
  5
5316
330
4DA8
100
AcDbSymbolTableRecord
100
AcDbBlockTableRecord
  2
*U212
  0
BLOCK_RECORD
  5
531A
330
4DA8
100
AcDbSymbolTableRecord
100
AcDbBlockTableRecord
  2
*U213
  0
BLOCK_RECORD
  5
531E
330
4DA8
100
AcDbSymbolTableRecord
100
AcDbBlockTableRecord
  2
*U214
  0
BLOCK_RECORD
  5
5322
330
4DA8
100
AcDbSymbolTableRecord
100
AcDbBlockTableRecord
  2
*U215
  0
BLOCK_RECORD
  5
5326
330
4DA8
100
AcDbSymbolTableRecord
100
AcDbBlockTableRecord
  2
*U216
  0
BLOCK_RECORD
  5
532A
330
4DA8
100
AcDbSymbolTableRecord
100
AcDbBlockTableRecord
  2
*U217
  0
BLOCK_RECORD
  5
532E
330
4DA8
100
AcDbSymbolTableRecord
100
AcDbBlockTableRecord
  2
*U218
  0
BLOCK_RECORD
  5
5332
330
4DA8
100
AcDbSymbolTableRecord
100
AcDbBlockTableRecord
  2
*U219
  0
BLOCK_RECORD
  5
5336
330
4DA8
100
AcDbSymbolTableRecord
100
AcDbBlockTableRecord
  2
*U220
  0
BLOCK_RECORD
  5
533A
330
4DA8
100
AcDbSymbolTableRecord
100
AcDbBlockTableRecord
  2
*U221
  0
BLOCK_RECORD
  5
533E
330
4DA8
100
AcDbSymbolTableRecord
100
AcDbBlockTableRecord
  2
*U222
  0
BLOCK_RECORD
  5
5342
330
4DA8
100
AcDbSymbolTableRecord
100
AcDbBlockTableRecord
  2
*U223
  0
BLOCK_RECORD
  5
5346
330
4DA8
100
AcDbSymbolTableRecord
100
AcDbBlockTableRecord
  2
*U224
  0
BLOCK_RECORD
  5
534A
330
4DA8
100
AcDbSymbolTableRecord
100
AcDbBlockTableRecord
  2
*U225
  0
BLOCK_RECORD
  5
534E
330
4DA8
100
AcDbSymbolTableRecord
100
AcDbBlockTableRecord
  2
*U226
  0
BLOCK_RECORD
  5
5352
330
4DA8
100
AcDbSymbolTableRecord
100
AcDbBlockTableRecord
  2
*U227
  0
BLOCK_RECORD
  5
5356
330
4DA8
100
AcDbSymbolTableRecord
100
AcDbBlockTableRecord
  2
*U228
  0
BLOCK_RECORD
  5
535A
330
4DA8
100
AcDbSymbolTableRecord
100
AcDbBlockTableRecord
  2
*U229
  0
BLOCK_RECORD
  5
535E
330
4DA8
100
AcDbSymbolTableRecord
100
AcDbBlockTableRecord
  2
*U230
  0
BLOCK_RECORD
  5
5362
330
4DA8
100
AcDbSymbolTableRecord
100
AcDbBlockTableRecord
  2
*U231
  0
BLOCK_RECORD
  5
5393
330
4DA8
100
AcDbSymbolTableRecord
100
AcDbBlockTableRecord
  2
*U232
  0
BLOCK_RECORD
  5
5397
330
4DA8
100
AcDbSymbolTableRecord
100
AcDbBlockTableRecord
  2
*U233
  0
BLOCK_RECORD
  5
539D
330
4DA8
100
AcDbSymbolTableRecord
100
AcDbBlockTableRecord
  2
*U234
  0
BLOCK_RECORD
  5
53C7
330
4DA8
100
AcDbSymbolTableRecord
100
AcDbBlockTableRecord
  2
*U235
  0
BLOCK_RECORD
  5
53D1
330
4DA8
100
AcDbSymbolTableRecord
100
AcDbBlockTableRecord
  2
*U236
  0
BLOCK_RECORD
  5
5459
330
4DA8
100
AcDbSymbolTableRecord
100
AcDbBlockTableRecord
  2
*D237
  0
BLOCK_RECORD
  5
5464
330
4DA8
100
AcDbSymbolTableRecord
100
AcDbBlockTableRecord
  2
*D238
  0
BLOCK_RECORD
  5
5473
330
4DA8
100
AcDbSymbolTableRecord
100
AcDbBlockTableRecord
  2
*D239
  0
ENDTAB
  0
ENDSEC
  0
SECTION
  2
BLOCKS
  0
BLOCK
  5
4DC6
330
4DC5
100
AcDbEntity
  8
0
100
AcDbBlockBegin
  2
*MODEL_SPACE
 70
     0
 10
0.0
 20
0.0
 30
0.0
  3
*MODEL_SPACE
  1

  0
ENDBLK
  5
4DC7
330
4DC5
100
AcDbEntity
  8
0
100
AcDbBlockEnd
  0
BLOCK
  5
4DC2
330
4DC1
100
AcDbEntity
 67
     1
  8
0
100
AcDbBlockBegin
  2
*PAPER_SPACE
 70
     0
 10
0.0
 20
0.0
 30
0.0
  3
*PAPER_SPACE
  1

  0
ENDBLK
  5
4DC3
330
4DC1
100
AcDbEntity
 67
     1
  8
0
100
AcDbBlockEnd
  0
BLOCK
  5
4DF4
330
4DF3
100
AcDbEntity
  8
0
100
AcDbBlockBegin
  2
$MODEL_SPACE
 70
     0
 10
0.0
 20
0.0
 30
0.0
  3
$MODEL_SPACE
  1

  0
ENDBLK
  5
4DF5
330
4DF3
100
AcDbEntity
  8
0
100
AcDbBlockEnd
  0
BLOCK
  5
4DF7
330
4DF6
100
AcDbEntity
  8
0
100
AcDbBlockBegin
  2
$PAPER_SPACE
 70
     0
 10
0.0
 20
0.0
 30
0.0
  3
$PAPER_SPACE
  1

  0
ENDBLK
  5
4DF8
330
4DF6
100
AcDbEntity
  8
0
100
AcDbBlockEnd
  0
BLOCK
  5
4DFA
330
4DF9
100
AcDbEntity
  8
0
100
AcDbBlockBegin
  2
_OPEN30
 70
     0
 10
0.0
 20
0.0
 30
0.0
  3
_OPEN30
  1

  0
LINE
  5
4DFB
330
4DF9
100
AcDbEntity
  8
0
  6
BYBLOCK
 62
     0
100
AcDbLine
 10
-1.0
 20
0.26794919
 30
0.0
 11
0.0
 21
0.0
 31
0.0
  0
LINE
  5
4DFC
330
4DF9
100
AcDbEntity
  8
0
  6
BYBLOCK
 62
     0
100
AcDbLine
 10
0.0
 20
0.0
 30
0.0
 11
-1.0
 21
-0.26794919
 31
0.0
  0
LINE
  5
4DFD
330
4DF9
100
AcDbEntity
  8
0
  6
BYBLOCK
 62
     0
100
AcDbLine
 10
0.0
 20
0.0
 30
0.0
 11
-1.0
 21
0.0
 31
0.0
  0
ENDBLK
  5
4DFE
330
4DF9
100
AcDbEntity
  8
0
100
AcDbBlockEnd
  0
BLOCK
  5
4E00
330
4DFF
100
AcDbEntity
  8
0
100
AcDbBlockBegin
  2
FORMAT
 70
     0
 10
0.0
 20
0.0
 30
0.0
  3
FORMAT
  1

  0
LINE
  5
4E01
330
4DFF
100
AcDbEntity
  8
0
  6
CONTINUOUS
 62
     2
100
AcDbLine
 10
10.00001
 20
200.0000149999999
 30
0.0
 11
287.0
 21
200.0000149999999
 31
0.0
  0
LINE
  5
4E02
330
4DFF
100
AcDbEntity
  8
0
  6
CONTINUOUS
 62
     2
100
AcDbLine
 10
287.0
 20
200.0
 30
0.0
 11
287.0
 21
10.00001
 31
0.0
  0
LINE
  5
4E03
330
4DFF
100
AcDbEntity
  8
0
  6
CONTINUOUS
 62
     2
100
AcDbLine
 10
287.0
 20
10.00001
 30
0.0
 11
10.00001
 21
10.00001
 31
0.0
  0
LINE
  5
4E04
330
4DFF
100
AcDbEntity
  8
0
  6
CONTINUOUS
 62
     2
100
AcDbLine
 10
10.00001
 20
10.00001
 30
0.0
 11
10.00001
 21
200.0000149999999
 31
0.0
  0
LINE
  5
4E05
330
4DFF
100
AcDbEntity
  8
0
  6
CONTINUOUS
 62
     4
100
AcDbLine
 10
237.000015
 20
42.00000099999999
 30
0.0
 11
287.0
 21
42.00000099999999
 31
0.0
  0
LINE
  5
4E06
330
4DFF
100
AcDbEntity
  8
0
  6
CONTINUOUS
 62
     4
100
AcDbLine
 10
10.00001
 20
34.00001
 30
0.0
 11
287.0
 21
34.00001
 31
0.0
  0
LINE
  5
4E07
330
4DFF
100
AcDbEntity
  8
0
  6
CONTINUOUS
 62
     4
100
AcDbLine
 10
18.00000999999999
 20
26.00001
 30
0.0
 11
114.0000079999999
 21
26.00001
 31
0.0
  0
LINE
  5
4E08
330
4DFF
100
AcDbEntity
  8
0
  6
CONTINUOUS
 62
     4
100
AcDbLine
 10
18.00000999999999
 20
18.00000999999999
 30
0.0
 11
114.0000079999999
 21
18.00000999999999
 31
0.0
  0
LINE
  5
4E09
330
4DFF
100
AcDbEntity
  8
0
  6
CONTINUOUS
 62
     4
100
AcDbLine
 10
114.0000079999999
 20
22.0
 30
0.0
 11
237.000015
 21
22.0
 31
0.0
  0
LINE
  5
4E0A
330
4DFF
100
AcDbEntity
  8
0
  6
CONTINUOUS
 62
     4
100
AcDbLine
 10
237.000015
 20
18.0
 30
0.0
 11
287.0
 21
18.0
 31
0.0
  0
LINE
  5
4E0B
330
4DFF
100
AcDbEntity
  8
0
  6
CONTINUOUS
 62
     4
100
AcDbLine
 10
257.000015
 20
26.0
 30
0.0
 11
287.0
 21
26.0
 31
0.0
  0
LINE
  5
4E0C
330
4DFF
100
AcDbEntity
  8
0
  6
CONTINUOUS
 62
     4
100
AcDbLine
 10
18.00000999999999
 20
34.00001
 30
0.0
 11
18.00000999999999
 21
10.00001
 31
0.0
  0
LINE
  5
4E0D
330
4DFF
100
AcDbEntity
  8
0
  6
CONTINUOUS
 62
     4
100
AcDbLine
 10
82.00000799999996
 20
34.0
 30
0.0
 11
82.00000799999996
 21
10.0
 31
0.0
  0
LINE
  5
4E0E
330
4DFF
100
AcDbEntity
  8
0
  6
CONTINUOUS
 62
     4
100
AcDbLine
 10
94.00000799999999
 20
34.0
 30
0.0
 11
94.00000799999999
 21
10.0
 31
0.0
  0
LINE
  5
4E0F
330
4DFF
100
AcDbEntity
  8
0
  6
CONTINUOUS
 62
     4
100
AcDbLine
 10
114.0000079999999
 20
34.0
 30
0.0
 11
114.0000079999999
 21
10.0
 31
0.0
  0
LINE
  5
4E10
330
4DFF
100
AcDbEntity
  8
0
  6
CONTINUOUS
 62
     4
100
AcDbLine
 10
122.0000079999999
 20
34.0
 30
0.0
 11
122.0000079999999
 21
10.0
 31
0.0
  0
LINE
  5
4E11
330
4DFF
100
AcDbEntity
  8
0
  6
CONTINUOUS
 62
     4
100
AcDbLine
 10
137.0000149999999
 20
34.0
 30
0.0
 11
137.0000149999999
 21
10.0
 31
0.0
  0
LINE
  5
4E12
330
4DFF
100
AcDbEntity
  8
0
  6
CONTINUOUS
 62
     4
100
AcDbLine
 10
145.0000149999999
 20
34.0
 30
0.0
 11
145.0000149999999
 21
10.0
 31
0.0
  0
LINE
  5
4E13
330
4DFF
100
AcDbEntity
  8
0
  6
CONTINUOUS
 62
     4
100
AcDbLine
 10
160.0000149999999
 20
34.0
 30
0.0
 11
160.0000149999999
 21
10.0
 31
0.0
  0
LINE
  5
4E14
330
4DFF
100
AcDbEntity
  8
0
  6
CONTINUOUS
 62
     4
100
AcDbLine
 10
172.0000149999999
 20
34.0
 30
0.0
 11
172.0000149999999
 21
10.0
 31
0.0
  0
LINE
  5
4E15
330
4DFF
100
AcDbEntity
  8
0
  6
CONTINUOUS
 62
     4
100
AcDbLine
 10
237.000015
 20
42.00000099999999
 30
0.0
 11
237.000015
 21
10.0
 31
0.0
  0
LINE
  5
4E16
330
4DFF
100
AcDbEntity
  8
0
  6
CONTINUOUS
 62
     4
100
AcDbLine
 10
245.000015
 20
34.0
 30
0.0
 11
245.000015
 21
18.0
 31
0.0
  0
LINE
  5
4E17
330
4DFF
100
AcDbEntity
  8
0
  6
CONTINUOUS
 62
     4
100
AcDbLine
 10
247.000015
 20
42.00000099999999
 30
0.0
 11
247.000015
 21
34.0
 31
0.0
  0
LINE
  5
4E18
330
4DFF
100
AcDbEntity
  8
0
  6
CONTINUOUS
 62
     4
100
AcDbLine
 10
257.000015
 20
34.0
 30
0.0
 11
257.000015
 21
18.0
 31
0.0
  0
TEXT
  5
4E19
330
4DFF
100
AcDbEntity
  8
0
 62
     4
100
AcDbText
 10
12.50001
 20
24.50001
 30
0.0
 40
3.0
  1
摘
  7
KANJI1
100
AcDbText
  0
TEXT
  5
4E1A
330
4DFF
100
AcDbEntity
  8
0
 62
     4
100
AcDbText
 10
12.50001
 20
16.50001
 30
0.0
 40
3.0
  1
要
  7
KANJI1
100
AcDbText
  0
TEXT
  5
4E1B
330
4DFF
100
AcDbEntity
  8
0
 62
     4
100
AcDbText
 10
83.50000799999998
 20
28.5
 30
0.0
 40
3.0
  1
材
  7
KANJI1
100
AcDbText
  0
TEXT
  5
4E1C
330
4DFF
100
AcDbEntity
  8
0
 62
     4
100
AcDbText
 10
89.50000799999996
 20
28.5
 30
0.0
 40
3.0
  1
質
  7
KANJI1
100
AcDbText
  0
TEXT
  5
4E1D
330
4DFF
100
AcDbEntity
  8
0
 62
     4
100
AcDbText
 10
83.50000799999998
 20
20.5
 30
0.0
 40
3.0
  1
硬
  7
KANJI1
100
AcDbText
  0
TEXT
  5
4E1E
330
4DFF
100
AcDbEntity
  8
0
 62
     4
100
AcDbText
 10
89.50000799999996
 20
20.5
 30
0.0
 40
3.0
  1
度
  7
KANJI1
100
AcDbText
  0
TEXT
  5
4E1F
330
4DFF
100
AcDbEntity
  8
0
 62
     4
100
AcDbText
 10
83.50000799999998
 20
12.5
 30
0.0
 40
3.0
  1
個
  7
KANJI1
100
AcDbText
  0
TEXT
  5
4E20
330
4DFF
100
AcDbEntity
  8
0
 62
     4
100
AcDbText
 10
89.50000799999996
 20
12.5
 30
0.0
 40
3.0
  1
数
  7
KANJI1
100
AcDbText
  0
TEXT
  5
4E21
330
4DFF
100
AcDbEntity
  8
0
 62
     4
100
AcDbText
 10
116.5000079999999
 20
28.5
 30
0.0
 40
3.0
  1
設
  7
KANJI1
100
AcDbText
  0
TEXT
  5
4E22
330
4DFF
100
AcDbEntity
  8
0
 62
     4
100
AcDbText
 10
116.5000079999999
 20
24.5
 30
0.0
 40
3.0
  1
計
  7
KANJI1
100
AcDbText
  0
TEXT
  5
4E23
330
4DFF
100
AcDbEntity
  8
0
 62
     4
100
AcDbText
 10
116.5000079999999
 20
16.5
 30
0.0
 40
3.0
  1
検
  7
KANJI1
100
AcDbText
  0
TEXT
  5
4E24
330
4DFF
100
AcDbEntity
  8
0
 62
     4
100
AcDbText
 10
116.5000079999999
 20
12.5
 30
0.0
 40
3.0
  1
図
  7
KANJI1
100
AcDbText
  0
TEXT
  5
4E25
330
4DFF
100
AcDbEntity
  8
0
 62
     4
100
AcDbText
 10
139.5000149999999
 20
28.5
 30
0.0
 40
3.0
  1
製
  7
KANJI1
100
AcDbText
  0
TEXT
  5
4E26
330
4DFF
100
AcDbEntity
  8
0
 62
     4
100
AcDbText
 10
139.5000149999999
 20
24.5
 30
0.0
 40
3.0
  1
図
  7
KANJI1
100
AcDbText
  0
TEXT
  5
4E27
330
4DFF
100
AcDbEntity
  8
0
 62
     4
100
AcDbText
 10
139.5000149999999
 20
16.5
 30
0.0
 40
3.0
  1
承
  7
KANJI1
100
AcDbText
  0
TEXT
  5
4E28
330
4DFF
100
AcDbEntity
  8
0
 62
     4
100
AcDbText
 10
139.5000149999999
 20
12.5
 30
0.0
 40
3.0
  1
認
  7
KANJI1
100
AcDbText
  0
TEXT
  5
4E29
330
4DFF
100
AcDbEntity
  8
0
 62
     4
100
AcDbText
 10
164.011765
 20
28.5
 30
0.0
 40
3.0
  1
機
  7
KANJI1
100
AcDbText
  0
TEXT
  5
4E2A
330
4DFF
100
AcDbEntity
  8
0
 62
     4
100
AcDbText
 10
164.011765
 20
24.5
 30
0.0
 40
3.0
  1
種
  7
KANJI1
100
AcDbText
  0
TEXT
  5
4E2B
330
4DFF
100
AcDbEntity
  8
0
 62
     4
100
AcDbText
 10
164.011765
 20
16.5
 30
0.0
 40
3.0
  1
品
  7
KANJI1
100
AcDbText
  0
TEXT
  5
4E2C
330
4DFF
100
AcDbEntity
  8
0
 62
     4
100
AcDbText
 10
164.011765
 20
12.5
 30
0.0
 40
3.0
  1
名
  7
KANJI1
100
AcDbText
  0
TEXT
  5
4E2D
330
4DFF
100
AcDbEntity
  8
0
 62
     4
100
AcDbText
 10
238.0
 20
12.5
 30
0.0
 40
3.0
  1
ベツセル技研工業株式会社
 41
1.149999999999999
  7
KANJI1
100
AcDbText
  0
TEXT
  5
4E2E
330
4DFF
100
AcDbEntity
  8
0
 62
     4
100
AcDbText
 10
238.5000149999999
 20
36.50000099999999
 30
0.0
 40
3.0
  1
図
  7
KANJI1
100
AcDbText
  0
TEXT
  5
4E2F
330
4DFF
100
AcDbEntity
  8
0
 62
     4
100
AcDbText
 10
242.5000149999999
 20
36.50000099999999
 30
0.0
 40
3.0
  1
番
  7
KANJI1
100
AcDbText
  0
TEXT
  5
4E30
330
4DFF
100
AcDbEntity
  8
0
 62
     4
100
AcDbText
 10
239.011765
 20
28.5
 30
0.0
 40
3.0
  1
尺
  7
KANJI1
100
AcDbText
  0
TEXT
  5
4E31
330
4DFF
100
AcDbEntity
  8
0
 62
     4
100
AcDbText
 10
239.011765
 20
20.5
 30
0.0
 40
3.0
  1
度
  7
KANJI1
100
AcDbText
  0
TEXT
  5
4E32
330
4DFF
100
AcDbEntity
  8
0
 62
     4
100
AcDbText
 10
249.0
 20
23.5
 30
0.0
 40
5.0
  1
／
  7
KANJI1
100
AcDbText
  0
TEXT
  5
4E33
330
4DFF
100
AcDbEntity
  8
0
 62
     4
100
AcDbText
 10
263.5
 20
27.5
 30
0.0
 40
5.0
  1
３角法
  7
KANJI1
100
AcDbText
  0
TEXT
  5
4E34
330
4DFF
100
AcDbEntity
  8
0
 62
     4
100
AcDbText
 10
251.0
 20
19.99999
 30
0.0
 40
4.0
  1
１
  7
KANJI1
100
AcDbText
  0
TEXT
  5
4E35
330
4DFF
100
AcDbEntity
  8
0
  6
CONTINUOUS
 62
     4
100
AcDbText
 10
247.0
 20
28.0
 30
0.0
 40
4.0
  1
５
  7
KANJI
100
AcDbText
  0
TEXT
  5
4E36
330
4DFF
100
AcDbEntity
  8
0
  6
CONTINUOUS
 62
     4
100
AcDbText
 10
248.0
 20
36.0
 30
0.0
 40
4.0
  1
０６４１３－０２２
 41
0.9
  7
KANJI
100
AcDbText
  0
TEXT
  5
4E37
330
4DFF
100
AcDbEntity
  8
0
  6
CONTINUOUS
 62
     4
100
AcDbText
 10
258.0
 20
20.5
 30
0.0
 40
3.0
  1
”００／０７／０１
 41
0.9
  7
KANJI
100
AcDbText
  0
ENDBLK
  5
4E38
330
4DFF
100
AcDbEntity
  8
0
100
AcDbBlockEnd
  0
BLOCK
  5
4E3A
330
4E39
100
AcDbEntity
  8
0
100
AcDbBlockBegin
  2
*D4
 70
     1
 10
0.0
 20
0.0
 30
0.0
  3
*D4
  1

  0
LINE
  5
4E3B
330
4E39
100
AcDbEntity
  8
DIMENSION
 62
     3
100
AcDbLine
 10
97.20577136594005
 20
118.287643318496
 30
0.0
 11
87.73830926906766
 21
101.8895179479806
 31
0.0
  0
LINE
  5
4E3C
330
4E39
100
AcDbEntity
  8
DIMENSION
 62
     3
100
AcDbLine
 10
112.7942286340599
 20
109.287643318496
 30
0.0
 11
103.3267665371874
 21
92.88951794798055
 31
0.0
  0
LINE
  5
4E3D
330
4E39
100
AcDbEntity
  8
DIMENSION
 62
     3
100
AcDbLine
 10
89.35433467285205
 20
102.6885560536572
 30
0.0
 11
103.2107411334029
 21
94.68855605365723
 31
0.0
  0
INSERT
  5
4E3E
330
4E39
100
AcDbEntity
  8
DIMENSION
 62
     3
100
AcDbBlockReference
  2
_OPEN30
 10
88.48830926906765
 20
103.1885560536572
 30
0.0
 50
149.9999999999998
  0
INSERT
  5
4E3F
330
4E39
100
AcDbEntity
  8
DIMENSION
 62
     3
100
AcDbBlockReference
  2
_OPEN30
 10
104.0767665371874
 20
94.1885560536572
 30
0.0
 50
329.9999999999997
  0
INSERT
  5
4E41
330
4E39
100
AcDbEntity
  8
0
100
AcDbBlockReference
  2
*U5
 10
0.0
 20
0.0
 30
0.0
  0
POINT
  5
4E42
330
4E39
100
AcDbEntity
  8
DEFPOINTS
 62
     0
100
AcDbPoint
 10
97.20577136594005
 20
118.287643318496
 30
0.0
  0
POINT
  5
4E43
330
4E39
100
AcDbEntity
  8
DEFPOINTS
 62
     0
100
AcDbPoint
 10
112.7942286340599
 20
109.287643318496
 30
0.0
  0
POINT
  5
4E44
330
4E39
100
AcDbEntity
  8
DEFPOINTS
 62
     0
100
AcDbPoint
 10
104.0767665371874
 20
94.1885560536572
 30
0.0
  0
ENDBLK
  5
4E45
330
4E39
100
AcDbEntity
  8
0
100
AcDbBlockEnd
  0
BLOCK
  5
510D
330
4E40
100
AcDbEntity
  8
0
100
AcDbBlockBegin
  2
*U5
 70
     1
 10
0.0
 20
0.0
 30
0.0
  3
*U5
  1

  0
TEXT
  5
510E
330
4E40
100
AcDbEntity
  8
DIMENSION
 62
     3
100
AcDbText
 10
94.83769019696557
 20
100.3814378894664
 30
0.0
 40
1.5
  1
φ18
 50
329.9999999999997
  7
GOTHIC
100
AcDbText
  0
ENDBLK
  5
510F
330
4E40
100
AcDbEntity
  8
0
100
AcDbBlockEnd
  0
BLOCK
  5
4E47
330
4E46
100
AcDbEntity
  8
0
100
AcDbBlockBegin
  2
*D6
 70
     1
 10
0.0
 20
0.0
 30
0.0
  3
*D6
  1

  0
LINE
  5
4E48
330
4E46
100
AcDbEntity
  8
DIMENSION
 62
     3
100
AcDbLine
 10
81.0
 20
114.787643318496
 30
0.0
 11
81.0
 21
133.4999999999999
 31
0.0
  0
LINE
  5
4E49
330
4E46
100
AcDbEntity
  8
DIMENSION
 62
     3
100
AcDbLine
 10
140.0
 20
114.787643318496
 30
0.0
 11
140.0
 21
133.4999999999999
 31
0.0
  0
LINE
  5
4E4A
330
4E46
100
AcDbEntity
  8
DIMENSION
 62
     3
100
AcDbLine
 10
82.0
 20
132.0
 30
0.0
 11
139.0
 21
132.0
 31
0.0
  0
INSERT
  5
4E4B
330
4E46
100
AcDbEntity
  8
DIMENSION
 62
     3
100
AcDbBlockReference
  2
_OPEN30
 10
81.0
 20
132.0
 30
0.0
 50
180.0
  0
INSERT
  5
4E4C
330
4E46
100
AcDbEntity
  8
DIMENSION
 62
     3
100
AcDbBlockReference
  2
_OPEN30
 10
140.0
 20
132.0
 30
0.0
  0
INSERT
  5
4E4E
330
4E46
100
AcDbEntity
  8
0
100
AcDbBlockReference
  2
*U7
 10
0.0
 20
0.0
 30
0.0
  0
POINT
  5
4E4F
330
4E46
100
AcDbEntity
  8
DEFPOINTS
 62
     0
100
AcDbPoint
 10
81.0
 20
114.787643318496
 30
0.0
  0
POINT
  5
4E50
330
4E46
100
AcDbEntity
  8
DEFPOINTS
 62
     0
100
AcDbPoint
 10
140.0
 20
114.787643318496
 30
0.0
  0
POINT
  5
4E51
330
4E46
100
AcDbEntity
  8
DEFPOINTS
 62
     0
100
AcDbPoint
 10
140.0
 20
132.0
 30
0.0
  0
ENDBLK
  5
4E52
330
4E46
100
AcDbEntity
  8
0
100
AcDbBlockEnd
  0
BLOCK
  5
5110
330
4E4D
100
AcDbEntity
  8
0
100
AcDbBlockBegin
  2
*U7
 70
     1
 10
0.0
 20
0.0
 30
0.0
  3
*U7
  1

  0
TEXT
  5
5111
330
4E4D
100
AcDbEntity
  8
DIMENSION
 62
     3
100
AcDbText
 10
109.5406091370557
 20
132.4999999999999
 30
0.0
 40
1.5
  1
59
  7
GOTHIC
100
AcDbText
  0
ENDBLK
  5
5112
330
4E4D
100
AcDbEntity
  8
0
100
AcDbBlockEnd
  0
BLOCK
  5
4E54
330
4E53
100
AcDbEntity
  8
0
100
AcDbBlockBegin
  2
*D8
 70
     1
 10
0.0
 20
0.0
 30
0.0
  3
*D8
  1

  0
LINE
  5
4E55
330
4E53
100
AcDbEntity
  8
DIMENSION
 62
     3
100
AcDbLine
 10
140.0
 20
114.787643318496
 30
0.0
 11
145.5
 21
114.787643318496
 31
0.0
  0
LINE
  5
4E56
330
4E53
100
AcDbEntity
  8
DIMENSION
 62
     3
100
AcDbLine
 10
140.0
 20
112.787643318496
 30
0.0
 11
145.5
 21
112.787643318496
 31
0.0
  0
LINE
  5
4E57
330
4E53
100
AcDbEntity
  8
DIMENSION
 62
     3
100
AcDbLine
 10
144.0
 20
115.787643318496
 30
0.0
 11
144.0
 21
116.787643318496
 31
0.0
  0
LINE
  5
4E58
330
4E53
100
AcDbEntity
  8
DIMENSION
 62
     3
100
AcDbLine
 10
144.0
 20
111.7876433184959
 30
0.0
 11
144.0
 21
110.7876433184959
 31
0.0
  0
LINE
  5
4E59
330
4E53
100
AcDbEntity
  8
DIMENSION
 62
     3
100
AcDbLine
 10
144.0
 20
114.787643318496
 30
0.0
 11
144.0
 21
112.787643318496
 31
0.0
  0
INSERT
  5
4E5A
330
4E53
100
AcDbEntity
  8
DIMENSION
 62
     3
100
AcDbBlockReference
  2
_OPEN30
 10
144.0
 20
114.787643318496
 30
0.0
 50
270.0
  0
INSERT
  5
4E5B
330
4E53
100
AcDbEntity
  8
DIMENSION
 62
     3
100
AcDbBlockReference
  2
_OPEN30
 10
144.0
 20
112.787643318496
 30
0.0
 50
90.0
  0
INSERT
  5
4E5D
330
4E53
100
AcDbEntity
  8
0
100
AcDbBlockReference
  2
*U9
 10
0.0
 20
0.0
 30
0.0
  0
POINT
  5
4E5E
330
4E53
100
AcDbEntity
  8
DEFPOINTS
 62
     0
100
AcDbPoint
 10
140.0
 20
114.787643318496
 30
0.0
  0
POINT
  5
4E5F
330
4E53
100
AcDbEntity
  8
DEFPOINTS
 62
     0
100
AcDbPoint
 10
140.0
 20
112.787643318496
 30
0.0
  0
POINT
  5
4E60
330
4E53
100
AcDbEntity
  8
DEFPOINTS
 62
     0
100
AcDbPoint
 10
144.0
 20
112.787643318496
 30
0.0
  0
ENDBLK
  5
4E61
330
4E53
100
AcDbEntity
  8
0
100
AcDbBlockEnd
  0
BLOCK
  5
5113
330
4E5C
100
AcDbEntity
  8
0
100
AcDbBlockBegin
  2
*U9
 70
     1
 10
0.0
 20
0.0
 30
0.0
  3
*U9
  1

  0
TEXT
  5
5114
330
4E5C
100
AcDbEntity
  8
DIMENSION
 62
     3
100
AcDbText
 10
143.5
 20
113.307947887024
 30
0.0
 40
1.5
  1
2
 50
90.0
  7
GOTHIC
100
AcDbText
  0
ENDBLK
  5
5115
330
4E5C
100
AcDbEntity
  8
0
100
AcDbBlockEnd
  0
BLOCK
  5
4E63
330
4E62
100
AcDbEntity
  8
0
100
AcDbBlockBegin
  2
*D10
 70
     1
 10
0.0
 20
0.0
 30
0.0
  3
*D10
  1

  0
LINE
  5
4E64
330
4E62
100
AcDbEntity
  8
DIMENSION
 62
     3
100
AcDbLine
 10
136.4999999999999
 20
117.2876433184959
 30
0.0
 11
150.0
 21
117.2876433184959
 31
0.0
  0
LINE
  5
4E65
330
4E62
100
AcDbEntity
  8
DIMENSION
 62
     3
100
AcDbLine
 10
136.4999999999999
 20
110.287643318496
 30
0.0
 11
150.0
 21
110.287643318496
 31
0.0
  0
LINE
  5
4E66
330
4E62
100
AcDbEntity
  8
DIMENSION
 62
     3
100
AcDbLine
 10
148.5
 20
116.2876433184959
 30
0.0
 11
148.5
 21
111.287643318496
 31
0.0
  0
INSERT
  5
4E67
330
4E62
100
AcDbEntity
  8
DIMENSION
 62
     3
100
AcDbBlockReference
  2
_OPEN30
 10
148.5
 20
117.2876433184959
 30
0.0
 50
90.0
  0
INSERT
  5
4E68
330
4E62
100
AcDbEntity
  8
DIMENSION
 62
     3
100
AcDbBlockReference
  2
_OPEN30
 10
148.5
 20
110.287643318496
 30
0.0
 50
270.0
  0
INSERT
  5
4E6A
330
4E62
100
AcDbEntity
  8
0
100
AcDbBlockReference
  2
*U11
 10
0.0
 20
0.0
 30
0.0
  0
POINT
  5
4E6B
330
4E62
100
AcDbEntity
  8
DEFPOINTS
 62
     0
100
AcDbPoint
 10
136.4999999999999
 20
117.2876433184959
 30
0.0
  0
POINT
  5
4E6C
330
4E62
100
AcDbEntity
  8
DEFPOINTS
 62
     0
100
AcDbPoint
 10
136.4999999999999
 20
110.287643318496
 30
0.0
  0
POINT
  5
4E6D
330
4E62
100
AcDbEntity
  8
DEFPOINTS
 62
     0
100
AcDbPoint
 10
148.5
 20
110.287643318496
 30
0.0
  0
ENDBLK
  5
4E6E
330
4E62
100
AcDbEntity
  8
0
100
AcDbBlockEnd
  0
BLOCK
  5
5116
330
4E69
100
AcDbEntity
  8
0
100
AcDbBlockBegin
  2
*U11
 70
     1
 10
0.0
 20
0.0
 30
0.0
  3
*U11
  1

  0
TEXT
  5
5117
330
4E69
100
AcDbEntity
  8
DIMENSION
 62
     3
100
AcDbText
 10
147.9999999999998
 20
113.304140780425
 30
0.0
 40
1.5
  1
7
 50
90.0
  7
GOTHIC
100
AcDbText
  0
ENDBLK
  5
5118
330
4E69
100
AcDbEntity
  8
0
100
AcDbBlockEnd
  0
BLOCK
  5
4E70
330
4E6F
100
AcDbEntity
  8
0
100
AcDbBlockBegin
  2
*D12
 70
     1
 10
0.0
 20
0.0
 30
0.0
  3
*D12
  1

  0
LINE
  5
4E71
330
4E6F
100
AcDbEntity
  8
DIMENSION
 62
     3
100
AcDbLine
 10
124.5
 20
115.537643318496
 30
0.0
 11
124.5
 21
116.537643318496
 31
0.0
  0
LINE
  5
4E72
330
4E6F
100
AcDbEntity
  8
DIMENSION
 62
     3
100
AcDbLine
 10
124.5
 20
112.0376433184959
 30
0.0
 11
124.5
 21
111.0376433184959
 31
0.0
  0
INSERT
  5
4E74
330
4E6F
100
AcDbEntity
  8
0
100
AcDbBlockReference
  2
*U13
 10
0.0
 20
0.0
 30
0.0
  0
LINE
  5
4E75
330
4E6F
100
AcDbEntity
  8
DIMENSION
 62
     3
100
AcDbLine
 10
124.5
 20
114.537643318496
 30
0.0
 11
124.5
 21
113.0376433184959
 31
0.0
  0
INSERT
  5
4E76
330
4E6F
100
AcDbEntity
  8
DIMENSION
 62
     3
100
AcDbBlockReference
  2
_OPEN30
 10
124.5
 20
114.537643318496
 30
0.0
 50
270.0
  0
INSERT
  5
4E77
330
4E6F
100
AcDbEntity
  8
DIMENSION
 62
     3
100
AcDbBlockReference
  2
_OPEN30
 10
124.5
 20
113.0376433184959
 30
0.0
 50
90.0
  0
POINT
  5
4E78
330
4E6F
100
AcDbEntity
  8
DEFPOINTS
 62
     0
100
AcDbPoint
 10
120.0
 20
114.537643318496
 30
0.0
  0
POINT
  5
4E79
330
4E6F
100
AcDbEntity
  8
DEFPOINTS
 62
     0
100
AcDbPoint
 10
120.0
 20
113.0376433184959
 30
0.0
  0
POINT
  5
4E7A
330
4E6F
100
AcDbEntity
  8
DEFPOINTS
 62
     0
100
AcDbPoint
 10
124.5
 20
113.0376433184959
 30
0.0
  0
ENDBLK
  5
4E7B
330
4E6F
100
AcDbEntity
  8
0
100
AcDbBlockEnd
  0
BLOCK
  5
5119
330
4E73
100
AcDbEntity
  8
0
100
AcDbBlockBegin
  2
*U13
 70
     1
 10
0.0
 20
0.0
 30
0.0
  3
*U13
  1

  0
TEXT
  5
511A
330
4E73
100
AcDbEntity
  8
DIMENSION
 62
     3
100
AcDbText
 10
123.9599410972113
 20
115.319645111287
 30
0.0
 40
1.5
  1
1.5
 50
90.0
  7
GOTHIC
100
AcDbText
  0
ENDBLK
  5
511B
330
4E73
100
AcDbEntity
  8
0
100
AcDbBlockEnd
  0
BLOCK
  5
4E7D
330
4E7C
100
AcDbEntity
  8
0
100
AcDbBlockBegin
  2
*D14
 70
     1
 10
0.0
 20
0.0
 30
0.0
  3
*D14
  1

  0
LINE
  5
4E7E
330
4E7C
100
AcDbEntity
  8
DIMENSION
 62
     3
100
AcDbLine
 10
81.0
 20
114.787643318496
 30
0.0
 11
75.0
 21
114.787643318496
 31
0.0
  0
LINE
  5
4E7F
330
4E7C
100
AcDbEntity
  8
DIMENSION
 62
     3
100
AcDbLine
 10
81.0
 20
112.787643318496
 30
0.0
 11
75.0
 21
112.787643318496
 31
0.0
  0
LINE
  5
4E80
330
4E7C
100
AcDbEntity
  8
DIMENSION
 62
     3
100
AcDbLine
 10
76.5
 20
115.787643318496
 30
0.0
 11
76.5
 21
116.787643318496
 31
0.0
  0
LINE
  5
4E81
330
4E7C
100
AcDbEntity
  8
DIMENSION
 62
     3
100
AcDbLine
 10
76.5
 20
111.787643318496
 30
0.0
 11
76.5
 21
110.787643318496
 31
0.0
  0
LINE
  5
4E82
330
4E7C
100
AcDbEntity
  8
DIMENSION
 62
     3
100
AcDbLine
 10
76.5
 20
114.787643318496
 30
0.0
 11
76.5
 21
112.787643318496
 31
0.0
  0
INSERT
  5
4E83
330
4E7C
100
AcDbEntity
  8
DIMENSION
 62
     3
100
AcDbBlockReference
  2
_OPEN30
 10
76.5
 20
114.787643318496
 30
0.0
 50
270.0
  0
INSERT
  5
4E84
330
4E7C
100
AcDbEntity
  8
DIMENSION
 62
     3
100
AcDbBlockReference
  2
_OPEN30
 10
76.5
 20
112.787643318496
 30
0.0
 50
90.0
  0
INSERT
  5
4E86
330
4E7C
100
AcDbEntity
  8
0
100
AcDbBlockReference
  2
*U15
 10
0.0
 20
0.0
 30
0.0
  0
POINT
  5
4E87
330
4E7C
100
AcDbEntity
  8
DEFPOINTS
 62
     0
100
AcDbPoint
 10
81.0
 20
114.787643318496
 30
0.0
  0
POINT
  5
4E88
330
4E7C
100
AcDbEntity
  8
DEFPOINTS
 62
     0
100
AcDbPoint
 10
81.0
 20
112.787643318496
 30
0.0
  0
POINT
  5
4E89
330
4E7C
100
AcDbEntity
  8
DEFPOINTS
 62
     0
100
AcDbPoint
 10
76.5
 20
112.787643318496
 30
0.0
  0
ENDBLK
  5
4E8A
330
4E7C
100
AcDbEntity
  8
0
100
AcDbBlockEnd
  0
BLOCK
  5
511C
330
4E85
100
AcDbEntity
  8
0
100
AcDbBlockBegin
  2
*U15
 70
     1
 10
0.0
 20
0.0
 30
0.0
  3
*U15
  1

  0
TEXT
  5
511D
330
4E85
100
AcDbEntity
  8
DIMENSION
 62
     3
100
AcDbText
 10
75.99999999999997
 20
113.307947887024
 30
0.0
 40
1.5
  1
2
 50
90.0
  7
GOTHIC
100
AcDbText
  0
ENDBLK
  5
511E
330
4E85
100
AcDbEntity
  8
0
100
AcDbBlockEnd
  0
BLOCK
  5
4E8C
330
4E8B
100
AcDbEntity
  8
0
100
AcDbBlockBegin
  2
*D16
 70
     1
 10
0.0
 20
0.0
 30
0.0
  3
*D16
  1

  0
LINE
  5
4E8D
330
4E8B
100
AcDbEntity
  8
DIMENSION
 62
     3
100
AcDbLine
 10
105.0
 20
106.4999999999999
 30
0.0
 11
105.0
 21
100.5
 31
0.0
  0
LINE
  5
4E8E
330
4E8B
100
AcDbEntity
  8
DIMENSION
 62
     3
100
AcDbLine
 10
118.0
 20
108.787643318496
 30
0.0
 11
118.0
 21
100.5
 31
0.0
  0
LINE
  5
4E8F
330
4E8B
100
AcDbEntity
  8
DIMENSION
 62
     3
100
AcDbLine
 10
106.0
 20
102.0
 30
0.0
 11
117.0
 21
102.0
 31
0.0
  0
INSERT
  5
4E90
330
4E8B
100
AcDbEntity
  8
DIMENSION
 62
     3
100
AcDbBlockReference
  2
_OPEN30
 10
105.0
 20
102.0
 30
0.0
 50
180.0
  0
INSERT
  5
4E91
330
4E8B
100
AcDbEntity
  8
DIMENSION
 62
     3
100
AcDbBlockReference
  2
_OPEN30
 10
118.0
 20
102.0
 30
0.0
  0
INSERT
  5
4E93
330
4E8B
100
AcDbEntity
  8
0
100
AcDbBlockReference
  2
*U17
 10
0.0
 20
0.0
 30
0.0
  0
POINT
  5
4E94
330
4E8B
100
AcDbEntity
  8
DEFPOINTS
 62
     0
100
AcDbPoint
 10
105.0
 20
106.4999999999999
 30
0.0
  0
POINT
  5
4E95
330
4E8B
100
AcDbEntity
  8
DEFPOINTS
 62
     0
100
AcDbPoint
 10
118.0
 20
108.787643318496
 30
0.0
  0
POINT
  5
4E96
330
4E8B
100
AcDbEntity
  8
DEFPOINTS
 62
     0
100
AcDbPoint
 10
118.0
 20
102.0
 30
0.0
  0
ENDBLK
  5
4E97
330
4E8B
100
AcDbEntity
  8
0
100
AcDbBlockEnd
  0
BLOCK
  5
511F
330
4E92
100
AcDbEntity
  8
0
100
AcDbBlockBegin
  2
*U17
 70
     1
 10
0.0
 20
0.0
 30
0.0
  3
*U17
  1

  0
TEXT
  5
5120
330
4E92
100
AcDbEntity
  8
DIMENSION
 62
     3
100
AcDbText
 10
110.4873096446699
 20
102.4999999999999
 30
0.0
 40
1.5
  1
13
  7
GOTHIC
100
AcDbText
  0
ENDBLK
  5
5121
330
4E92
100
AcDbEntity
  8
0
100
AcDbBlockEnd
  0
BLOCK
  5
4E99
330
4E98
100
AcDbEntity
  8
0
100
AcDbBlockBegin
  2
*D18
 70
     1
 10
0.0
 20
0.0
 30
0.0
  3
*D18
  1

  0
LINE
  5
4E9A
330
4E98
100
AcDbEntity
  8
DIMENSION
 62
     3
100
AcDbLine
 10
137.0
 20
113.787643318496
 30
0.0
 11
137.0
 21
100.5
 31
0.0
  0
LINE
  5
4E9B
330
4E98
100
AcDbEntity
  8
DIMENSION
 62
     3
100
AcDbLine
 10
140.0
 20
112.787643318496
 30
0.0
 11
140.0
 21
100.5
 31
0.0
  0
LINE
  5
4E9C
330
4E98
100
AcDbEntity
  8
DIMENSION
 62
     3
100
AcDbLine
 10
136.0
 20
102.0
 30
0.0
 11
135.0
 21
102.0
 31
0.0
  0
LINE
  5
4E9D
330
4E98
100
AcDbEntity
  8
DIMENSION
 62
     3
100
AcDbLine
 10
141.0
 20
102.0
 30
0.0
 11
142.0
 21
102.0
 31
0.0
  0
LINE
  5
4E9E
330
4E98
100
AcDbEntity
  8
DIMENSION
 62
     3
100
AcDbLine
 10
137.0
 20
102.0
 30
0.0
 11
140.0
 21
102.0
 31
0.0
  0
INSERT
  5
4E9F
330
4E98
100
AcDbEntity
  8
DIMENSION
 62
     3
100
AcDbBlockReference
  2
_OPEN30
 10
137.0
 20
102.0
 30
0.0
  0
INSERT
  5
4EA0
330
4E98
100
AcDbEntity
  8
DIMENSION
 62
     3
100
AcDbBlockReference
  2
_OPEN30
 10
140.0
 20
102.0
 30
0.0
 50
180.0
  0
INSERT
  5
4EA2
330
4E98
100
AcDbEntity
  8
0
100
AcDbBlockReference
  2
*U19
 10
0.0
 20
0.0
 30
0.0
  0
POINT
  5
4EA3
330
4E98
100
AcDbEntity
  8
DEFPOINTS
 62
     0
100
AcDbPoint
 10
137.0
 20
113.787643318496
 30
0.0
  0
POINT
  5
4EA4
330
4E98
100
AcDbEntity
  8
DEFPOINTS
 62
     0
100
AcDbPoint
 10
140.0
 20
112.787643318496
 30
0.0
  0
POINT
  5
4EA5
330
4E98
100
AcDbEntity
  8
DEFPOINTS
 62
     0
100
AcDbPoint
 10
140.0
 20
102.0
 30
0.0
  0
ENDBLK
  5
4EA6
330
4E98
100
AcDbEntity
  8
0
100
AcDbBlockEnd
  0
BLOCK
  5
5122
330
4EA1
100
AcDbEntity
  8
0
100
AcDbBlockBegin
  2
*U19
 70
     1
 10
0.0
 20
0.0
 30
0.0
  3
*U19
  1

  0
TEXT
  5
5123
330
4EA1
100
AcDbEntity
  8
DIMENSION
 62
     3
100
AcDbText
 10
138.0279187817258
 20
102.4999999999999
 30
0.0
 40
1.5
  1
3
  7
GOTHIC
100
AcDbText
  0
ENDBLK
  5
5124
330
4EA1
100
AcDbEntity
  8
0
100
AcDbBlockEnd
  0
BLOCK
  5
4EA8
330
4EA7
100
AcDbEntity
  8
0
100
AcDbBlockBegin
  2
*D20
 70
     1
 10
0.0
 20
0.0
 30
0.0
  3
*D20
  1

  0
LINE
  5
4EA9
330
4EA7
100
AcDbEntity
  8
DIMENSION
 62
     3
100
AcDbLine
 10
91.49999999999996
 20
118.2876433184959
 30
0.0
 11
92.60894904286164
 21
116.6232419184915
 31
0.0
  0
INSERT
  5
4EAA
330
4EA7
100
AcDbEntity
  8
DIMENSION
 62
     3
100
AcDbBlockReference
  2
_OPEN30
 10
93.16342356429244
 20
115.7910412184895
 30
0.0
 50
303.6745287482016
  0
INSERT
  5
4EAC
330
4EA7
100
AcDbEntity
  8
0
100
AcDbBlockReference
  2
*U21
 10
0.0
 20
0.0
 30
0.0
  0
POINT
  5
4EAD
330
4EA7
100
AcDbEntity
  8
DEFPOINTS
 62
     0
100
AcDbPoint
 10
93.16342356429244
 20
115.7910412184895
 30
0.0
  0
POINT
  5
4EAE
330
4EA7
100
AcDbEntity
  8
DEFPOINTS
 62
     0
100
AcDbPoint
 10
91.49999999999996
 20
118.2876433184959
 30
0.0
  0
ENDBLK
  5
4EAF
330
4EA7
100
AcDbEntity
  8
0
100
AcDbBlockEnd
  0
BLOCK
  5
5125
330
4EAB
100
AcDbEntity
  8
0
100
AcDbBlockBegin
  2
*U21
 70
     1
 10
0.0
 20
0.0
 30
0.0
  3
*U21
  1

  0
TEXT
  5
5126
330
4EAB
100
AcDbEntity
  8
DIMENSION
 62
     3
100
AcDbText
 10
91.99656674235262
 20
118.4441100379992
 30
0.0
 40
1.5
  1
R3
 50
303.6745287482016
  7
GOTHIC
100
AcDbText
  0
ENDBLK
  5
5127
330
4EAB
100
AcDbEntity
  8
0
100
AcDbBlockEnd
  0
BLOCK
  5
4EB1
330
4EB0
100
AcDbEntity
  8
0
100
AcDbBlockBegin
  2
*D22
 70
     1
 10
0.0
 20
0.0
 30
0.0
  3
*D22
  1

  0
LINE
  5
4EB2
330
4EB0
100
AcDbEntity
  8
DIMENSION
 62
     3
100
AcDbLine
 10
90.00000000000005
 20
114.287643318496
 30
0.0
 11
90.00000000000005
 21
113.287643318496
 31
0.0
  0
LINE
  5
4EB3
330
4EB0
100
AcDbEntity
  8
DIMENSION
 62
     3
100
AcDbLine
 10
90.00000000000005
 20
118.1500591605533
 30
0.0
 11
90.00000000000005
 21
115.287643318496
 31
0.0
  0
INSERT
  5
4EB5
330
4EB0
100
AcDbEntity
  8
0
100
AcDbBlockReference
  2
*U23
 10
0.0
 20
0.0
 30
0.0
  0
INSERT
  5
4EB6
330
4EB0
100
AcDbEntity
  8
DIMENSION
 62
     3
100
AcDbBlockReference
  2
_OPEN30
 10
90.00000000000005
 20
115.287643318496
 30
0.0
 50
90.0
  0
INSERT
  5
4EB7
330
4EB0
100
AcDbEntity
  8
DIMENSION
 62
     3
100
AcDbBlockReference
  2
_OPEN30
 10
90.00000000000005
 20
112.2876433184959
 30
0.0
 50
270.0
  0
POINT
  5
4EB8
330
4EB0
100
AcDbEntity
  8
DEFPOINTS
 62
     0
100
AcDbPoint
 10
81.6134712589865
 20
115.287643318496
 30
0.0
  0
POINT
  5
4EB9
330
4EB0
100
AcDbEntity
  8
DEFPOINTS
 62
     0
100
AcDbPoint
 10
81.61347125898648
 20
112.2876433184959
 30
0.0
  0
POINT
  5
4EBA
330
4EB0
100
AcDbEntity
  8
DEFPOINTS
 62
     0
100
AcDbPoint
 10
90.00000000000005
 20
112.2876433184959
 30
0.0
  0
ENDBLK
  5
4EBB
330
4EB0
100
AcDbEntity
  8
0
100
AcDbBlockEnd
  0
BLOCK
  5
5128
330
4EB4
100
AcDbEntity
  8
0
100
AcDbBlockBegin
  2
*U23
 70
     1
 10
0.0
 20
0.0
 30
0.0
  3
*U23
  1

  0
TEXT
  5
5129
330
4EB4
100
AcDbEntity
  8
DIMENSION
 62
     3
100
AcDbText
 10
89.50000000000001
 20
116.7896530691827
 30
0.0
 40
1.5
  1
3
 50
90.0
  7
GOTHIC
100
AcDbText
  0
ENDBLK
  5
512A
330
4EB4
100
AcDbEntity
  8
0
100
AcDbBlockEnd
  0
BLOCK
  5
4EBD
330
4EBC
100
AcDbEntity
  8
0
100
AcDbBlockBegin
  2
*D24
 70
     1
 10
0.0
 20
0.0
 30
0.0
  3
*D24
  1

  0
LINE
  5
4EBE
330
4EBC
100
AcDbEntity
  8
DIMENSION
 62
     3
100
AcDbLine
 10
97.63878406783227
 20
118.037643318496
 30
0.0
 11
90.01006573271018
 21
104.8243155654324
 31
0.0
  0
LINE
  5
4EBF
330
4EBC
100
AcDbEntity
  8
DIMENSION
 62
     3
100
AcDbLine
 10
112.3612159321677
 20
109.537643318496
 30
0.0
 11
104.7324975970455
 21
96.32431556543238
 31
0.0
  0
LINE
  5
4EC0
330
4EBC
100
AcDbEntity
  8
DIMENSION
 62
     3
100
AcDbLine
 10
91.62609113649459
 20
105.623353671109
 30
0.0
 11
104.616472193261
 21
98.12335367110904
 31
0.0
  0
INSERT
  5
4EC1
330
4EBC
100
AcDbEntity
  8
DIMENSION
 62
     3
100
AcDbBlockReference
  2
_OPEN30
 10
90.76006573271014
 20
106.123353671109
 30
0.0
 50
149.9999999999998
  0
INSERT
  5
4EC2
330
4EBC
100
AcDbEntity
  8
DIMENSION
 62
     3
100
AcDbBlockReference
  2
_OPEN30
 10
105.4824975970455
 20
97.62335367110905
 30
0.0
 50
329.9999999999997
  0
INSERT
  5
4EC4
330
4EBC
100
AcDbEntity
  8
0
100
AcDbBlockReference
  2
*U25
 10
0.0
 20
0.0
 30
0.0
  0
POINT
  5
4EC5
330
4EBC
100
AcDbEntity
  8
DEFPOINTS
 62
     0
100
AcDbPoint
 10
97.63878406783227
 20
118.037643318496
 30
0.0
  0
POINT
  5
4EC6
330
4EBC
100
AcDbEntity
  8
DEFPOINTS
 62
     0
100
AcDbPoint
 10
112.3612159321677
 20
109.537643318496
 30
0.0
  0
POINT
  5
4EC7
330
4EBC
100
AcDbEntity
  8
DEFPOINTS
 62
     0
100
AcDbPoint
 10
105.4824975970455
 20
97.62335367110905
 30
0.0
  0
ENDBLK
  5
4EC8
330
4EBC
100
AcDbEntity
  8
0
100
AcDbBlockEnd
  0
BLOCK
  5
512B
330
4EC3
100
AcDbEntity
  8
0
100
AcDbBlockBegin
  2
*U25
 70
     1
 10
0.0
 20
0.0
 30
0.0
  3
*U25
  1

  0
TEXT
  5
512C
330
4EC3
100
AcDbEntity
  8
DIMENSION
 62
     3
100
AcDbText
 10
96.68962216283441
 20
103.5586212937202
 30
0.0
 40
1.5
  1
φ17
 50
329.9999999999997
  7
GOTHIC
100
AcDbText
  0
ENDBLK
  5
512D
330
4EC3
100
AcDbEntity
  8
0
100
AcDbBlockEnd
  0
BLOCK
  5
4ECA
330
4EC9
100
AcDbEntity
  8
0
100
AcDbBlockBegin
  2
*D26
 70
     1
 10
0.0
 20
0.0
 30
0.0
  3
*D26
  1

  0
LINE
  5
4ECB
330
4EC9
100
AcDbEntity
  8
DIMENSION
 62
     3
100
AcDbLine
 10
94.50000000000001
 20
119.537643318496
 30
0.0
 11
94.50000000000001
 21
124.5
 31
0.0
  0
LINE
  5
4ECC
330
4EC9
100
AcDbEntity
  8
DIMENSION
 62
     3
100
AcDbLine
 10
82.0
 20
123.0
 30
0.0
 11
93.49999999999999
 21
123.0
 31
0.0
  0
INSERT
  5
4ECD
330
4EC9
100
AcDbEntity
  8
DIMENSION
 62
     3
100
AcDbBlockReference
  2
_OPEN30
 10
81.0
 20
123.0
 30
0.0
 50
180.0
  0
INSERT
  5
4ECE
330
4EC9
100
AcDbEntity
  8
DIMENSION
 62
     3
100
AcDbBlockReference
  2
_OPEN30
 10
94.50000000000001
 20
123.0
 30
0.0
  0
INSERT
  5
4ED0
330
4EC9
100
AcDbEntity
  8
0
100
AcDbBlockReference
  2
*U27
 10
0.0
 20
0.0
 30
0.0
  0
POINT
  5
4ED1
330
4EC9
100
AcDbEntity
  8
DEFPOINTS
 62
     0
100
AcDbPoint
 10
81.0
 20
114.787643318496
 30
0.0
  0
POINT
  5
4ED2
330
4EC9
100
AcDbEntity
  8
DEFPOINTS
 62
     0
100
AcDbPoint
 10
94.50000000000001
 20
119.537643318496
 30
0.0
  0
POINT
  5
4ED3
330
4EC9
100
AcDbEntity
  8
DEFPOINTS
 62
     0
100
AcDbPoint
 10
94.50000000000001
 20
123.0
 30
0.0
  0
ENDBLK
  5
4ED4
330
4EC9
100
AcDbEntity
  8
0
100
AcDbBlockEnd
  0
BLOCK
  5
512E
330
4ECF
100
AcDbEntity
  8
0
100
AcDbBlockBegin
  2
*U27
 70
     1
 10
0.0
 20
0.0
 30
0.0
  3
*U27
  1

  0
TEXT
  5
512F
330
4ECF
100
AcDbEntity
  8
DIMENSION
 62
     3
100
AcDbText
 10
85.76269035532995
 20
123.5
 30
0.0
 40
1.5
  1
13.5
  7
GOTHIC
100
AcDbText
  0
ENDBLK
  5
5130
330
4ECF
100
AcDbEntity
  8
0
100
AcDbBlockEnd
  0
BLOCK
  5
4ED6
330
4ED5
100
AcDbEntity
  8
0
100
AcDbBlockBegin
  2
*D28
 70
     1
 10
0.0
 20
0.0
 30
0.0
  3
*D28
  1

  0
LINE
  5
4ED7
330
4ED5
100
AcDbEntity
  8
DIMENSION
 62
     3
100
AcDbLine
 10
94.50000000000001
 20
119.537643318496
 30
0.0
 11
94.50000000000001
 21
124.5
 31
0.0
  0
LINE
  5
4ED8
330
4ED5
100
AcDbEntity
  8
DIMENSION
 62
     3
100
AcDbLine
 10
95.5
 20
123.0
 30
0.0
 11
104.0
 21
123.0
 31
0.0
  0
INSERT
  5
4ED9
330
4ED5
100
AcDbEntity
  8
DIMENSION
 62
     3
100
AcDbBlockReference
  2
_OPEN30
 10
94.50000000000001
 20
123.0
 30
0.0
 50
180.0
  0
INSERT
  5
4EDA
330
4ED5
100
AcDbEntity
  8
DIMENSION
 62
     3
100
AcDbBlockReference
  2
_OPEN30
 10
105.0
 20
123.0
 30
0.0
  0
INSERT
  5
4EDC
330
4ED5
100
AcDbEntity
  8
0
100
AcDbBlockReference
  2
*U29
 10
0.0
 20
0.0
 30
0.0
  0
POINT
  5
4EDD
330
4ED5
100
AcDbEntity
  8
DEFPOINTS
 62
     0
100
AcDbPoint
 10
94.50000000000001
 20
119.537643318496
 30
0.0
  0
POINT
  5
4EDE
330
4ED5
100
AcDbEntity
  8
DEFPOINTS
 62
     0
100
AcDbPoint
 10
105.0
 20
121.232606342322
 30
0.0
  0
POINT
  5
4EDF
330
4ED5
100
AcDbEntity
  8
DEFPOINTS
 62
     0
100
AcDbPoint
 10
105.0
 20
123.0
 30
0.0
  0
ENDBLK
  5
4EE0
330
4ED5
100
AcDbEntity
  8
0
100
AcDbBlockEnd
  0
BLOCK
  5
5131
330
4EDB
100
AcDbEntity
  8
0
100
AcDbBlockBegin
  2
*U29
 70
     1
 10
0.0
 20
0.0
 30
0.0
  3
*U29
  1

  0
TEXT
  5
5132
330
4EDB
100
AcDbEntity
  8
DIMENSION
 62
     3
100
AcDbText
 10
97.76269035532996
 20
123.5
 30
0.0
 40
1.5
  1
10.5
  7
GOTHIC
100
AcDbText
  0
ENDBLK
  5
5133
330
4EDB
100
AcDbEntity
  8
0
100
AcDbBlockEnd
  0
BLOCK
  5
4EE2
330
4EE1
100
AcDbEntity
  8
0
100
AcDbBlockBegin
  2
*D30
 70
     1
 10
0.0
 20
0.0
 30
0.0
  3
*D30
  1

  0
LINE
  5
4EE3
330
4EE1
100
AcDbEntity
  8
DIMENSION
 62
     3
100
AcDbLine
 10
113.0
 20
119.537643318496
 30
0.0
 11
113.0
 21
124.5
 31
0.0
  0
LINE
  5
4EE4
330
4EE1
100
AcDbEntity
  8
DIMENSION
 62
     3
100
AcDbLine
 10
106.0
 20
123.0
 30
0.0
 11
112.0
 21
123.0
 31
0.0
  0
INSERT
  5
4EE5
330
4EE1
100
AcDbEntity
  8
DIMENSION
 62
     3
100
AcDbBlockReference
  2
_OPEN30
 10
105.0
 20
123.0
 30
0.0
 50
180.0
  0
INSERT
  5
4EE6
330
4EE1
100
AcDbEntity
  8
DIMENSION
 62
     3
100
AcDbBlockReference
  2
_OPEN30
 10
113.0
 20
123.0
 30
0.0
  0
INSERT
  5
4EE8
330
4EE1
100
AcDbEntity
  8
0
100
AcDbBlockReference
  2
*U31
 10
0.0
 20
0.0
 30
0.0
  0
POINT
  5
4EE9
330
4EE1
100
AcDbEntity
  8
DEFPOINTS
 62
     0
100
AcDbPoint
 10
105.0
 20
121.232606342322
 30
0.0
  0
POINT
  5
4EEA
330
4EE1
100
AcDbEntity
  8
DEFPOINTS
 62
     0
100
AcDbPoint
 10
113.0
 20
119.537643318496
 30
0.0
  0
POINT
  5
4EEB
330
4EE1
100
AcDbEntity
  8
DEFPOINTS
 62
     0
100
AcDbPoint
 10
113.0
 20
123.0
 30
0.0
  0
ENDBLK
  5
4EEC
330
4EE1
100
AcDbEntity
  8
0
100
AcDbBlockEnd
  0
BLOCK
  5
5134
330
4EE7
100
AcDbEntity
  8
0
100
AcDbBlockBegin
  2
*U31
 70
     1
 10
0.0
 20
0.0
 30
0.0
  3
*U31
  1

  0
TEXT
  5
5135
330
4EE7
100
AcDbEntity
  8
DIMENSION
 62
     3
100
AcDbText
 10
108.5203045685279
 20
123.5
 30
0.0
 40
1.5
  1
8
  7
GOTHIC
100
AcDbText
  0
ENDBLK
  5
5136
330
4EE7
100
AcDbEntity
  8
0
100
AcDbBlockEnd
  0
BLOCK
  5
4EEE
330
4EED
100
AcDbEntity
  8
0
100
AcDbBlockBegin
  2
*D32
 70
     1
 10
0.0
 20
0.0
 30
0.0
  3
*D32
  1

  0
LINE
  5
4EEF
330
4EED
100
AcDbEntity
  8
DIMENSION
 62
     3
100
AcDbLine
 10
113.0
 20
119.537643318496
 30
0.0
 11
113.0
 21
124.5
 31
0.0
  0
LINE
  5
4EF0
330
4EED
100
AcDbEntity
  8
DIMENSION
 62
     3
100
AcDbLine
 10
136.4999999999999
 20
117.287643318496
 30
0.0
 11
136.4999999999999
 21
124.5
 31
0.0
  0
LINE
  5
4EF1
330
4EED
100
AcDbEntity
  8
DIMENSION
 62
     3
100
AcDbLine
 10
114.0
 20
123.0
 30
0.0
 11
135.4999999999999
 21
123.0
 31
0.0
  0
INSERT
  5
4EF2
330
4EED
100
AcDbEntity
  8
DIMENSION
 62
     3
100
AcDbBlockReference
  2
_OPEN30
 10
113.0
 20
123.0
 30
0.0
 50
180.0
  0
INSERT
  5
4EF3
330
4EED
100
AcDbEntity
  8
DIMENSION
 62
     3
100
AcDbBlockReference
  2
_OPEN30
 10
136.4999999999999
 20
123.0
 30
0.0
  0
INSERT
  5
4EF5
330
4EED
100
AcDbEntity
  8
0
100
AcDbBlockReference
  2
*U33
 10
0.0
 20
0.0
 30
0.0
  0
POINT
  5
4EF6
330
4EED
100
AcDbEntity
  8
DEFPOINTS
 62
     0
100
AcDbPoint
 10
113.0
 20
119.537643318496
 30
0.0
  0
POINT
  5
4EF7
330
4EED
100
AcDbEntity
  8
DEFPOINTS
 62
     0
100
AcDbPoint
 10
136.4999999999999
 20
117.287643318496
 30
0.0
  0
POINT
  5
4EF8
330
4EED
100
AcDbEntity
  8
DEFPOINTS
 62
     0
100
AcDbPoint
 10
136.4999999999999
 20
123.0
 30
0.0
  0
ENDBLK
  5
4EF9
330
4EED
100
AcDbEntity
  8
0
100
AcDbBlockEnd
  0
BLOCK
  5
5137
330
4EF4
100
AcDbEntity
  8
0
100
AcDbBlockBegin
  2
*U33
 70
     1
 10
0.0
 20
0.0
 30
0.0
  3
*U33
  1

  0
TEXT
  5
5138
330
4EF4
100
AcDbEntity
  8
DIMENSION
 62
     3
100
AcDbText
 10
122.8121827411166
 20
123.5
 30
0.0
 40
1.5
  1
23.5
  7
GOTHIC
100
AcDbText
  0
ENDBLK
  5
5139
330
4EF4
100
AcDbEntity
  8
0
100
AcDbBlockEnd
  0
BLOCK
  5
4EFB
330
4EFA
100
AcDbEntity
  8
0
100
AcDbBlockBegin
  2
*D34
 70
     1
 10
0.0
 20
0.0
 30
0.0
  3
*D34
  1

  0
LINE
  5
4EFC
330
4EFA
100
AcDbEntity
  8
DIMENSION
 62
     3
100
AcDbLine
 10
136.4999999999999
 20
117.2876433184959
 30
0.0
 11
136.4999999999999
 21
124.5
 31
0.0
  0
LINE
  5
4EFD
330
4EFA
100
AcDbEntity
  8
DIMENSION
 62
     3
100
AcDbLine
 10
137.5
 20
123.0
 30
0.0
 11
139.0
 21
123.0
 31
0.0
  0
INSERT
  5
4EFF
330
4EFA
100
AcDbEntity
  8
0
100
AcDbBlockReference
  2
*U35
 10
0.0
 20
0.0
 30
0.0
  0
INSERT
  5
4F00
330
4EFA
100
AcDbEntity
  8
DIMENSION
 62
     3
100
AcDbBlockReference
  2
_OPEN30
 10
136.4999999999999
 20
123.0
 30
0.0
 50
180.0
  0
INSERT
  5
4F01
330
4EFA
100
AcDbEntity
  8
DIMENSION
 62
     3
100
AcDbBlockReference
  2
_OPEN30
 10
140.0
 20
123.0
 30
0.0
  0
POINT
  5
4F02
330
4EFA
100
AcDbEntity
  8
DEFPOINTS
 62
     0
100
AcDbPoint
 10
136.4999999999999
 20
117.2876433184959
 30
0.0
  0
POINT
  5
4F03
330
4EFA
100
AcDbEntity
  8
DEFPOINTS
 62
     0
100
AcDbPoint
 10
140.0
 20
114.787643318496
 30
0.0
  0
POINT
  5
4F04
330
4EFA
100
AcDbEntity
  8
DEFPOINTS
 62
     0
100
AcDbPoint
 10
140.0
 20
123.0
 30
0.0
  0
ENDBLK
  5
4F05
330
4EFA
100
AcDbEntity
  8
0
100
AcDbBlockEnd
  0
BLOCK
  5
513A
330
4EFE
100
AcDbEntity
  8
0
100
AcDbBlockBegin
  2
*U35
 70
     1
 10
0.0
 20
0.0
 30
0.0
  3
*U35
  1

  0
TEXT
  5
513B
330
4EFE
100
AcDbEntity
  8
DIMENSION
 62
     3
100
AcDbText
 10
136.8023226007426
 20
123.4998212334367
 30
0.0
 40
1.5
  1
3.5
  7
GOTHIC
100
AcDbText
  0
ENDBLK
  5
513C
330
4EFE
100
AcDbEntity
  8
0
100
AcDbBlockEnd
  0
BLOCK
  5
4F07
330
4F06
100
AcDbEntity
  8
0
100
AcDbBlockBegin
  2
*D36
 70
     1
 10
0.0
 20
0.0
 30
0.0
  3
*D36
  1

  0
LINE
  5
4F08
330
4F06
100
AcDbEntity
  8
DIMENSION
 62
     3
100
AcDbLine
 10
105.0
 20
121.232606342322
 30
0.0
 11
105.0
 21
129.0
 31
0.0
  0
LINE
  5
4F09
330
4F06
100
AcDbEntity
  8
DIMENSION
 62
     3
100
AcDbLine
 10
82.0
 20
127.5
 30
0.0
 11
104.0
 21
127.5
 31
0.0
  0
INSERT
  5
4F0A
330
4F06
100
AcDbEntity
  8
DIMENSION
 62
     3
100
AcDbBlockReference
  2
_OPEN30
 10
81.0
 20
127.5
 30
0.0
 50
180.0
  0
INSERT
  5
4F0B
330
4F06
100
AcDbEntity
  8
DIMENSION
 62
     3
100
AcDbBlockReference
  2
_OPEN30
 10
105.0
 20
127.5
 30
0.0
  0
INSERT
  5
4F0D
330
4F06
100
AcDbEntity
  8
0
100
AcDbBlockReference
  2
*U37
 10
0.0
 20
0.0
 30
0.0
  0
POINT
  5
4F0E
330
4F06
100
AcDbEntity
  8
DEFPOINTS
 62
     0
100
AcDbPoint
 10
81.0
 20
114.787643318496
 30
0.0
  0
POINT
  5
4F0F
330
4F06
100
AcDbEntity
  8
DEFPOINTS
 62
     0
100
AcDbPoint
 10
105.0
 20
121.232606342322
 30
0.0
  0
POINT
  5
4F10
330
4F06
100
AcDbEntity
  8
DEFPOINTS
 62
     0
100
AcDbPoint
 10
105.0
 20
127.5
 30
0.0
  0
ENDBLK
  5
4F11
330
4F06
100
AcDbEntity
  8
0
100
AcDbBlockEnd
  0
BLOCK
  5
513D
330
4F0C
100
AcDbEntity
  8
0
100
AcDbBlockBegin
  2
*U37
 70
     1
 10
0.0
 20
0.0
 30
0.0
  3
*U37
  1

  0
TEXT
  5
513E
330
4F0C
100
AcDbEntity
  8
DIMENSION
 62
     3
100
AcDbText
 10
92.01395939086292
 20
128.0
 30
0.0
 40
1.5
  1
24
  7
GOTHIC
100
AcDbText
  0
ENDBLK
  5
513F
330
4F0C
100
AcDbEntity
  8
0
100
AcDbBlockEnd
  0
BLOCK
  5
4F13
330
4F12
100
AcDbEntity
  8
0
100
AcDbBlockBegin
  2
*D38
 70
     1
 10
0.0
 20
0.0
 30
0.0
  3
*D38
  1

  0
LINE
  5
4F14
330
4F12
100
AcDbEntity
  8
DIMENSION
 62
     3
100
AcDbLine
 10
106.0
 20
127.5
 30
0.0
 11
139.0
 21
127.5
 31
0.0
  0
INSERT
  5
4F15
330
4F12
100
AcDbEntity
  8
DIMENSION
 62
     3
100
AcDbBlockReference
  2
_OPEN30
 10
105.0
 20
127.5
 30
0.0
 50
180.0
  0
INSERT
  5
4F16
330
4F12
100
AcDbEntity
  8
DIMENSION
 62
     3
100
AcDbBlockReference
  2
_OPEN30
 10
140.0
 20
127.5
 30
0.0
  0
INSERT
  5
4F18
330
4F12
100
AcDbEntity
  8
0
100
AcDbBlockReference
  2
*U39
 10
0.0
 20
0.0
 30
0.0
  0
POINT
  5
4F19
330
4F12
100
AcDbEntity
  8
DEFPOINTS
 62
     0
100
AcDbPoint
 10
105.0
 20
121.232606342322
 30
0.0
  0
POINT
  5
4F1A
330
4F12
100
AcDbEntity
  8
DEFPOINTS
 62
     0
100
AcDbPoint
 10
140.0
 20
114.787643318496
 30
0.0
  0
POINT
  5
4F1B
330
4F12
100
AcDbEntity
  8
DEFPOINTS
 62
     0
100
AcDbPoint
 10
140.0
 20
127.5
 30
0.0
  0
ENDBLK
  5
4F1C
330
4F12
100
AcDbEntity
  8
0
100
AcDbBlockEnd
  0
BLOCK
  5
5140
330
4F17
100
AcDbEntity
  8
0
100
AcDbBlockBegin
  2
*U39
 70
     1
 10
0.0
 20
0.0
 30
0.0
  3
*U39
  1

  0
TEXT
  5
5141
330
4F17
100
AcDbEntity
  8
DIMENSION
 62
     3
100
AcDbText
 10
121.5406091370557
 20
128.0
 30
0.0
 40
1.5
  1
35
  7
GOTHIC
100
AcDbText
  0
ENDBLK
  5
5142
330
4F17
100
AcDbEntity
  8
0
100
AcDbBlockEnd
  0
BLOCK
  5
4F1E
330
4F1D
100
AcDbEntity
  8
0
100
AcDbBlockBegin
  2
*D40
 70
     1
 10
0.0
 20
0.0
 30
0.0
  3
*D40
  1

  0
LINE
  5
4F1F
330
4F1D
100
AcDbEntity
  8
DIMENSION
 62
     3
100
AcDbLine
 10
135.411969302148
 20
113.1971893630485
 30
0.0
 11
136.3659882277401
 21
111.4393930467449
 31
0.0
  0
LINE
  5
4F20
330
4F1D
100
AcDbEntity
  8
DIMENSION
 62
     3
100
AcDbLine
 10
136.842997690536
 20
110.5604948885929
 30
0.0
 11
140.6747859166461
 21
103.5003590275217
 31
0.0
  0
LINE
  5
4F21
330
4F1D
100
AcDbEntity
  8
DIMENSION
 62
     3
100
AcDbLine
 10
140.6747859166461
 20
103.5003590275217
 30
0.0
 11
142.9184407389811
 21
103.5003590275217
 31
0.0
  0
INSERT
  5
4F22
330
4F1D
100
AcDbEntity
  8
DIMENSION
 62
     3
100
AcDbBlockReference
  2
_OPEN30
 10
136.842997690536
 20
110.5604948885929
 30
0.0
 50
298.4902667802068
  0
INSERT
  5
4F24
330
4F1D
100
AcDbEntity
  8
0
100
AcDbBlockReference
  2
*U41
 10
0.0
 20
0.0
 30
0.0
  0
POINT
  5
4F25
330
4F1D
100
AcDbEntity
  8
DEFPOINTS
 62
     0
100
AcDbPoint
 10
136.842997690536
 20
110.5604948885929
 30
0.0
  0
POINT
  5
4F26
330
4F1D
100
AcDbEntity
  8
DEFPOINTS
 62
     0
100
AcDbPoint
 10
135.411969302148
 20
113.1971893630485
 30
0.0
  0
ENDBLK
  5
4F27
330
4F1D
100
AcDbEntity
  8
0
100
AcDbBlockEnd
  0
BLOCK
  5
5143
330
4F23
100
AcDbEntity
  8
0
100
AcDbBlockBegin
  2
*U41
 70
     1
 10
0.0
 20
0.0
 30
0.0
  3
*U41
  1

  0
TEXT
  5
5144
330
4F23
100
AcDbEntity
  8
DIMENSION
 62
     3
100
AcDbText
 10
141.0834153582706
 20
104.0003590275218
 30
0.0
 40
1.5
  1
R3
  7
GOTHIC
100
AcDbText
  0
ENDBLK
  5
5145
330
4F23
100
AcDbEntity
  8
0
100
AcDbBlockEnd
  0
BLOCK
  5
4F29
330
4F28
100
AcDbEntity
  8
0
100
AcDbBlockBegin
  2
A$C3D9D1D5D
 70
     0
 10
0.0
 20
0.0
 30
0.0
  3
A$C3D9D1D5D
  1

  0
LINE
  5
4F2A
330
4F28
100
AcDbEntity
  8
CENTER
100
AcDbLine
 10
0.0
 20
7.366303171161006
 30
0.0
 11
0.0
 21
-7.366303171161006
 31
0.0
  0
ARC
  5
4F2B
330
4F28
100
AcDbEntity
  8
LINE
  6
BYBLOCK
100
AcDbCircle
 10
0.0
 20
-0.0786598526649414
 30
0.0
 40
8.5
100
AcDbArc
 50
317.4315457967069
 51
0.0
  0
LINE
  5
4F2C
330
4F28
100
AcDbEntity
  8
LINE
100
AcDbLine
 10
-11.0
 20
-0.0786598526649414
 30
0.0
 11
-11.0
 21
-0.0786598526649414
 31
0.0
  0
LINE
  5
4F2D
330
4F28
100
AcDbEntity
  8
LINE
100
AcDbLine
 10
-10.5
 20
-0.5786598526649414
 30
0.0
 11
-9.0
 21
-0.5786598526649414
 31
0.0
  0
LINE
  5
4F2E
330
4F28
100
AcDbEntity
  8
LINE
100
AcDbLine
 10
-8.5
 20
-0.0786598526649414
 30
0.0
 11
-8.5
 21
-0.0786598526649414
 31
0.0
  0
ARC
  5
4F2F
330
4F28
100
AcDbEntity
  8
LINE
100
AcDbCircle
 10
-9.0
 20
-0.0786598526649414
 30
0.0
 40
0.5
100
AcDbArc
 50
270.0
 51
0.0
  0
ARC
  5
4F30
330
4F28
100
AcDbEntity
  8
LINE
100
AcDbCircle
 10
-10.5
 20
-0.0786598526649414
 30
0.0
 40
0.5
100
AcDbArc
 50
180.0
 51
270.0
  0
ARC
  5
4F31
330
4F28
100
AcDbEntity
  8
LINE
100
AcDbCircle
 10
-10.5
 20
-0.0786598526649414
 30
0.0
 40
0.5
100
AcDbArc
 50
90.0
 51
180.0
  0
ARC
  5
4F32
330
4F28
100
AcDbEntity
  8
LINE
100
AcDbCircle
 10
-9.0
 20
-0.0786598526649414
 30
0.0
 40
0.5
100
AcDbArc
 50
0.0
 51
90.0
  0
LINE
  5
4F33
330
4F28
100
AcDbEntity
  8
LINE
100
AcDbLine
 10
-8.5
 20
-0.0786598526649414
 30
0.0
 11
-8.5
 21
-0.0786598526649414
 31
0.0
  0
LINE
  5
4F34
330
4F28
100
AcDbEntity
  8
LINE
100
AcDbLine
 10
-10.5
 20
0.4213401473350588
 30
0.0
 11
-9.0
 21
0.4213401473350588
 31
0.0
  0
LINE
  5
4F35
330
4F28
100
AcDbEntity
  8
LINE
100
AcDbLine
 10
-11.0
 20
-0.0786598526649414
 30
0.0
 11
-11.0
 21
-0.0786598526649414
 31
0.0
  0
LINE
  5
4F36
330
4F28
100
AcDbEntity
  8
CENTER
100
AcDbLine
 10
13.0
 20
-0.0786598526649414
 30
0.0
 11
13.0
 21
4.921340147335057
 31
0.0
  0
ARC
  5
4F37
330
4F28
100
AcDbEntity
  8
LINE
  6
BYBLOCK
100
AcDbCircle
 10
0.0
 20
-0.0786598526649414
 30
0.0
 40
9.0
100
AcDbArc
 50
320.2909834469317
 51
354.6317953008377
  0
CIRCLE
  5
4F38
330
4F28
100
AcDbEntity
  8
LINE
  6
BYBLOCK
100
AcDbCircle
 10
0.0
 20
-0.0786598526649414
 30
0.0
 40
2.049999999999998
  0
ARC
  5
4F39
330
4F28
100
AcDbEntity
  8
LINE
  6
BYBLOCK
100
AcDbCircle
 10
0.0
 20
-0.0786598526649414
 30
0.0
 40
9.0
100
AcDbArc
 50
140.2909834469317
 51
176.8164916468281
  0
ARC
  5
4F3A
330
4F28
100
AcDbEntity
  8
LINE
  6
BYBLOCK
100
AcDbCircle
 10
0.0
 20
-0.0786598526649414
 30
0.0
 40
8.5
100
AcDbArc
 50
137.4315457967064
 51
180.0
  0
LINE
  5
4F3B
330
4F28
100
AcDbEntity
  8
CENTER
100
AcDbLine
 10
-11.0
 20
-0.0786598526649129
 30
0.0
 11
32.0
 21
-0.078659852664984
 31
0.0
  0
LINE
  5
4F3C
330
4F28
100
AcDbEntity
  8
LINE
100
AcDbLine
 10
-23.0
 20
-0.0786598526649272
 30
0.0
 11
-11.0
 21
-0.0786598526649414
 31
0.0
  0
DIMENSION
  5
4F3D
330
4F28
100
AcDbEntity
  8
DIMENSION
100
AcDbDimension
  2
*D4
 10
-0.9232334628124904
 20
-19.67774711750379
 30
0.0
 11
-8.031548391288652
 21
-13.98970972982485
 31
0.0
 12
-105.0
 22
-113.866303171161
 32
0.0
 70
     1
  1
φ18
  3
VESSEL_ENGINEERING_ORIGINA
100
AcDbAlignedDimension
 13
-7.794228634059934
 23
4.421340147335087
 33
0.0
 14
7.794228634059934
 24
-4.578659852664968
 34
0.0
  0
LINE
  5
4F3E
330
4F28
100
AcDbEntity
  8
HIDDEN
100
AcDbLine
 10
11.0
 20
0.6713401473351013
 30
0.0
 11
11.0
 21
3.421340147335058
 31
0.0
  0
LINE
  5
4F3F
330
4F28
100
AcDbEntity
  8
HIDDEN
100
AcDbLine
 10
11.0
 20
3.421340147335058
 30
0.0
 11
13.0
 21
3.421340147335058
 31
0.0
  0
LINE
  5
4F40
330
4F28
100
AcDbEntity
  8
HIDDEN
100
AcDbLine
 10
13.0
 20
4.576040685714318
 30
0.0
 11
10.99999999999998
 21
3.421340147335058
 31
0.0
  0
LINE
  5
4F41
330
4F28
100
AcDbEntity
  8
HIDDEN
100
AcDbLine
 10
13.0
 20
4.576040685714318
 30
0.0
 11
15.00000000000001
 21
3.421340147335058
 31
0.0
  0
LINE
  5
4F42
330
4F28
100
AcDbEntity
  8
HIDDEN
100
AcDbLine
 10
15.0
 20
3.421340147335058
 30
0.0
 11
13.0
 21
3.421340147335058
 31
0.0
  0
LINE
  5
4F43
330
4F28
100
AcDbEntity
  8
HIDDEN
100
AcDbLine
 10
15.0
 20
0.6713401473351013
 30
0.0
 11
15.0
 21
3.421340147335058
 31
0.0
  0
TEXT
  5
4F44
330
4F28
100
AcDbEntity
  8
TEXT
100
AcDbText
 10
18.0
 20
-18.61630317116101
 30
0.0
 40
1.5
  1
柄部は各角C0.5の事
  7
GOTHIC
 11
18.0
 21
-17.86630317116101
 31
0.0
100
AcDbText
 73
     2
  0
LINE
  5
4F45
330
4F28
100
AcDbEntity
  8
TEXT
100
AcDbLine
 10
18.0
 20
-19.366303171161
 30
0.0
 11
36.0
 21
-19.366303171161
 31
0.0
  0
TEXT
  5
4F46
330
4F28
100
AcDbEntity
  8
TEXT
100
AcDbText
 10
-4.333987041441424
 20
-4.286575764921143
 30
0.0
 40
1.5
  1
Ｖ
 50
127.5000000000002
  7
GOTHIC
 72
     1
 11
-5.355135046965955
 21
-4.187799498473822
 31
0.0
100
AcDbText
 73
     2
  0
TEXT
  5
4F47
330
4F28
100
AcDbEntity
  8
TEXT
100
AcDbText
 10
-5.29453296403051
 20
-2.975282142987861
 30
0.0
 40
1.5
  1
Ｅ
 50
112.4999999999995
  7
GOTHIC
 72
     1
 11
-6.236186844451281
 21
-2.661773021129334
 31
0.0
100
AcDbText
 73
     2
  0
TEXT
  5
4F48
330
4F28
100
AcDbEntity
  8
TEXT
100
AcDbText
 10
-5.857300833688912
 20
-1.555828408946986
 30
0.0
 40
1.5
  1
Ｓ
 50
97.49999999999971
  7
GOTHIC
 72
     1
 11
-6.692252814273302
 21
-0.9597116501503537
 31
0.0
100
AcDbText
 73
     2
  0
TEXT
  5
4F49
330
4F28
100
AcDbEntity
  8
TEXT
100
AcDbText
 10
-6.040037502796977
 20
0.0104858976936549
 30
0.0
 40
1.5
  1
Ｓ
 50
82.5000000000003
  7
GOTHIC
 72
     1
 11
-6.692252814273302
 21
0.8023919448203571
 31
0.0
100
AcDbText
 73
     2
  0
TEXT
  5
4F4A
330
4F28
100
AcDbEntity
  8
TEXT
100
AcDbText
 10
-5.792021426105089
 20
1.616919045393187
 30
0.0
 40
1.5
  1
Ｅ
 50
67.50000000000042
  7
GOTHIC
 72
     1
 11
-6.236186844451252
 21
2.504453315799338
 31
0.0
100
AcDbText
 73
     2
  0
TEXT
  5
4F4B
330
4F28
100
AcDbEntity
  8
TEXT
100
AcDbText
 10
-5.186253042053579
 20
3.018561383183419
 30
0.0
 40
1.5
  1
Ｌ
 50
52.49999999999982
  7
GOTHIC
 72
     1
 11
-5.355135046965897
 21
4.030479793143824
 31
0.0
100
AcDbText
 73
     2
  0
TEXT
  5
4F4C
330
4F28
100
AcDbEntity
  8
TEXT
100
AcDbText
 10
6.13643191659745
 20
3.810682897729096
 30
0.0
 40
1.5
  1
Ｊ
 50
127.5000000000002
  7
GOTHIC
 72
     1
 11
5.145721982523355
 21
3.869791497161854
 31
0.0
100
AcDbText
 73
     2
  0
TEXT
  5
4F4D
330
4F28
100
AcDbEntity
  8
TEXT
100
AcDbText
 10
6.953108217857706
 20
2.043737331614861
 30
0.0
 40
1.5
  1
Ａ
 50
112.4999999999995
  7
GOTHIC
 72
     1
 11
5.992320165818681
 21
2.403440430098952
 31
0.0
100
AcDbText
 73
     2
  0
TEXT
  5
4F4E
330
4F28
100
AcDbEntity
  8
TEXT
100
AcDbText
 10
7.325896193563336
 20
0.1797724058775361
 30
0.0
 40
1.5
  1
３
 50
97.49999999999971
  7
GOTHIC
 72
     1
 11
6.490944212978945
 21
0.7758891646741688
 31
0.0
100
AcDbText
 73
     2
  0
TEXT
  5
4F4F
330
4F28
100
AcDbEntity
  8
TEXT
100
AcDbText
 10
7.149685834066301
 20
-1.675542674062177
 30
0.0
 40
1.5
  1
０
 50
82.5000000000003
  7
GOTHIC
 72
     1
 11
6.490944212978972
 21
-0.9332088700041651
 31
0.0
100
AcDbText
 73
     2
  0
TEXT
  5
4F50
330
4F28
100
AcDbEntity
  8
TEXT
100
AcDbText
 10
6.41735141254659
 20
-3.494488382460636
 30
0.0
 40
1.5
  1
Ｔ
 50
67.50000000000042
  7
GOTHIC
 72
     1
 11
5.992320165818681
 21
-2.56076013542892
 31
0.0
100
AcDbText
 73
     2
  0
TEXT
  5
4F51
330
4F28
100
AcDbEntity
  8
TEXT
100
AcDbText
 10
5.330712684700527
 20
-5.051390250604729
 30
0.0
 40
1.5
  1
Ｎ
 50
52.49999999999982
  7
GOTHIC
 72
     1
 11
5.161830679788208
 21
-4.039471840644323
 31
0.0
100
AcDbText
 73
     2
  0
CIRCLE
  5
4F52
330
4F28
100
AcDbEntity
  8
LINE
100
AcDbCircle
 10
0.0
 20
-0.0786598526649272
 30
0.0
 40
4.75
  0
LINE
  5
4F53
330
4F28
100
AcDbEntity
  8
LINE
100
AcDbLine
 10
-11.06023570539247
 20
5.671340147335072
 30
0.0
 11
8.0
 21
5.671340147335072
 31
0.0
  0
LINE
  5
4F54
330
4F28
100
AcDbEntity
  8
LINE
100
AcDbLine
 10
35.0
 20
0.9213401473350726
 30
0.0
 11
35.0
 21
-0.0786598526649272
 31
0.0
  0
ARC
  5
4F55
330
4F28
100
AcDbEntity
  8
LINE
100
AcDbCircle
 10
-11.06023570539247
 20
-14.32865985266493
 30
0.0
 40
20.0
100
AcDbArc
 50
90.0
 51
130.3149091747084
  0
LINE
  5
4F56
330
4F28
100
AcDbEntity
  8
LINE
100
AcDbLine
 10
-24.0
 20
0.9213401473350726
 30
0.0
 11
-23.0
 21
-0.0786598526649272
 31
0.0
  0
LINE
  5
4F57
330
4F28
100
AcDbEntity
  8
LINE
100
AcDbLine
 10
8.5
 20
-0.0786598526649129
 30
0.0
 11
8.5
 21
-0.0786598526648987
 31
0.0
  0
LINE
  5
4F58
330
4F28
100
AcDbEntity
  8
LINE
100
AcDbLine
 10
9.25
 20
0.6713401473351013
 30
0.0
 11
31.25
 21
0.6713401473351013
 31
0.0
  0
LINE
  5
4F59
330
4F28
100
AcDbEntity
  8
LINE
100
AcDbLine
 10
32.0
 20
-0.0786598526649129
 30
0.0
 11
32.0
 21
-0.0786598526649272
 31
0.0
  0
ARC
  5
4F5A
330
4F28
100
AcDbEntity
  8
LINE
100
AcDbCircle
 10
9.25
 20
-0.0786598526648987
 30
0.0
 40
0.75
100
AcDbArc
 50
90.0
 51
180.0
  0
ARC
  5
4F5B
330
4F28
100
AcDbEntity
  8
LINE
100
AcDbCircle
 10
31.25
 20
-0.0786598526649129
 30
0.0
 40
0.75
100
AcDbArc
 50
0.0
 51
90.0
  0
ARC
  5
4F5C
330
4F28
100
AcDbEntity
  8
LINE
100
AcDbCircle
 10
31.25
 20
-0.0786598526649698
 30
0.0
 40
0.75
100
AcDbArc
 50
270.0
 51
0.0
  0
ARC
  5
4F5D
330
4F28
100
AcDbEntity
  8
LINE
100
AcDbCircle
 10
9.250000000000014
 20
-0.0786598526649414
 30
0.0
 40
0.75
100
AcDbArc
 50
180.0
 51
270.0
  0
LINE
  5
4F5E
330
4F28
100
AcDbEntity
  8
LINE
100
AcDbLine
 10
32.0
 20
-0.0786598526649698
 30
0.0
 11
32.0
 21
-0.0786598526649556
 31
0.0
  0
LINE
  5
4F5F
330
4F28
100
AcDbEntity
  8
LINE
100
AcDbLine
 10
9.250000000000014
 20
-0.8286598526649413
 30
0.0
 11
31.25
 21
-0.8286598526649695
 31
0.0
  0
LINE
  5
4F60
330
4F28
100
AcDbEntity
  8
LINE
100
AcDbLine
 10
8.500000000000014
 20
-0.0786598526649272
 30
0.0
 11
8.500000000000014
 21
-0.0786598526649414
 31
0.0
  0
LINE
  5
4F61
330
4F28
100
AcDbEntity
  8
LINE
100
AcDbLine
 10
35.0
 20
-1.078659852664954
 30
0.0
 11
35.0
 21
-0.0786598526649556
 31
0.0
  0
LINE
  5
4F62
330
4F28
100
AcDbEntity
  8
HIDDEN
100
AcDbLine
 10
15.00000000000001
 20
-0.8286598526649553
 30
0.0
 11
15.0
 21
-3.578659852664912
 31
0.0
  0
LINE
  5
4F63
330
4F28
100
AcDbEntity
  8
HIDDEN
100
AcDbLine
 10
15.0
 20
-3.578659852664912
 30
0.0
 11
13.0
 21
-3.578659852664897
 31
0.0
  0
LINE
  5
4F64
330
4F28
100
AcDbEntity
  8
HIDDEN
100
AcDbLine
 10
13.0
 20
-4.733360391044158
 30
0.0
 11
15.00000000000001
 21
-3.578659852664912
 31
0.0
  0
LINE
  5
4F65
330
4F28
100
AcDbEntity
  8
HIDDEN
100
AcDbLine
 10
13.0
 20
-4.733360391044158
 30
0.0
 11
10.99999999999998
 21
-3.578659852664897
 31
0.0
  0
LINE
  5
4F66
330
4F28
100
AcDbEntity
  8
HIDDEN
100
AcDbLine
 10
11.0
 20
-3.578659852664897
 30
0.0
 11
13.0
 21
-3.578659852664897
 31
0.0
  0
LINE
  5
4F67
330
4F28
100
AcDbEntity
  8
HIDDEN
100
AcDbLine
 10
11.00000000000001
 20
-0.8286598526649413
 30
0.0
 11
11.0
 21
-3.578659852664897
 31
0.0
  0
LINE
  5
4F68
330
4F28
100
AcDbEntity
  8
CENTER
100
AcDbLine
 10
13.00000000000001
 20
-0.0786598526648987
 30
0.0
 11
13.0
 21
-5.078659852664897
 31
0.0
  0
LINE
  5
4F69
330
4F28
100
AcDbEntity
  8
LINE
100
AcDbLine
 10
-11.06023570539248
 20
-5.82865985266487
 30
0.0
 11
7.999999999999985
 21
-5.828659852664912
 31
0.0
  0
ARC
  5
4F6A
330
4F28
100
AcDbEntity
  8
LINE
100
AcDbCircle
 10
-11.06023570539244
 20
14.17134014733506
 30
0.0
 40
20.0
100
AcDbArc
 50
229.6850908252909
 51
270.0
  0
LINE
  5
4F6B
330
4F28
100
AcDbEntity
  8
LINE
100
AcDbLine
 10
-24.00000000000002
 20
-1.078659852664912
 30
0.0
 11
-23.0
 21
-0.0786598526649272
 31
0.0
  0
LINE
  5
4F6C
330
4F28
100
AcDbEntity
  8
CENTER
100
AcDbLine
 10
-24.43552195694337
 20
-0.0786598526649272
 30
0.0
 11
-23.0
 21
-0.0786598526649272
 31
0.0
  0
LINE
  5
4F6D
330
4F28
100
AcDbEntity
  8
LINE
100
AcDbLine
 10
-23.38652874101351
 20
1.421340147335087
 30
0.0
 11
-13.5
 21
1.421340147335071
 31
0.0
  0
LINE
  5
4F6E
330
4F28
100
AcDbEntity
  8
LINE
100
AcDbLine
 10
-10.5
 20
4.421340147335071
 30
0.0
 11
-10.49999999999998
 21
5.671340147335072
 31
0.0
  0
ARC
  5
4F6F
330
4F28
100
AcDbEntity
  8
LINE
100
AcDbCircle
 10
-13.5
 20
4.421340147335071
 30
0.0
 40
3.0
100
AcDbArc
 50
270.0
 51
0.0
  0
ARC
  5
4F70
330
4F28
100
AcDbEntity
  8
LINE
100
AcDbCircle
 10
-13.50000000000001
 20
-4.57865985266494
 30
0.0
 40
3.0
100
AcDbArc
 50
0.0
 51
90.0
  0
LINE
  5
4F71
330
4F28
100
AcDbEntity
  8
LINE
100
AcDbLine
 10
-10.50000000000001
 20
-4.578659852664954
 30
0.0
 11
-10.5
 21
-5.828659852664954
 31
0.0
  0
LINE
  5
4F72
330
4F28
100
AcDbEntity
  8
LINE
100
AcDbLine
 10
-23.38652874101351
 20
-1.57865985266494
 30
0.0
 11
-13.50000000000001
 21
-1.57865985266494
 31
0.0
  0
DIMENSION
  5
4F73
330
4F28
100
AcDbEntity
  8
DIMENSION
100
AcDbDimension
  2
*D6
 10
35.0
 20
18.13369682883898
 30
0.0
 11
5.5
 21
19.38369682883898
 31
0.0
 12
-105.0
 22
-113.866303171161
 32
0.0
  3
VESSEL_ENGINEERING_ORIGINA
100
AcDbAlignedDimension
 13
-24.0
 23
0.9213401473350726
 33
0.0
 14
35.0
 24
0.9213401473350726
 34
0.0
100
AcDbRotatedDimension
1001
ACAD
1000
DSTYLE
1002
{
1070
   287
1070
     3
1070
   287
1070
     3
1070
   279
1070
     0
1002
}
  0
DIMENSION
  5
4F74
330
4F28
100
AcDbEntity
  8
DIMENSION
100
AcDbDimension
  2
*D8
 10
39.0
 20
-1.078659852664954
 30
0.0
 11
37.74999999999996
 21
-0.0786598526649272
 31
0.0
 12
-105.0
 22
-113.866303171161
 32
0.0
  3
VESSEL_ENGINEERING_ORIGINA
100
AcDbAlignedDimension
 13
35.0
 23
0.9213401473350726
 33
0.0
 14
35.0
 24
-1.078659852664954
 34
0.0
 50
90.0
100
AcDbRotatedDimension
  0
DIMENSION
  5
4F75
330
4F28
100
AcDbEntity
  8
DIMENSION
100
AcDbDimension
  2
*D10
 10
43.5
 20
-3.578659852664841
 30
0.0
 11
42.24999999999996
 21
-0.0786598526648987
 31
0.0
 12
-105.0
 22
-113.866303171161
 32
0.0
  3
VESSEL_ENGINEERING_ORIGINA
100
AcDbAlignedDimension
 13
31.5
 23
3.421340147335016
 33
0.0
 14
31.5
 24
-3.578659852664841
 34
0.0
 50
90.0
100
AcDbRotatedDimension
  0
DIMENSION
  5
4F76
330
4F28
100
AcDbEntity
  8
DIMENSION
100
AcDbDimension
  2
*D12
 10
19.50000000000002
 20
-0.8286598526649553
 30
0.0
 11
19.45994109721129
 21
2.953341940126108
 31
0.0
 12
-105.0
 22
-113.866303171161
 32
0.0
 70
   128
  3
VESSEL_ENGINEERING_ORIGINA
100
AcDbAlignedDimension
 13
15.0
 23
0.6713401473351013
 33
0.0
 14
15.00000000000001
 24
-0.8286598526649553
 34
0.0
 50
90.0
100
AcDbRotatedDimension
1001
ACAD
1000
DSTYLE
1002
{
1070
    76
1070
     1
1070
    75
1070
     1
1002
}
  0
DIMENSION
  5
4F77
330
4F28
100
AcDbEntity
  8
DIMENSION
100
AcDbDimension
  2
*D14
 10
-28.5
 20
-1.078659852664912
 30
0.0
 11
-29.75000000000003
 21
-0.0786598526649129
 31
0.0
 12
-105.0
 22
-113.866303171161
 32
0.0
  3
VESSEL_ENGINEERING_ORIGINA
100
AcDbAlignedDimension
 13
-24.0
 23
0.9213401473350726
 33
0.0
 14
-24.0
 24
-1.078659852664912
 34
0.0
 50
90.0
100
AcDbRotatedDimension
  0
LINE
  5
4F78
330
4F28
100
AcDbEntity
  8
DIMENSION
 62
     3
100
AcDbLine
 10
-24.0
 20
0.9213401473350726
 30
0.0
 11
-32.19377443878048
 21
9.115114586115552
 31
0.0
  0
LINE
  5
4F79
330
4F28
100
AcDbEntity
  8
DIMENSION
 62
     3
100
AcDbLine
 10
-24.00000000000002
 20
-1.078659852664912
 30
0.0
 11
-32.19377443878064
 21
-9.272434291445264
 31
0.0
  0
ARC
  5
4F7A
330
4F28
100
AcDbEntity
  8
DIMENSION
 62
     3
100
AcDbCircle
 10
-23.0
 20
-0.0786598526649272
 30
0.0
 40
11.50196050072245
100
AcDbArc
 50
139.9829627148529
 51
220.0170372851458
  0
INSERT
  5
4F7B
330
4F28
100
AcDbEntity
  8
DIMENSION
 62
     3
100
AcDbBlockReference
  2
_OPEN30
 10
-31.13311426700067
 20
8.054454414335737
 30
0.0
 50
47.49148135742673
  0
INSERT
  5
4F7C
330
4F28
100
AcDbEntity
  8
DIMENSION
 62
     3
100
AcDbBlockReference
  2
_OPEN30
 10
-31.13311426700079
 20
-8.211774119665461
 30
0.0
 50
312.5085186425727
  0
INSERT
  5
4F7E
330
4F28
100
AcDbEntity
  8
0
100
AcDbBlockReference
  2
*U43
 10
0.0
 20
0.0
 30
0.0
  0
DIMENSION
  5
4F7F
330
4F28
100
AcDbEntity
  8
DIMENSION
100
AcDbDimension
  2
*D16
 10
13.0
 20
-11.866303171161
 30
0.0
 11
6.5
 21
-10.616303171161
 31
0.0
 12
-105.0
 22
-113.866303171161
 32
0.0
  3
VESSEL_ENGINEERING_ORIGINA
100
AcDbAlignedDimension
 13
0.0
 23
-7.366303171161006
 33
0.0
 14
13.0
 24
-5.078659852664897
 34
0.0
100
AcDbRotatedDimension
1001
ACAD
1000
DSTYLE
1002
{
1070
   287
1070
     3
1070
   287
1070
     3
1070
   279
1070
     0
1002
}
  0
DIMENSION
  5
4F80
330
4F28
100
AcDbEntity
  8
DIMENSION
100
AcDbDimension
  2
*D18
 10
35.0
 20
-11.866303171161
 30
0.0
 11
33.5
 21
-10.616303171161
 31
0.0
 12
-105.0
 22
-113.866303171161
 32
0.0
  3
VESSEL_ENGINEERING_ORIGINA
100
AcDbAlignedDimension
 13
32.0
 23
-0.0786598526649129
 33
0.0
 14
35.0
 24
-1.078659852664954
 34
0.0
100
AcDbRotatedDimension
  0
INSERT
  5
4F82
330
4F28
100
AcDbEntity
  8
0
100
AcDbBlockReference
  2
*U44
 10
0.0
 20
0.0
 30
0.0
  0
INSERT
  5
4F83
330
4F28
100
AcDbEntity
  8
DIMENSION
100
AcDbBlockReference
  2
_OPEN30
 10
14.01862236971871
 20
-4.145258491684501
 30
0.0
 50
100.8609177355813
1001
ACAD
1000
DSTYLE
1002
{
1070
   147
1040
0.5
1070
    77
1070
     1
1002
}
  0
LINE
  5
4F84
330
4F28
100
AcDbEntity
  8
DIMENSION
100
AcDbLine
 10
14.2070479607943
 20
-5.127345960613722
 30
0.0
 11
15.5
 21
-11.866303171161
 31
0.0
1001
ACAD
1000
DSTYLE
1002
{
1070
   147
1040
0.5
1070
    77
1070
     1
1002
}
  0
LINE
  5
4F85
330
4F28
100
AcDbEntity
  8
DIMENSION
100
AcDbLine
 10
15.5
 20
-11.866303171161
 30
0.0
 11
25.35610575749581
 21
-11.866303171161
 31
0.0
1001
ACAD
1000
DSTYLE
1002
{
1070
   147
1040
0.5
1070
    77
1070
     1
1002
}
  0
DIMENSION
  5
4F86
330
4F28
100
AcDbEntity
  8
DIMENSION
100
AcDbDimension
  2
*D20
 10
-13.50000000000002
 20
4.421340147335057
 30
0.0
 11
-12.88546487444292
 21
3.498995581628348
 31
0.0
 12
-105.0
 22
-113.866303171161
 32
0.0
 70
   132
  3
VESSEL_ENGINEERING_ORIGIN3
100
AcDbRadialDimension
 15
-11.83657643570756
 25
1.924738047328503
 35
0.0
 40
0.0
1001
ACAD
1000
DSTYLE
1002
{
1070
   288
1070
     1
1002
}
  0
DIMENSION
  5
4F87
330
4F28
100
AcDbEntity
  8
DIMENSION
100
AcDbDimension
  2
*D22
 10
-14.99999999999997
 20
-1.578659852664926
 30
0.0
 11
-15.00144961426473
 21
3.39543111629588
 31
0.0
 12
-105.0
 22
-113.866303171161
 32
0.0
 70
   128
  3
VESSEL_ENGINEERING_ORIGINA
100
AcDbAlignedDimension
 13
-23.38652874101348
 23
1.421340147335087
 33
0.0
 14
-23.38652874101351
 24
-1.578659852664926
 34
0.0
 50
90.0
100
AcDbRotatedDimension
1001
ACAD
1000
DSTYLE
1002
{
1070
    76
1070
     1
1070
    75
1070
     1
1002
}
  0
INSERT
  5
4F88
330
4F28
100
AcDbEntity
  8
DIMENSION
100
AcDbBlockReference
  2
_OPEN30
 10
-16.67345921667942
 20
-5.024798053155563
 30
0.0
 50
71.12175098793646
1001
ACAD
1000
DSTYLE
1002
{
1070
   147
1040
0.5
1070
    77
1070
     1
1002
}
  0
POLYLINE
  5
4F89
330
4F28
100
AcDbEntity
  8
DIMENSION
100
AcDb2dPolyline
 66
     1
 10
0.0
 20
0.0
 30
0.0
1001
ACAD
1000
DSTYLE
1002
{
1070
   147
1040
0.5
1070
    77
1070
     1
1002
}
  0
VERTEX
  5
4F8A
330
4F89
100
AcDbEntity
  8
DIMENSION
100
AcDbVertex
100
AcDb2dVertex
 10
-16.997017452609
 20
-5.971006311395868
 30
0.0
  0
VERTEX
  5
4F8B
330
4F89
100
AcDbEntity
  8
DIMENSION
100
AcDbVertex
100
AcDb2dVertex
 10
-18.5
 20
-10.366303171161
 30
0.0
  0
VERTEX
  5
4F8C
330
4F89
100
AcDbEntity
  8
DIMENSION
100
AcDbVertex
100
AcDb2dVertex
 10
-23.22166397739628
 20
-10.366303171161
 30
0.0
  0
SEQEND
  5
4F8D
330
4F89
100
AcDbEntity
  8
DIMENSION
  0
TEXT
  5
4F8E
330
4F28
100
AcDbEntity
  8
DIMENSION
100
AcDbText
 10
-22.5
 20
-9.616303171161005
 30
0.0
 40
1.5
  1
R20
  7
GOTHIC
 11
-22.5
 21
-8.866303171161005
 31
0.0
100
AcDbText
 73
     2
  0
LINE
  5
4F8F
330
4F28
100
AcDbEntity
  8
CENTER
100
AcDbLine
 10
35.0
 20
-0.0786598526649414
 30
0.0
 11
36.54536040722496
 21
-0.0786598526649414
 31
0.0
  0
LINE
  5
4F90
330
4F28
100
AcDbEntity
  8
LINE
100
AcDbLine
 10
32.0
 20
-0.0786598526649982
 30
0.0
 11
35.0
 21
-0.0786598526649556
 31
0.0
  0
DIMENSION
  5
4F91
330
4F28
100
AcDbEntity
  8
DIMENSION
100
AcDbDimension
  2
*D24
 10
0.4824975970455938
 20
-16.24294950005196
 30
0.0
 11
-6.192804629538358
 21
-10.80491211237304
 31
0.0
 12
-105.0
 22
-113.866303171161
 32
0.0
 70
     1
  1
φ17
  3
VESSEL_ENGINEERING_ORIGINA
100
AcDbAlignedDimension
 13
-7.36121593216771
 23
4.1713401473351
 33
0.0
 14
7.361215932167723
 24
-4.328659852664954
 34
0.0
  0
DIMENSION
  5
4F92
330
4F28
100
AcDbEntity
  8
DIMENSION
100
AcDbDimension
  2
*D26
 10
-10.5
 20
9.133696828838992
 30
0.0
 11
-17.25
 21
10.38369682883899
 31
0.0
 12
-105.0
 22
-113.866303171161
 32
0.0
  3
VESSEL_ENGINEERING_ORIGINA
100
AcDbAlignedDimension
 13
-24.0
 23
0.921340147335087
 33
0.0
 14
-10.5
 24
5.671340147335072
 34
0.0
100
AcDbRotatedDimension
1001
ACAD
1000
DSTYLE
1002
{
1070
    75
1070
     1
1002
}
  0
DIMENSION
  5
4F93
330
4F28
100
AcDbEntity
  8
DIMENSION
100
AcDbDimension
  2
*D28
 10
0.0
 20
9.133696828838992
 30
0.0
 11
-5.25
 21
10.38369682883899
 31
0.0
 12
-105.0
 22
-113.866303171161
 32
0.0
  3
VESSEL_ENGINEERING_ORIGINA
100
AcDbAlignedDimension
 13
-10.49999999999998
 23
5.671340147335072
 33
0.0
 14
0.0
 24
7.366303171161006
 34
0.0
100
AcDbRotatedDimension
1001
ACAD
1000
DSTYLE
1002
{
1070
    76
1070
     1
1002
}
  0
DIMENSION
  5
4F94
330
4F28
100
AcDbEntity
  8
DIMENSION
100
AcDbDimension
  2
*D30
 10
8.0
 20
9.133696828838992
 30
0.0
 11
4.0
 21
10.38369682883899
 31
0.0
 12
-105.0
 22
-113.866303171161
 32
0.0
  3
VESSEL_ENGINEERING_ORIGINA
100
AcDbAlignedDimension
 13
0.0
 23
7.366303171161006
 33
0.0
 14
8.0
 24
5.671340147335072
 34
0.0
100
AcDbRotatedDimension
1001
ACAD
1000
DSTYLE
1002
{
1070
    75
1070
     1
1002
}
  0
DIMENSION
  5
4F95
330
4F28
100
AcDbEntity
  8
DIMENSION
100
AcDbDimension
  2
*D32
 10
31.5
 20
9.133696828838992
 30
0.0
 11
19.75
 21
10.38369682883899
 31
0.0
 12
-105.0
 22
-113.866303171161
 32
0.0
  3
VESSEL_ENGINEERING_ORIGINA
100
AcDbAlignedDimension
 13
8.0
 23
5.671340147335072
 33
0.0
 14
31.5
 24
3.421340147335087
 34
0.0
100
AcDbRotatedDimension
  0
DIMENSION
  5
4F96
330
4F28
100
AcDbEntity
  8
DIMENSION
100
AcDbDimension
  2
*D34
 10
35.0
 20
9.133696828838992
 30
0.0
 11
33.24902310835682
 21
9.133518062275696
 31
0.0
 12
-105.0
 22
-113.866303171161
 32
0.0
 70
   128
  3
VESSEL_ENGINEERING_ORIGINA
100
AcDbAlignedDimension
 13
31.5
 23
3.421340147335016
 33
0.0
 14
35.0
 24
0.9213401473350726
 34
0.0
100
AcDbRotatedDimension
1001
ACAD
1000
DSTYLE
1002
{
1070
    76
1070
     1
1002
}
  0
DIMENSION
  5
4F97
330
4F28
100
AcDbEntity
  8
DIMENSION
100
AcDbDimension
  2
*D36
 10
0.0
 20
13.63369682883899
 30
0.0
 11
-12.0
 21
14.88369682883899
 31
0.0
 12
-105.0
 22
-113.866303171161
 32
0.0
  3
VESSEL_ENGINEERING_ORIGINA
100
AcDbAlignedDimension
 13
-24.0
 23
0.9213401473350726
 33
0.0
 14
0.0
 24
7.366303171161006
 34
0.0
100
AcDbRotatedDimension
1001
ACAD
1000
DSTYLE
1002
{
1070
    75
1070
     1
1002
}
  0
DIMENSION
  5
4F98
330
4F28
100
AcDbEntity
  8
DIMENSION
100
AcDbDimension
  2
*D38
 10
35.0
 20
13.63369682883899
 30
0.0
 11
17.5
 21
14.88369682883899
 31
0.0
 12
-105.0
 22
-113.866303171161
 32
0.0
  3
VESSEL_ENGINEERING_ORIGINA
100
AcDbAlignedDimension
 13
0.0
 23
7.366303171161006
 33
0.0
 14
35.0
 24
0.9213401473350726
 34
0.0
100
AcDbRotatedDimension
1001
ACAD
1000
DSTYLE
1002
{
1070
    76
1070
     1
1070
    75
1070
     1
1002
}
  0
LINE
  5
4F99
330
4F28
100
AcDbEntity
  8
LINE
100
AcDbLine
 10
8.0
 20
5.671340147335072
 30
0.0
 11
30.69789578417371
 21
3.498137359488595
 31
0.0
  0
LINE
  5
4F9A
330
4F28
100
AcDbEntity
  8
LINE
100
AcDbLine
 10
32.15568388330587
 20
2.952994516402242
 30
0.0
 11
35.0
 21
0.9213401473350726
 31
0.0
  0
ARC
  5
4F9B
330
4F28
100
AcDbEntity
  8
LINE
100
AcDbCircle
 10
30.4119693021486
 20
0.5117941027820195
 30
0.0
 40
3.0
100
AcDbArc
 50
54.46232220802638
 51
84.53090502988819
  0
LINE
  5
4F9C
330
4F28
100
AcDbEntity
  8
DIMENSION
100
AcDbLine
 10
30.69789578417371
 20
3.498137359488595
 30
0.0
 11
31.5
 21
3.421340147335016
 31
0.0
  0
LINE
  5
4F9D
330
4F28
100
AcDbEntity
  8
DIMENSION
100
AcDbLine
 10
31.5
 20
3.421340147335016
 30
0.0
 11
32.15568388330587
 21
2.952994516402256
 31
0.0
  0
LINE
  5
4F9E
330
4F28
100
AcDbEntity
  8
LINE
100
AcDbLine
 10
8.0
 20
-5.828659852664927
 30
0.0
 11
30.69789578417371
 21
-3.655457064818421
 31
0.0
  0
LINE
  5
4F9F
330
4F28
100
AcDbEntity
  8
LINE
100
AcDbLine
 10
32.15568388330587
 20
-3.110314221732068
 30
0.0
 11
35.0
 21
-1.078659852664898
 31
0.0
  0
ARC
  5
4FA0
330
4F28
100
AcDbEntity
  8
LINE
100
AcDbCircle
 10
30.4119693021486
 20
-0.6691138081118453
 30
0.0
 40
3.0
100
AcDbArc
 50
275.4690949701118
 51
305.5376777919736
  0
LINE
  5
4FA1
330
4F28
100
AcDbEntity
  8
DIMENSION
100
AcDbLine
 10
30.69789578417371
 20
-3.655457064818421
 30
0.0
 11
31.5
 21
-3.578659852664841
 31
0.0
  0
LINE
  5
4FA2
330
4F28
100
AcDbEntity
  8
DIMENSION
100
AcDbLine
 10
31.5
 20
-3.578659852664841
 30
0.0
 11
32.15568388330587
 21
-3.110314221732081
 31
0.0
  0
LINE
  5
4FA3
330
4F28
100
AcDbEntity
  8
LINE
100
AcDbLine
 10
29.5
 20
3.61282950903714
 30
0.0
 11
33.57784194165295
 21
1.937167331868663
 31
0.0
  0
LINE
  5
4FA4
330
4F28
100
AcDbEntity
  8
LINE
100
AcDbLine
 10
29.5
 20
-3.770149214366965
 30
0.0
 11
33.57784194165295
 21
-2.09448703719849
 31
0.0
  0
DIMENSION
  5
4FA5
330
4F28
100
AcDbEntity
  8
DIMENSION
100
AcDbDimension
  2
*D40
 10
30.41196930214809
 20
-0.6691138081123711
 30
0.0
 11
37.04661332781378
 21
-10.3659441436392
 31
0.0
 12
-105.0
 22
-113.866303171161
 32
0.0
 70
   132
  3
VESSEL_ENGINEERING_ORIGIN3
100
AcDbRadialDimension
 15
31.84299769053613
 25
-3.305808282568107
 35
0.0
 40
0.0
1001
ACAD
1000
DSTYLE
1002
{
1070
   288
1070
     1
1002
}
  0
ENDBLK
  5
4FA6
330
4F28
100
AcDbEntity
  8
0
100
AcDbBlockEnd
  0
BLOCK
  5
5146
330
4F7D
100
AcDbEntity
  8
0
100
AcDbBlockBegin
  2
*U43
 70
     1
 10
0.0
 20
0.0
 30
0.0
  3
*U43
  1

  0
TEXT
  5
5147
330
4F7D
100
AcDbEntity
  8
DIMENSION
 62
     3
100
AcDbText
 10
-35.00196050072246
 20
-0.888832596554683
 30
0.0
 40
1.5
  1
90°
 50
90.0
  7
GOTHIC
100
AcDbText
  0
ENDBLK
  5
5148
330
4F7D
100
AcDbEntity
  8
0
100
AcDbBlockEnd
  0
BLOCK
  5
5149
330
4F81
100
AcDbEntity
  8
0
100
AcDbBlockBegin
  2
*U44
 70
     1
 10
0.0
 20
0.0
 30
0.0
  3
*U44
  1

  0
TEXT
  5
514A
330
4F81
100
AcDbEntity
  8
DIMENSION
 62
     3
100
AcDbText
 10
16.60406091370558
 20
-11.12264834882598
 30
0.0
 40
1.5
  1
φ4深2.5
  7
GOTHIC
100
AcDbText
  0
ENDBLK
  5
514B
330
4F81
100
AcDbEntity
  8
0
100
AcDbBlockEnd
  0
BLOCK
  5
4FA8
330
4FA7
100
AcDbEntity
  8
0
100
AcDbBlockBegin
  2
*D45
 70
     1
 10
0.0
 20
0.0
 30
0.0
  3
*D45
  1

  0
LINE
  5
4FA9
330
4FA7
100
AcDbEntity
  8
DIMENSION
100
AcDbLine
 10
66.45577136594008
 20
77.99999999999993
 30
0.0
 11
56.69383401302976
 21
61.09182852445496
 31
0.0
  0
LINE
  5
4FAA
330
4FA7
100
AcDbEntity
  8
DIMENSION
100
AcDbLine
 10
82.04422863405993
 20
68.9999999999999
 30
0.0
 11
72.28229128114965
 21
52.09182852445493
 31
0.0
  0
LINE
  5
4FAB
330
4FA7
100
AcDbEntity
  8
DIMENSION
100
AcDbLine
 10
58.3098594168142
 20
61.89086663013164
 30
0.0
 11
72.1662658773652
 21
53.89086663013157
 31
0.0
  0
INSERT
  5
4FAC
330
4FA7
100
AcDbEntity
  8
DIMENSION
100
AcDbBlockReference
  2
_OPEN30
 10
57.44383401302978
 20
62.39086663013162
 30
0.0
 50
149.9999999999998
  0
INSERT
  5
4FAD
330
4FA7
100
AcDbEntity
  8
DIMENSION
100
AcDbBlockReference
  2
_OPEN30
 10
73.03229128114963
 20
53.39086663013159
 30
0.0
 50
329.9999999999997
  0
INSERT
  5
4FAF
330
4FA7
100
AcDbEntity
  8
0
100
AcDbBlockReference
  2
*U46
 10
0.0
 20
0.0
 30
0.0
  0
POINT
  5
4FB0
330
4FA7
100
AcDbEntity
  8
DEFPOINTS
 62
     0
100
AcDbPoint
 10
66.45577136594008
 20
77.99999999999993
 30
0.0
  0
POINT
  5
4FB1
330
4FA7
100
AcDbEntity
  8
DEFPOINTS
 62
     0
100
AcDbPoint
 10
82.04422863405993
 20
68.9999999999999
 30
0.0
  0
POINT
  5
4FB2
330
4FA7
100
AcDbEntity
  8
DEFPOINTS
 62
     0
100
AcDbPoint
 10
73.03229128114963
 20
53.39086663013159
 30
0.0
  0
ENDBLK
  5
4FB3
330
4FA7
100
AcDbEntity
  8
0
100
AcDbBlockEnd
  0
BLOCK
  5
536C
330
4FAE
100
AcDbEntity
  8
0
100
AcDbBlockBegin
  2
*U46
 70
     1
 10
0.0
 20
0.0
 30
0.0
  3
*U46
  1

  0
TEXT
  5
536D
330
4FAE
100
AcDbEntity
  8
DIMENSION
100
AcDbText
 10
63.79321494092767
 20
59.58374846594085
 30
0.0
 40
1.5
  1
φ18
 50
329.9999999999997
  7
GOTHIC
100
AcDbText
  0
ENDBLK
  5
536E
330
4FAE
100
AcDbEntity
  8
0
100
AcDbBlockEnd
  0
BLOCK
  5
4FB5
330
4FB4
100
AcDbEntity
  8
0
100
AcDbBlockBegin
  2
*D47
 70
     1
 10
0.0
 20
0.0
 30
0.0
  3
*D47
  1

  0
LINE
  5
4FB6
330
4FB4
100
AcDbEntity
  8
DIMENSION
100
AcDbLine
 10
66.88878406783229
 20
77.7499999999999
 30
0.0
 11
58.90136576776034
 21
63.91538568296994
 31
0.0
  0
LINE
  5
4FB7
330
4FB4
100
AcDbEntity
  8
DIMENSION
100
AcDbLine
 10
81.61121593216769
 20
69.2499999999999
 30
0.0
 11
73.62379763209578
 21
55.41538568296992
 31
0.0
  0
LINE
  5
4FB8
330
4FB4
100
AcDbEntity
  8
DIMENSION
100
AcDbLine
 10
60.51739117154479
 20
64.7144237886466
 30
0.0
 11
73.50777222831135
 21
57.21442378864658
 31
0.0
  0
INSERT
  5
4FB9
330
4FB4
100
AcDbEntity
  8
DIMENSION
100
AcDbBlockReference
  2
_OPEN30
 10
59.65136576776036
 20
65.21442378864661
 30
0.0
 50
149.9999999999998
  0
INSERT
  5
4FBA
330
4FB4
100
AcDbEntity
  8
DIMENSION
100
AcDbBlockReference
  2
_OPEN30
 10
74.37379763209579
 20
56.71442378864657
 30
0.0
 50
329.9999999999998
  0
INSERT
  5
4FBC
330
4FB4
100
AcDbEntity
  8
0
100
AcDbBlockReference
  2
*U48
 10
0.0
 20
0.0
 30
0.0
  0
POINT
  5
4FBD
330
4FB4
100
AcDbEntity
  8
DEFPOINTS
 62
     0
100
AcDbPoint
 10
66.88878406783229
 20
77.7499999999999
 30
0.0
  0
POINT
  5
4FBE
330
4FB4
100
AcDbEntity
  8
DEFPOINTS
 62
     0
100
AcDbPoint
 10
81.61121593216769
 20
69.2499999999999
 30
0.0
  0
POINT
  5
4FBF
330
4FB4
100
AcDbEntity
  8
DEFPOINTS
 62
     0
100
AcDbPoint
 10
74.37379763209579
 20
56.71442378864657
 30
0.0
  0
ENDBLK
  5
4FC0
330
4FB4
100
AcDbEntity
  8
0
100
AcDbBlockEnd
  0
BLOCK
  5
536F
330
4FBB
100
AcDbEntity
  8
0
100
AcDbBlockBegin
  2
*U48
 70
     1
 10
0.0
 20
0.0
 30
0.0
  3
*U48
  1

  0
TEXT
  5
5370
330
4FBB
100
AcDbEntity
  8
DIMENSION
100
AcDbText
 10
65.5809221978846
 20
62.64969141125785
 30
0.0
 40
1.5
  1
φ17
 50
329.9999999999998
  7
GOTHIC
100
AcDbText
  0
ENDBLK
  5
5371
330
4FBB
100
AcDbEntity
  8
0
100
AcDbBlockEnd
  0
BLOCK
  5
4FC2
330
4FC1
100
AcDbEntity
  8
0
100
AcDbBlockBegin
  2
*D49
 70
     1
 10
0.0
 20
0.0
 30
0.0
  3
*D49
  1

  0
LINE
  5
4FC3
330
4FC1
100
AcDbEntity
  8
DIMENSION
100
AcDbLine
 10
110.25
 20
74.4999999999999
 30
0.0
 11
116.25
 21
74.4999999999999
 31
0.0
  0
LINE
  5
4FC4
330
4FC1
100
AcDbEntity
  8
DIMENSION
100
AcDbLine
 10
110.25
 20
72.4999999999999
 30
0.0
 11
116.25
 21
72.4999999999999
 31
0.0
  0
LINE
  5
4FC5
330
4FC1
100
AcDbEntity
  8
DIMENSION
100
AcDbLine
 10
114.7499999999999
 20
75.4999999999999
 30
0.0
 11
114.7499999999999
 21
76.4999999999999
 31
0.0
  0
LINE
  5
4FC6
330
4FC1
100
AcDbEntity
  8
DIMENSION
100
AcDbLine
 10
114.7499999999999
 20
71.4999999999999
 30
0.0
 11
114.7499999999999
 21
70.4999999999999
 31
0.0
  0
LINE
  5
4FC7
330
4FC1
100
AcDbEntity
  8
DIMENSION
100
AcDbLine
 10
114.7499999999999
 20
74.4999999999999
 30
0.0
 11
114.7499999999999
 21
72.4999999999999
 31
0.0
  0
INSERT
  5
4FC8
330
4FC1
100
AcDbEntity
  8
DIMENSION
100
AcDbBlockReference
  2
_OPEN30
 10
114.7499999999999
 20
74.4999999999999
 30
0.0
 50
270.0
  0
INSERT
  5
4FC9
330
4FC1
100
AcDbEntity
  8
DIMENSION
100
AcDbBlockReference
  2
_OPEN30
 10
114.7499999999999
 20
72.4999999999999
 30
0.0
 50
90.0
  0
INSERT
  5
4FCB
330
4FC1
100
AcDbEntity
  8
0
100
AcDbBlockReference
  2
*U50
 10
0.0
 20
0.0
 30
0.0
  0
POINT
  5
4FCC
330
4FC1
100
AcDbEntity
  8
DEFPOINTS
 62
     0
100
AcDbPoint
 10
110.25
 20
74.4999999999999
 30
0.0
  0
POINT
  5
4FCD
330
4FC1
100
AcDbEntity
  8
DEFPOINTS
 62
     0
100
AcDbPoint
 10
110.25
 20
72.4999999999999
 30
0.0
  0
POINT
  5
4FCE
330
4FC1
100
AcDbEntity
  8
DEFPOINTS
 62
     0
100
AcDbPoint
 10
114.7499999999999
 20
72.4999999999999
 30
0.0
  0
ENDBLK
  5
4FCF
330
4FC1
100
AcDbEntity
  8
0
100
AcDbBlockEnd
  0
BLOCK
  5
5378
330
4FCA
100
AcDbEntity
  8
0
100
AcDbBlockBegin
  2
*U50
 70
     1
 10
0.0
 20
0.0
 30
0.0
  3
*U50
  1

  0
TEXT
  5
5379
330
4FCA
100
AcDbEntity
  8
DIMENSION
100
AcDbText
 10
114.25
 20
73.02030456852785
 30
0.0
 40
1.5
  1
2
 50
90.0
  7
GOTHIC
100
AcDbText
  0
ENDBLK
  5
537A
330
4FCA
100
AcDbEntity
  8
0
100
AcDbBlockEnd
  0
BLOCK
  5
4FD1
330
4FD0
100
AcDbEntity
  8
0
100
AcDbBlockBegin
  2
*D51
 70
     1
 10
0.0
 20
0.0
 30
0.0
  3
*D51
  1

  0
LINE
  5
4FD2
330
4FD0
100
AcDbEntity
  8
DIMENSION
100
AcDbLine
 10
63.25
 20
73.4999999999999
 30
0.0
 11
63.25
 21
88.49999999999999
 31
0.0
  0
LINE
  5
4FD3
330
4FD0
100
AcDbEntity
  8
DIMENSION
100
AcDbLine
 10
46.25
 20
87.0
 30
0.0
 11
62.25
 21
87.0
 31
0.0
  0
INSERT
  5
4FD4
330
4FD0
100
AcDbEntity
  8
DIMENSION
100
AcDbBlockReference
  2
_OPEN30
 10
45.25
 20
87.0
 30
0.0
 50
180.0
  0
INSERT
  5
4FD5
330
4FD0
100
AcDbEntity
  8
DIMENSION
100
AcDbBlockReference
  2
_OPEN30
 10
63.25
 20
87.0
 30
0.0
  0
TEXT
  5
4FD6
330
4FD0
100
AcDbEntity
  8
DIMENSION
100
AcDbText
 10
54.25
 20
86.3
 30
0.0
 40
1.5
  1
18
  7
GOTHIC
100
AcDbText
  0
POINT
  5
4FD7
330
4FD0
100
AcDbEntity
  8
DEFPOINTS
 62
     0
100
AcDbPoint
 10
45.25
 20
74.9999999999999
 30
0.0
  0
POINT
  5
4FD8
330
4FD0
100
AcDbEntity
  8
DEFPOINTS
 62
     0
100
AcDbPoint
 10
63.25
 20
73.4999999999999
 30
0.0
  0
POINT
  5
4FD9
330
4FD0
100
AcDbEntity
  8
DEFPOINTS
 62
     0
100
AcDbPoint
 10
63.25
 20
87.0
 30
0.0
  0
ENDBLK
  5
4FDA
330
4FD0
100
AcDbEntity
  8
0
100
AcDbBlockEnd
  0
BLOCK
  5
4FDC
330
4FDB
100
AcDbEntity
  8
0
100
AcDbBlockBegin
  2
*D52
 70
     1
 10
0.0
 20
0.0
 30
0.0
  3
*D52
  1

  0
LINE
  5
4FDD
330
4FDB
100
AcDbEntity
  8
DIMENSION
100
AcDbLine
 10
105.1641894769453
 20
70.65515302779977
 30
0.0
 11
106.5202006770602
 21
69.18503955423297
 31
0.0
  0
LINE
  5
4FDE
330
4FDB
100
AcDbEntity
  8
DIMENSION
100
AcDbLine
 10
107.1982062771178
 20
68.4499828174496
 30
0.0
 11
113.3781725888322
 21
61.74999999999966
 31
0.0
  0
LINE
  5
4FDF
330
4FDB
100
AcDbEntity
  8
DIMENSION
100
AcDbLine
 10
113.3781725888322
 20
61.74999999999966
 30
0.0
 11
115.6218274111671
 21
61.74999999999966
 31
0.0
  0
INSERT
  5
4FE0
330
4FDB
100
AcDbEntity
  8
DIMENSION
100
AcDbBlockReference
  2
_OPEN30
 10
107.1982062771178
 20
68.4499828174496
 30
0.0
 50
312.6879894938469
  0
INSERT
  5
4FE2
330
4FDB
100
AcDbEntity
  8
0
100
AcDbBlockReference
  2
*U53
 10
0.0
 20
0.0
 30
0.0
  0
POINT
  5
4FE3
330
4FDB
100
AcDbEntity
  8
DEFPOINTS
 62
     0
100
AcDbPoint
 10
107.1982062771178
 20
68.4499828174496
 30
0.0
  0
POINT
  5
4FE4
330
4FDB
100
AcDbEntity
  8
DEFPOINTS
 62
     0
100
AcDbPoint
 10
105.1641894769453
 20
70.65515302779977
 30
0.0
  0
ENDBLK
  5
4FE5
330
4FDB
100
AcDbEntity
  8
0
100
AcDbBlockEnd
  0
BLOCK
  5
538D
330
4FE1
100
AcDbEntity
  8
0
100
AcDbBlockBegin
  2
*U53
 70
     1
 10
0.0
 20
0.0
 30
0.0
  3
*U53
  1

  0
TEXT
  5
538E
330
4FE1
100
AcDbEntity
  8
DIMENSION
100
AcDbText
 10
113.7868020304565
 20
62.24999999999965
 30
0.0
 40
1.5
  1
R3
  7
GOTHIC
100
AcDbText
  0
ENDBLK
  5
538F
330
4FE1
100
AcDbEntity
  8
0
100
AcDbBlockEnd
  0
BLOCK
  5
4FE7
330
4FE6
100
AcDbEntity
  8
0
100
AcDbBlockBegin
  2
*D54
 70
     1
 10
0.0
 20
0.0
 30
0.0
  3
*D54
  1

  0
LINE
  5
4FE8
330
4FE6
100
AcDbEntity
  8
DIMENSION
100
AcDbLine
 10
17.10164880763441
 20
80.9999999999999
 30
0.0
 11
10.21633111563913
 21
80.9999999999999
 31
0.0
  0
LINE
  5
4FE9
330
4FE6
100
AcDbEntity
  8
DIMENSION
100
AcDbLine
 10
17.10164880763441
 20
65.9999999999999
 30
0.0
 11
10.21633111563913
 21
65.9999999999999
 31
0.0
  0
LINE
  5
4FEA
330
4FE6
100
AcDbEntity
  8
DIMENSION
100
AcDbLine
 10
11.71633111563913
 20
79.9999999999999
 30
0.0
 11
11.71633111563913
 21
66.9999999999999
 31
0.0
  0
INSERT
  5
4FEB
330
4FE6
100
AcDbEntity
  8
DIMENSION
100
AcDbBlockReference
  2
_OPEN30
 10
11.71633111563913
 20
80.9999999999999
 30
0.0
 50
90.0
  0
INSERT
  5
4FEC
330
4FE6
100
AcDbEntity
  8
DIMENSION
100
AcDbBlockReference
  2
_OPEN30
 10
11.71633111563913
 20
65.9999999999999
 30
0.0
 50
270.0
  0
INSERT
  5
4FEE
330
4FE6
100
AcDbEntity
  8
0
100
AcDbBlockReference
  2
*U55
 10
0.0
 20
0.0
 30
0.0
  0
POINT
  5
4FEF
330
4FE6
100
AcDbEntity
  8
DEFPOINTS
 62
     0
100
AcDbPoint
 10
17.10164880763441
 20
80.9999999999999
 30
0.0
  0
POINT
  5
4FF0
330
4FE6
100
AcDbEntity
  8
DEFPOINTS
 62
     0
100
AcDbPoint
 10
17.10164880763441
 20
65.9999999999999
 30
0.0
  0
POINT
  5
4FF1
330
4FE6
100
AcDbEntity
  8
DEFPOINTS
 62
     0
100
AcDbPoint
 10
11.71633111563913
 20
65.9999999999999
 30
0.0
  0
ENDBLK
  5
4FF2
330
4FE6
100
AcDbEntity
  8
0
100
AcDbBlockEnd
  0
BLOCK
  5
53AC
330
4FED
100
AcDbEntity
  8
0
100
AcDbBlockBegin
  2
*U55
 70
     1
 10
0.0
 20
0.0
 30
0.0
  3
*U55
  1

  0
TEXT
  5
53AD
330
4FED
100
AcDbEntity
  8
DIMENSION
100
AcDbText
 10
11.21633111563911
 20
72.48730964466995
 30
0.0
 40
1.5
  1
15
 50
90.0
  7
GOTHIC
100
AcDbText
  0
ENDBLK
  5
53AE
330
4FED
100
AcDbEntity
  8
0
100
AcDbBlockEnd
  0
BLOCK
  5
4FF4
330
4FF3
100
AcDbEntity
  8
0
100
AcDbBlockBegin
  2
*D56
 70
     1
 10
0.0
 20
0.0
 30
0.0
  3
*D56
  1

  0
LINE
  5
4FF5
330
4FF3
100
AcDbEntity
  8
DIMENSION
100
AcDbLine
 10
60.25
 20
73.4999999999999
 30
0.0
 11
61.66743891502772
 21
74.91098083692318
 31
0.0
  0
INSERT
  5
4FF6
330
4FF3
100
AcDbEntity
  8
DIMENSION
100
AcDbBlockReference
  2
_OPEN30
 10
62.37615837254161
 20
75.61647125538485
 30
0.0
 50
44.86917784183935
  0
INSERT
  5
4FF8
330
4FF3
100
AcDbEntity
  8
0
100
AcDbBlockReference
  2
*U57
 10
0.0
 20
0.0
 30
0.0
  0
POINT
  5
4FF9
330
4FF3
100
AcDbEntity
  8
DEFPOINTS
 62
     0
100
AcDbPoint
 10
62.37615837254161
 20
75.61647125538485
 30
0.0
  0
POINT
  5
4FFA
330
4FF3
100
AcDbEntity
  8
DEFPOINTS
 62
     0
100
AcDbPoint
 10
60.25
 20
73.4999999999999
 30
0.0
  0
ENDBLK
  5
4FFB
330
4FF3
100
AcDbEntity
  8
0
100
AcDbBlockEnd
  0
BLOCK
  5
5390
330
4FF7
100
AcDbEntity
  8
0
100
AcDbBlockBegin
  2
*U57
 70
     1
 10
0.0
 20
0.0
 30
0.0
  3
*U57
  1

  0
TEXT
  5
5391
330
4FF7
100
AcDbEntity
  8
DIMENSION
100
AcDbText
 10
59.72537147915065
 20
73.68325954496102
 30
0.0
 40
1.5
  1
R3
 50
44.86917784183932
  7
GOTHIC
100
AcDbText
  0
ENDBLK
  5
5392
330
4FF7
100
AcDbEntity
  8
0
100
AcDbBlockEnd
  0
BLOCK
  5
4FFD
330
4FFC
100
AcDbEntity
  8
0
100
AcDbBlockBegin
  2
*D58
 70
     1
 10
0.0
 20
0.0
 30
0.0
  3
*D58
  1

  0
LINE
  5
4FFE
330
4FFC
100
AcDbEntity
  8
DIMENSION
100
AcDbLine
 10
54.75
 20
75.4999999999999
 30
0.0
 11
54.75
 21
71.49999999999987
 31
0.0
  0
INSERT
  5
5000
330
4FFC
100
AcDbEntity
  8
0
100
AcDbBlockReference
  2
*U59
 10
0.0
 20
0.0
 30
0.0
  0
INSERT
  5
5001
330
4FFC
100
AcDbEntity
  8
DIMENSION
100
AcDbBlockReference
  2
_OPEN30
 10
54.75
 20
76.4999999999999
 30
0.0
 50
90.0
  0
INSERT
  5
5002
330
4FFC
100
AcDbEntity
  8
DIMENSION
100
AcDbBlockReference
  2
_OPEN30
 10
54.75
 20
70.49999999999987
 30
0.0
 50
270.0
  0
POINT
  5
5003
330
4FFC
100
AcDbEntity
  8
DEFPOINTS
 62
     0
100
AcDbPoint
 10
48.75
 20
76.4999999999999
 30
0.0
  0
POINT
  5
5004
330
4FFC
100
AcDbEntity
  8
DEFPOINTS
 62
     0
100
AcDbPoint
 10
48.75
 20
70.49999999999987
 30
0.0
  0
POINT
  5
5005
330
4FFC
100
AcDbEntity
  8
DEFPOINTS
 62
     0
100
AcDbPoint
 10
54.75
 20
70.49999999999987
 30
0.0
  0
ENDBLK
  5
5006
330
4FFC
100
AcDbEntity
  8
0
100
AcDbBlockEnd
  0
BLOCK
  5
5366
330
4FFF
100
AcDbEntity
  8
0
100
AcDbBlockBegin
  2
*U59
 70
     1
 10
0.0
 20
0.0
 30
0.0
  3
*U59
  1

  0
TEXT
  5
5367
330
4FFF
100
AcDbEntity
  8
DIMENSION
100
AcDbText
 10
54.23927404340965
 20
74.12274101583735
 30
0.0
 40
1.5
  1
6
 50
90.0
  7
GOTHIC
100
AcDbText
  0
ENDBLK
  5
5368
330
4FFF
100
AcDbEntity
  8
0
100
AcDbBlockEnd
  0
BLOCK
  5
5008
330
5007
100
AcDbEntity
  8
0
100
AcDbBlockBegin
  2
*D60
 70
     1
 10
0.0
 20
0.0
 30
0.0
  3
*D60
  1

  0
LINE
  5
5009
330
5007
100
AcDbEntity
  8
DIMENSION
100
AcDbLine
 10
45.25
 20
75.4999999999999
 30
0.0
 11
45.25
 21
94.7499999999999
 31
0.0
  0
LINE
  5
500A
330
5007
100
AcDbEntity
  8
DIMENSION
100
AcDbLine
 10
110.25
 20
74.4999999999999
 30
0.0
 11
110.25
 21
94.7499999999999
 31
0.0
  0
LINE
  5
500B
330
5007
100
AcDbEntity
  8
DIMENSION
100
AcDbLine
 10
46.25
 20
93.2499999999999
 30
0.0
 11
109.25
 21
93.2499999999999
 31
0.0
  0
INSERT
  5
500C
330
5007
100
AcDbEntity
  8
DIMENSION
100
AcDbBlockReference
  2
_OPEN30
 10
45.25
 20
93.2499999999999
 30
0.0
 50
180.0
  0
INSERT
  5
500D
330
5007
100
AcDbEntity
  8
DIMENSION
100
AcDbBlockReference
  2
_OPEN30
 10
110.25
 20
93.2499999999999
 30
0.0
  0
INSERT
  5
500F
330
5007
100
AcDbEntity
  8
0
100
AcDbBlockReference
  2
*U61
 10
0.0
 20
0.0
 30
0.0
  0
POINT
  5
5010
330
5007
100
AcDbEntity
  8
DEFPOINTS
 62
     0
100
AcDbPoint
 10
45.25
 20
75.4999999999999
 30
0.0
  0
POINT
  5
5011
330
5007
100
AcDbEntity
  8
DEFPOINTS
 62
     0
100
AcDbPoint
 10
110.25
 20
74.4999999999999
 30
0.0
  0
POINT
  5
5012
330
5007
100
AcDbEntity
  8
DEFPOINTS
 62
     0
100
AcDbPoint
 10
110.25
 20
93.2499999999999
 30
0.0
  0
ENDBLK
  5
5013
330
5007
100
AcDbEntity
  8
0
100
AcDbBlockEnd
  0
BLOCK
  5
5369
330
500E
100
AcDbEntity
  8
0
100
AcDbBlockBegin
  2
*U61
 70
     1
 10
0.0
 20
0.0
 30
0.0
  3
*U61
  1

  0
TEXT
  5
536A
330
500E
100
AcDbEntity
  8
DIMENSION
100
AcDbText
 10
76.77918781725885
 20
93.74999999999992
 30
0.0
 40
1.5
  1
65
  7
GOTHIC
100
AcDbText
  0
ENDBLK
  5
536B
330
500E
100
AcDbEntity
  8
0
100
AcDbBlockEnd
  0
BLOCK
  5
5015
330
5014
100
AcDbEntity
  8
0
100
AcDbBlockBegin
  2
*D62
 70
     1
 10
0.0
 20
0.0
 30
0.0
  3
*D62
  1

  0
LINE
  5
5016
330
5014
100
AcDbEntity
  8
DIMENSION
100
AcDbLine
 10
96.75000000000004
 20
75.49999999999987
 30
0.0
 11
96.75000000000004
 21
76.49999999999987
 31
0.0
  0
LINE
  5
5017
330
5014
100
AcDbEntity
  8
DIMENSION
100
AcDbLine
 10
96.75000000000004
 20
71.4999999999999
 30
0.0
 11
96.75000000000004
 21
70.4999999999999
 31
0.0
  0
INSERT
  5
5019
330
5014
100
AcDbEntity
  8
0
100
AcDbBlockReference
  2
*U63
 10
0.0
 20
0.0
 30
0.0
  0
LINE
  5
501A
330
5014
100
AcDbEntity
  8
DIMENSION
100
AcDbLine
 10
96.75000000000004
 20
74.49999999999987
 30
0.0
 11
96.75000000000004
 21
72.49999999999987
 31
0.0
  0
INSERT
  5
501B
330
5014
100
AcDbEntity
  8
DIMENSION
100
AcDbBlockReference
  2
_OPEN30
 10
96.75000000000004
 20
74.49999999999987
 30
0.0
 50
270.0
  0
INSERT
  5
501C
330
5014
100
AcDbEntity
  8
DIMENSION
100
AcDbBlockReference
  2
_OPEN30
 10
96.75000000000004
 20
72.49999999999987
 30
0.0
 50
90.0
  0
POINT
  5
501D
330
5014
100
AcDbEntity
  8
DEFPOINTS
 62
     0
100
AcDbPoint
 10
89.25
 20
74.4999999999999
 30
0.0
  0
POINT
  5
501E
330
5014
100
AcDbEntity
  8
DEFPOINTS
 62
     0
100
AcDbPoint
 10
89.25
 20
72.4999999999999
 30
0.0
  0
POINT
  5
501F
330
5014
100
AcDbEntity
  8
DEFPOINTS
 62
     0
100
AcDbPoint
 10
96.75000000000004
 20
72.49999999999987
 30
0.0
  0
ENDBLK
  5
5020
330
5014
100
AcDbEntity
  8
0
100
AcDbBlockEnd
  0
BLOCK
  5
5372
330
5018
100
AcDbEntity
  8
0
100
AcDbBlockBegin
  2
*U63
 70
     1
 10
0.0
 20
0.0
 30
0.0
  3
*U63
  1

  0
TEXT
  5
5373
330
5018
100
AcDbEntity
  8
DIMENSION
100
AcDbText
 10
96.24441424735188
 20
75.50313095447146
 30
0.0
 40
1.5
  1
2
 50
90.0
  7
GOTHIC
100
AcDbText
  0
ENDBLK
  5
5374
330
5018
100
AcDbEntity
  8
0
100
AcDbBlockEnd
  0
BLOCK
  5
5022
330
5021
100
AcDbEntity
  8
0
100
AcDbBlockBegin
  2
*D64
 70
     1
 10
0.0
 20
0.0
 30
0.0
  3
*D64
  1

  0
LINE
  5
5023
330
5021
100
AcDbEntity
  8
DIMENSION
100
AcDbLine
 10
106.7499999999999
 20
79.24999999999987
 30
0.0
 11
120.75
 21
79.24999999999987
 31
0.0
  0
LINE
  5
5024
330
5021
100
AcDbEntity
  8
DIMENSION
100
AcDbLine
 10
106.7499999999999
 20
67.74999999999993
 30
0.0
 11
120.75
 21
67.74999999999993
 31
0.0
  0
LINE
  5
5025
330
5021
100
AcDbEntity
  8
DIMENSION
100
AcDbLine
 10
119.25
 20
78.24999999999987
 30
0.0
 11
119.25
 21
68.74999999999992
 31
0.0
  0
INSERT
  5
5026
330
5021
100
AcDbEntity
  8
DIMENSION
100
AcDbBlockReference
  2
_OPEN30
 10
119.25
 20
79.24999999999987
 30
0.0
 50
90.0
  0
INSERT
  5
5027
330
5021
100
AcDbEntity
  8
DIMENSION
100
AcDbBlockReference
  2
_OPEN30
 10
119.25
 20
67.74999999999993
 30
0.0
 50
270.0
  0
INSERT
  5
5029
330
5021
100
AcDbEntity
  8
0
100
AcDbBlockReference
  2
*U65
 10
0.0
 20
0.0
 30
0.0
  0
POINT
  5
502A
330
5021
100
AcDbEntity
  8
DEFPOINTS
 62
     0
100
AcDbPoint
 10
106.7499999999999
 20
79.24999999999987
 30
0.0
  0
POINT
  5
502B
330
5021
100
AcDbEntity
  8
DEFPOINTS
 62
     0
100
AcDbPoint
 10
106.7499999999999
 20
67.74999999999993
 30
0.0
  0
POINT
  5
502C
330
5021
100
AcDbEntity
  8
DEFPOINTS
 62
     0
100
AcDbPoint
 10
119.25
 20
67.74999999999993
 30
0.0
  0
ENDBLK
  5
502D
330
5021
100
AcDbEntity
  8
0
100
AcDbBlockEnd
  0
BLOCK
  5
5375
330
5028
100
AcDbEntity
  8
0
100
AcDbBlockBegin
  2
*U65
 70
     1
 10
0.0
 20
0.0
 30
0.0
  3
*U65
  1

  0
TEXT
  5
5376
330
5028
100
AcDbEntity
  8
DIMENSION
100
AcDbText
 10
118.75
 20
71.51269035532988
 30
0.0
 40
1.5
  1
11.5
 50
90.0
  7
GOTHIC
100
AcDbText
  0
ENDBLK
  5
5377
330
5028
100
AcDbEntity
  8
0
100
AcDbBlockEnd
  0
BLOCK
  5
502F
330
502E
100
AcDbEntity
  8
0
100
AcDbBlockBegin
  2
*D66
 70
     1
 10
0.0
 20
0.0
 30
0.0
  3
*D66
  1

  0
LINE
  5
5030
330
502E
100
AcDbEntity
  8
DIMENSION
100
AcDbLine
 10
105.2499999999999
 20
73.4999999999999
 30
0.0
 11
105.2499999999999
 21
60.24999999999989
 31
0.0
  0
LINE
  5
5031
330
502E
100
AcDbEntity
  8
DIMENSION
100
AcDbLine
 10
110.25
 20
72.4999999999999
 30
0.0
 11
110.25
 21
60.24999999999989
 31
0.0
  0
LINE
  5
5032
330
502E
100
AcDbEntity
  8
DIMENSION
100
AcDbLine
 10
106.25
 20
61.7499999999999
 30
0.0
 11
109.25
 21
61.7499999999999
 31
0.0
  0
INSERT
  5
5033
330
502E
100
AcDbEntity
  8
DIMENSION
100
AcDbBlockReference
  2
_OPEN30
 10
105.2499999999999
 20
61.7499999999999
 30
0.0
 50
180.0
  0
INSERT
  5
5034
330
502E
100
AcDbEntity
  8
DIMENSION
100
AcDbBlockReference
  2
_OPEN30
 10
110.25
 20
61.7499999999999
 30
0.0
  0
INSERT
  5
5036
330
502E
100
AcDbEntity
  8
0
100
AcDbBlockReference
  2
*U67
 10
0.0
 20
0.0
 30
0.0
  0
POINT
  5
5037
330
502E
100
AcDbEntity
  8
DEFPOINTS
 62
     0
100
AcDbPoint
 10
105.2499999999999
 20
73.4999999999999
 30
0.0
  0
POINT
  5
5038
330
502E
100
AcDbEntity
  8
DEFPOINTS
 62
     0
100
AcDbPoint
 10
110.25
 20
72.4999999999999
 30
0.0
  0
POINT
  5
5039
330
502E
100
AcDbEntity
  8
DEFPOINTS
 62
     0
100
AcDbPoint
 10
110.25
 20
61.7499999999999
 30
0.0
  0
ENDBLK
  5
503A
330
502E
100
AcDbEntity
  8
0
100
AcDbBlockEnd
  0
BLOCK
  5
537B
330
5035
100
AcDbEntity
  8
0
100
AcDbBlockBegin
  2
*U67
 70
     1
 10
0.0
 20
0.0
 30
0.0
  3
*U67
  1

  0
TEXT
  5
537C
330
5035
100
AcDbEntity
  8
DIMENSION
100
AcDbText
 10
107.2779187817259
 20
62.24999999999989
 30
0.0
 40
1.5
  1
5
  7
GOTHIC
100
AcDbText
  0
ENDBLK
  5
537D
330
5035
100
AcDbEntity
  8
0
100
AcDbBlockEnd
  0
BLOCK
  5
503C
330
503B
100
AcDbEntity
  8
0
100
AcDbBlockBegin
  2
*D68
 70
     1
 10
0.0
 20
0.0
 30
0.0
  3
*D68
  1

  0
LINE
  5
503D
330
503B
100
AcDbEntity
  8
DIMENSION
100
AcDbLine
 10
74.25
 20
63.98732605523253
 30
0.0
 11
74.25
 21
60.24999999999989
 31
0.0
  0
LINE
  5
503E
330
503B
100
AcDbEntity
  8
DIMENSION
100
AcDbLine
 10
87.24999999999999
 20
67.9999999999999
 30
0.0
 11
87.24999999999999
 21
60.24999999999989
 31
0.0
  0
LINE
  5
503F
330
503B
100
AcDbEntity
  8
DIMENSION
100
AcDbLine
 10
75.25
 20
61.7499999999999
 30
0.0
 11
86.25
 21
61.7499999999999
 31
0.0
  0
INSERT
  5
5040
330
503B
100
AcDbEntity
  8
DIMENSION
100
AcDbBlockReference
  2
_OPEN30
 10
74.25
 20
61.7499999999999
 30
0.0
 50
180.0
  0
INSERT
  5
5041
330
503B
100
AcDbEntity
  8
DIMENSION
100
AcDbBlockReference
  2
_OPEN30
 10
87.24999999999999
 20
61.7499999999999
 30
0.0
  0
INSERT
  5
5043
330
503B
100
AcDbEntity
  8
0
100
AcDbBlockReference
  2
*U69
 10
0.0
 20
0.0
 30
0.0
  0
POINT
  5
5044
330
503B
100
AcDbEntity
  8
DEFPOINTS
 62
     0
100
AcDbPoint
 10
74.25
 20
63.98732605523253
 30
0.0
  0
POINT
  5
5045
330
503B
100
AcDbEntity
  8
DEFPOINTS
 62
     0
100
AcDbPoint
 10
87.24999999999999
 20
67.9999999999999
 30
0.0
  0
POINT
  5
5046
330
503B
100
AcDbEntity
  8
DEFPOINTS
 62
     0
100
AcDbPoint
 10
87.24999999999999
 20
61.7499999999999
 30
0.0
  0
ENDBLK
  5
5047
330
503B
100
AcDbEntity
  8
0
100
AcDbBlockEnd
  0
BLOCK
  5
537E
330
5042
100
AcDbEntity
  8
0
100
AcDbBlockBegin
  2
*U69
 70
     1
 10
0.0
 20
0.0
 30
0.0
  3
*U69
  1

  0
TEXT
  5
537F
330
5042
100
AcDbEntity
  8
DIMENSION
100
AcDbText
 10
79.73730964467006
 20
62.24999999999989
 30
0.0
 40
1.5
  1
13
  7
GOTHIC
100
AcDbText
  0
ENDBLK
  5
5380
330
5042
100
AcDbEntity
  8
0
100
AcDbBlockEnd
  0
BLOCK
  5
5049
330
5048
100
AcDbEntity
  8
0
100
AcDbBlockBegin
  2
*D70
 70
     1
 10
0.0
 20
0.0
 30
0.0
  3
*D70
  1

  0
LINE
  5
504A
330
5048
100
AcDbEntity
  8
DIMENSION
100
AcDbLine
 10
106.7499999999999
 20
79.24999999999987
 30
0.0
 11
106.7499999999999
 21
85.7499999999999
 31
0.0
  0
LINE
  5
504B
330
5048
100
AcDbEntity
  8
DIMENSION
100
AcDbLine
 10
107.7499999999999
 20
84.2499999999999
 30
0.0
 11
109.25
 21
84.2499999999999
 31
0.0
  0
LINE
  5
504C
330
5048
100
AcDbEntity
  8
DIMENSION
100
AcDbLine
 10
115.1680614371697
 20
84.2499999999999
 30
0.0
 11
110.25
 21
84.2499999999999
 31
0.0
  0
INSERT
  5
504E
330
5048
100
AcDbEntity
  8
0
100
AcDbBlockReference
  2
*U71
 10
0.0
 20
0.0
 30
0.0
  0
INSERT
  5
504F
330
5048
100
AcDbEntity
  8
DIMENSION
100
AcDbBlockReference
  2
_OPEN30
 10
106.7499999999999
 20
84.2499999999999
 30
0.0
 50
180.0
  0
INSERT
  5
5050
330
5048
100
AcDbEntity
  8
DIMENSION
100
AcDbBlockReference
  2
_OPEN30
 10
110.25
 20
84.2499999999999
 30
0.0
  0
POINT
  5
5051
330
5048
100
AcDbEntity
  8
DEFPOINTS
 62
     0
100
AcDbPoint
 10
106.7499999999999
 20
79.24999999999987
 30
0.0
  0
POINT
  5
5052
330
5048
100
AcDbEntity
  8
DEFPOINTS
 62
     0
100
AcDbPoint
 10
110.25
 20
74.4999999999999
 30
0.0
  0
POINT
  5
5053
330
5048
100
AcDbEntity
  8
DEFPOINTS
 62
     0
100
AcDbPoint
 10
110.25
 20
84.2499999999999
 30
0.0
  0
ENDBLK
  5
5054
330
5048
100
AcDbEntity
  8
0
100
AcDbBlockEnd
  0
BLOCK
  5
5381
330
504D
100
AcDbEntity
  8
0
100
AcDbBlockBegin
  2
*U71
 70
     1
 10
0.0
 20
0.0
 30
0.0
  3
*U71
  1

  0
TEXT
  5
5382
330
504D
100
AcDbEntity
  8
DIMENSION
100
AcDbText
 10
111.858416767119
 20
84.7499999999999
 30
0.0
 40
1.5
  1
3.5
  7
GOTHIC
100
AcDbText
  0
ENDBLK
  5
5383
330
504D
100
AcDbEntity
  8
0
100
AcDbBlockEnd
  0
BLOCK
  5
5056
330
5055
100
AcDbEntity
  8
0
100
AcDbBlockBegin
  2
*D72
 70
     1
 10
0.0
 20
0.0
 30
0.0
  3
*D72
  1

  0
LINE
  5
5057
330
5055
100
AcDbEntity
  8
DIMENSION
100
AcDbLine
 10
79.25
 20
80.9999999999999
 30
0.0
 11
79.25
 21
85.7499999999999
 31
0.0
  0
LINE
  5
5058
330
5055
100
AcDbEntity
  8
DIMENSION
100
AcDbLine
 10
106.7499999999999
 20
79.24999999999987
 30
0.0
 11
106.7499999999999
 21
85.7499999999999
 31
0.0
  0
LINE
  5
5059
330
5055
100
AcDbEntity
  8
DIMENSION
100
AcDbLine
 10
80.25
 20
84.2499999999999
 30
0.0
 11
105.7499999999998
 21
84.2499999999999
 31
0.0
  0
INSERT
  5
505A
330
5055
100
AcDbEntity
  8
DIMENSION
100
AcDbBlockReference
  2
_OPEN30
 10
79.25
 20
84.2499999999999
 30
0.0
 50
180.0
  0
INSERT
  5
505B
330
5055
100
AcDbEntity
  8
DIMENSION
100
AcDbBlockReference
  2
_OPEN30
 10
106.7499999999999
 20
84.2499999999999
 30
0.0
  0
INSERT
  5
505D
330
5055
100
AcDbEntity
  8
0
100
AcDbBlockReference
  2
*U73
 10
0.0
 20
0.0
 30
0.0
  0
POINT
  5
505E
330
5055
100
AcDbEntity
  8
DEFPOINTS
 62
     0
100
AcDbPoint
 10
79.25
 20
80.9999999999999
 30
0.0
  0
POINT
  5
505F
330
5055
100
AcDbEntity
  8
DEFPOINTS
 62
     0
100
AcDbPoint
 10
106.7499999999999
 20
79.24999999999987
 30
0.0
  0
POINT
  5
5060
330
5055
100
AcDbEntity
  8
DEFPOINTS
 62
     0
100
AcDbPoint
 10
106.7499999999999
 20
84.2499999999999
 30
0.0
  0
ENDBLK
  5
5061
330
5055
100
AcDbEntity
  8
0
100
AcDbBlockEnd
  0
BLOCK
  5
5384
330
505C
100
AcDbEntity
  8
0
100
AcDbBlockBegin
  2
*U73
 70
     1
 10
0.0
 20
0.0
 30
0.0
  3
*U73
  1

  0
TEXT
  5
5385
330
505C
100
AcDbEntity
  8
DIMENSION
100
AcDbText
 10
91.06218274111673
 20
84.7499999999999
 30
0.0
 40
1.5
  1
27.5
  7
GOTHIC
100
AcDbText
  0
ENDBLK
  5
5386
330
505C
100
AcDbEntity
  8
0
100
AcDbBlockEnd
  0
BLOCK
  5
5063
330
5062
100
AcDbEntity
  8
0
100
AcDbBlockBegin
  2
*D74
 70
     1
 10
0.0
 20
0.0
 30
0.0
  3
*D74
  1

  0
LINE
  5
5064
330
5062
100
AcDbEntity
  8
DIMENSION
100
AcDbLine
 10
79.25
 20
80.9999999999999
 30
0.0
 11
79.25
 21
85.7499999999999
 31
0.0
  0
LINE
  5
5065
330
5062
100
AcDbEntity
  8
DIMENSION
100
AcDbLine
 10
75.25
 20
84.2499999999999
 30
0.0
 11
78.25
 21
84.2499999999999
 31
0.0
  0
INSERT
  5
5066
330
5062
100
AcDbEntity
  8
DIMENSION
100
AcDbBlockReference
  2
_OPEN30
 10
74.25
 20
84.2499999999999
 30
0.0
 50
180.0
  0
INSERT
  5
5067
330
5062
100
AcDbEntity
  8
DIMENSION
100
AcDbBlockReference
  2
_OPEN30
 10
79.25
 20
84.2499999999999
 30
0.0
  0
INSERT
  5
5069
330
5062
100
AcDbEntity
  8
0
100
AcDbBlockReference
  2
*U75
 10
0.0
 20
0.0
 30
0.0
  0
POINT
  5
506A
330
5062
100
AcDbEntity
  8
DEFPOINTS
 62
     0
100
AcDbPoint
 10
74.25
 20
82.74999999999987
 30
0.0
  0
POINT
  5
506B
330
5062
100
AcDbEntity
  8
DEFPOINTS
 62
     0
100
AcDbPoint
 10
79.25
 20
80.9999999999999
 30
0.0
  0
POINT
  5
506C
330
5062
100
AcDbEntity
  8
DEFPOINTS
 62
     0
100
AcDbPoint
 10
79.25
 20
84.2499999999999
 30
0.0
  0
ENDBLK
  5
506D
330
5062
100
AcDbEntity
  8
0
100
AcDbBlockEnd
  0
BLOCK
  5
5387
330
5068
100
AcDbEntity
  8
0
100
AcDbBlockBegin
  2
*U75
 70
     1
 10
0.0
 20
0.0
 30
0.0
  3
*U75
  1

  0
TEXT
  5
5388
330
5068
100
AcDbEntity
  8
DIMENSION
100
AcDbText
 10
76.27791878172589
 20
84.7499999999999
 30
0.0
 40
1.5
  1
5
  7
GOTHIC
100
AcDbText
  0
ENDBLK
  5
5389
330
5068
100
AcDbEntity
  8
0
100
AcDbBlockEnd
  0
BLOCK
  5
506F
330
506E
100
AcDbEntity
  8
0
100
AcDbBlockBegin
  2
*D76
 70
     1
 10
0.0
 20
0.0
 30
0.0
  3
*D76
  1

  0
LINE
  5
5070
330
506E
100
AcDbEntity
  8
DIMENSION
100
AcDbLine
 10
63.25
 20
80.9999999999999
 30
0.0
 11
63.25
 21
88.49999999999999
 31
0.0
  0
LINE
  5
5071
330
506E
100
AcDbEntity
  8
DIMENSION
100
AcDbLine
 10
64.25
 20
87.0
 30
0.0
 11
73.25
 21
87.0
 31
0.0
  0
INSERT
  5
5072
330
506E
100
AcDbEntity
  8
DIMENSION
100
AcDbBlockReference
  2
_OPEN30
 10
63.25
 20
87.0
 30
0.0
 50
180.0
  0
INSERT
  5
5073
330
506E
100
AcDbEntity
  8
DIMENSION
100
AcDbBlockReference
  2
_OPEN30
 10
74.25
 20
87.0
 30
0.0
  0
INSERT
  5
5075
330
506E
100
AcDbEntity
  8
0
100
AcDbBlockReference
  2
*U77
 10
0.0
 20
0.0
 30
0.0
  0
POINT
  5
5076
330
506E
100
AcDbEntity
  8
DEFPOINTS
 62
     0
100
AcDbPoint
 10
63.25
 20
80.9999999999999
 30
0.0
  0
POINT
  5
5077
330
506E
100
AcDbEntity
  8
DEFPOINTS
 62
     0
100
AcDbPoint
 10
74.25
 20
82.74999999999987
 30
0.0
  0
POINT
  5
5078
330
506E
100
AcDbEntity
  8
DEFPOINTS
 62
     0
100
AcDbPoint
 10
74.25
 20
87.0
 30
0.0
  0
ENDBLK
  5
5079
330
506E
100
AcDbEntity
  8
0
100
AcDbBlockEnd
  0
BLOCK
  5
53AF
330
5074
100
AcDbEntity
  8
0
100
AcDbBlockBegin
  2
*U77
 70
     1
 10
0.0
 20
0.0
 30
0.0
  3
*U77
  1

  0
TEXT
  5
53B0
330
5074
100
AcDbEntity
  8
DIMENSION
100
AcDbText
 10
67.87055837563453
 20
87.5
 30
0.0
 40
1.5
  1
11
  7
GOTHIC
100
AcDbText
  0
ENDBLK
  5
53B1
330
5074
100
AcDbEntity
  8
0
100
AcDbBlockEnd
  0
BLOCK
  5
507B
330
507A
100
AcDbEntity
  8
0
100
AcDbBlockBegin
  2
*D78
 70
     1
 10
0.0
 20
0.0
 30
0.0
  3
*D78
  1

  0
LINE
  5
507C
330
507A
100
AcDbEntity
  8
DIMENSION
100
AcDbLine
 10
45.25
 20
75.4999999999999
 30
0.0
 11
45.25
 21
93.0
 31
0.0
  0
LINE
  5
507D
330
507A
100
AcDbEntity
  8
DIMENSION
100
AcDbLine
 10
74.25
 20
82.74999999999987
 30
0.0
 11
74.25
 21
93.0
 31
0.0
  0
LINE
  5
507E
330
507A
100
AcDbEntity
  8
DIMENSION
100
AcDbLine
 10
46.25
 20
91.5
 30
0.0
 11
73.25
 21
91.5
 31
0.0
  0
INSERT
  5
507F
330
507A
100
AcDbEntity
  8
DIMENSION
100
AcDbBlockReference
  2
_OPEN30
 10
45.25
 20
91.5
 30
0.0
 50
180.0
  0
INSERT
  5
5080
330
507A
100
AcDbEntity
  8
DIMENSION
100
AcDbBlockReference
  2
_OPEN30
 10
74.25
 20
91.5
 30
0.0
  0
INSERT
  5
5082
330
507A
100
AcDbEntity
  8
0
100
AcDbBlockReference
  2
*U79
 10
0.0
 20
0.0
 30
0.0
  0
POINT
  5
5083
330
507A
100
AcDbEntity
  8
DEFPOINTS
 62
     0
100
AcDbPoint
 10
45.25
 20
75.4999999999999
 30
0.0
  0
POINT
  5
5084
330
507A
100
AcDbEntity
  8
DEFPOINTS
 62
     0
100
AcDbPoint
 10
74.25
 20
82.74999999999987
 30
0.0
  0
POINT
  5
5085
330
507A
100
AcDbEntity
  8
DEFPOINTS
 62
     0
100
AcDbPoint
 10
74.25
 20
91.5
 30
0.0
  0
ENDBLK
  5
5086
330
507A
100
AcDbEntity
  8
0
100
AcDbBlockEnd
  0
BLOCK
  5
53B2
330
5081
100
AcDbEntity
  8
0
100
AcDbBlockBegin
  2
*U79
 70
     1
 10
0.0
 20
0.0
 30
0.0
  3
*U79
  1

  0
TEXT
  5
53B3
330
5081
100
AcDbEntity
  8
DIMENSION
100
AcDbText
 10
58.78680203045685
 20
92.0
 30
0.0
 40
1.5
  1
29
  7
GOTHIC
100
AcDbText
  0
ENDBLK
  5
53B4
330
5081
100
AcDbEntity
  8
0
100
AcDbBlockEnd
  0
BLOCK
  5
5088
330
5087
100
AcDbEntity
  8
0
100
AcDbBlockBegin
  2
*D80
 70
     1
 10
0.0
 20
0.0
 30
0.0
  3
*D80
  1

  0
LINE
  5
5089
330
5087
100
AcDbEntity
  8
DIMENSION
100
AcDbLine
 10
75.25
 20
88.74999999999991
 30
0.0
 11
109.25
 21
88.74999999999991
 31
0.0
  0
INSERT
  5
508A
330
5087
100
AcDbEntity
  8
DIMENSION
100
AcDbBlockReference
  2
_OPEN30
 10
74.25
 20
88.74999999999991
 30
0.0
 50
180.0
  0
INSERT
  5
508B
330
5087
100
AcDbEntity
  8
DIMENSION
100
AcDbBlockReference
  2
_OPEN30
 10
110.25
 20
88.74999999999991
 30
0.0
  0
INSERT
  5
508D
330
5087
100
AcDbEntity
  8
0
100
AcDbBlockReference
  2
*U81
 10
0.0
 20
0.0
 30
0.0
  0
POINT
  5
508E
330
5087
100
AcDbEntity
  8
DEFPOINTS
 62
     0
100
AcDbPoint
 10
74.25
 20
82.74999999999987
 30
0.0
  0
POINT
  5
508F
330
5087
100
AcDbEntity
  8
DEFPOINTS
 62
     0
100
AcDbPoint
 10
110.25
 20
74.4999999999999
 30
0.0
  0
POINT
  5
5090
330
5087
100
AcDbEntity
  8
DEFPOINTS
 62
     0
100
AcDbPoint
 10
110.25
 20
88.74999999999991
 30
0.0
  0
ENDBLK
  5
5091
330
5087
100
AcDbEntity
  8
0
100
AcDbBlockEnd
  0
BLOCK
  5
538A
330
508C
100
AcDbEntity
  8
0
100
AcDbBlockBegin
  2
*U81
 70
     1
 10
0.0
 20
0.0
 30
0.0
  3
*U81
  1

  0
TEXT
  5
538B
330
508C
100
AcDbEntity
  8
DIMENSION
100
AcDbText
 10
91.28680203045686
 20
89.2499999999999
 30
0.0
 40
1.5
  1
36
  7
GOTHIC
100
AcDbText
  0
ENDBLK
  5
538C
330
508C
100
AcDbEntity
  8
0
100
AcDbBlockEnd
  0
BLOCK
  5
5093
330
5092
100
AcDbEntity
  8
0
100
AcDbBlockBegin
  2
*D82
 70
     1
 10
0.0
 20
0.0
 30
0.0
  3
*D82
  1

  0
LINE
  5
5094
330
5092
100
AcDbEntity
  8
DIMENSION
100
AcDbLine
 10
108.9271243444676
 20
42.00000000000001
 30
0.0
 11
109.3272725571669
 21
41.08354956060128
 31
0.0
  0
LINE
  5
5095
330
5092
100
AcDbEntity
  8
DIMENSION
100
AcDbLine
 10
109.727420769866
 20
40.16709912120279
 30
0.0
 11
111.8743654822341
 21
35.24999999999996
 31
0.0
  0
LINE
  5
5096
330
5092
100
AcDbEntity
  8
DIMENSION
100
AcDbLine
 10
111.8743654822341
 20
35.24999999999996
 30
0.0
 11
114.125634517767
 21
35.24999999999996
 31
0.0
  0
INSERT
  5
5097
330
5092
100
AcDbEntity
  8
DIMENSION
100
AcDbBlockReference
  2
_OPEN30
 10
109.727420769866
 20
40.16709912120279
 30
0.0
 50
293.5874442955342
  0
INSERT
  5
5099
330
5092
100
AcDbEntity
  8
0
100
AcDbBlockReference
  2
*U83
 10
0.0
 20
0.0
 30
0.0
  0
POINT
  5
509A
330
5092
100
AcDbEntity
  8
DEFPOINTS
 62
     0
100
AcDbPoint
 10
109.727420769866
 20
40.16709912120279
 30
0.0
  0
POINT
  5
509B
330
5092
100
AcDbEntity
  8
DEFPOINTS
 62
     0
100
AcDbPoint
 10
108.9271243444676
 20
42.00000000000001
 30
0.0
  0
ENDBLK
  5
509C
330
5092
100
AcDbEntity
  8
0
100
AcDbBlockEnd
  0
BLOCK
  5
53A9
330
5098
100
AcDbEntity
  8
0
100
AcDbBlockBegin
  2
*U83
 70
     1
 10
0.0
 20
0.0
 30
0.0
  3
*U83
  1

  0
TEXT
  5
53AA
330
5098
100
AcDbEntity
  8
DIMENSION
100
AcDbText
 10
112.2829949238584
 20
35.74999999999996
 30
0.0
 40
1.5
  1
R2
  7
GOTHIC
100
AcDbText
  0
ENDBLK
  5
53AB
330
5098
100
AcDbEntity
  8
0
100
AcDbBlockEnd
  0
BLOCK
  5
509E
330
509D
100
AcDbEntity
  8
0
100
AcDbBlockBegin
  2
*D84
 70
     1
 10
0.0
 20
0.0
 30
0.0
  3
*D84
  1

  0
LINE
  5
509F
330
509D
100
AcDbEntity
  8
DIMENSION
100
AcDbLine
 10
108.9271243444676
 20
47.0
 30
0.0
 11
120.75
 21
46.99999999999999
 31
0.0
  0
LINE
  5
50A0
330
509D
100
AcDbEntity
  8
DIMENSION
100
AcDbLine
 10
108.9271243444676
 20
40.0
 30
0.0
 11
120.75
 21
40.0
 31
0.0
  0
LINE
  5
50A1
330
509D
100
AcDbEntity
  8
DIMENSION
100
AcDbLine
 10
119.25
 20
45.99999999999999
 30
0.0
 11
119.25
 21
40.99999999999999
 31
0.0
  0
INSERT
  5
50A2
330
509D
100
AcDbEntity
  8
DIMENSION
100
AcDbBlockReference
  2
_OPEN30
 10
119.25
 20
46.99999999999999
 30
0.0
 50
90.0
  0
INSERT
  5
50A3
330
509D
100
AcDbEntity
  8
DIMENSION
100
AcDbBlockReference
  2
_OPEN30
 10
119.25
 20
40.0
 30
0.0
 50
270.0
  0
INSERT
  5
50A5
330
509D
100
AcDbEntity
  8
0
100
AcDbBlockReference
  2
*U85
 10
0.0
 20
0.0
 30
0.0
  0
POINT
  5
50A6
330
509D
100
AcDbEntity
  8
DEFPOINTS
 62
     0
100
AcDbPoint
 10
108.9271243444676
 20
47.0
 30
0.0
  0
POINT
  5
50A7
330
509D
100
AcDbEntity
  8
DEFPOINTS
 62
     0
100
AcDbPoint
 10
108.9271243444676
 20
40.0
 30
0.0
  0
POINT
  5
50A8
330
509D
100
AcDbEntity
  8
DEFPOINTS
 62
     0
100
AcDbPoint
 10
119.25
 20
40.0
 30
0.0
  0
ENDBLK
  5
50A9
330
509D
100
AcDbEntity
  8
0
100
AcDbBlockEnd
  0
BLOCK
  5
53A1
330
50A4
100
AcDbEntity
  8
0
100
AcDbBlockBegin
  2
*U85
 70
     1
 10
0.0
 20
0.0
 30
0.0
  3
*U85
  1

  0
TEXT
  5
53A2
330
50A4
100
AcDbEntity
  8
DIMENSION
100
AcDbText
 10
118.75
 20
41.56294416243656
 30
0.0
 40
1.5
  1
7
 50
90.0
  7
GOTHIC
100
AcDbText
  0
TEXT
  5
53A3
330
50A4
100
AcDbEntity
  8
DIMENSION
100
AcDbText
 10
117.1621827411166
 20
42.53756345177666
 30
0.0
 40
1.199999999999999
  1
 0
 50
90.0
  7
GOTHIC
100
AcDbText
  0
TEXT
  5
53A4
330
50A4
100
AcDbEntity
  8
DIMENSION
100
AcDbText
 10
118.75
 20
42.5010152284264
 30
0.0
 40
1.199999999999999
  1
-0.1
 50
90.0
  7
GOTHIC
100
AcDbText
  0
ENDBLK
  5
53A5
330
50A4
100
AcDbEntity
  8
0
100
AcDbBlockEnd
  0
BLOCK
  5
50AB
330
50AA
100
AcDbEntity
  8
0
100
AcDbBlockBegin
  2
*D86
 70
     1
 10
0.0
 20
0.0
 30
0.0
  3
*D86
  1

  0
LINE
  5
50AC
330
50AA
100
AcDbEntity
  8
DIMENSION
100
AcDbLine
 10
110.25
 20
46.5
 30
0.0
 11
116.25
 21
46.49999999999999
 31
0.0
  0
LINE
  5
50AD
330
50AA
100
AcDbEntity
  8
DIMENSION
100
AcDbLine
 10
110.25
 20
40.49999999999999
 30
0.0
 11
116.25
 21
40.49999999999999
 31
0.0
  0
LINE
  5
50AE
330
50AA
100
AcDbEntity
  8
DIMENSION
100
AcDbLine
 10
114.7499999999999
 20
45.49999999999999
 30
0.0
 11
114.7499999999999
 21
41.49999999999999
 31
0.0
  0
INSERT
  5
50AF
330
50AA
100
AcDbEntity
  8
DIMENSION
100
AcDbBlockReference
  2
_OPEN30
 10
114.7499999999999
 20
46.49999999999999
 30
0.0
 50
90.0
  0
INSERT
  5
50B0
330
50AA
100
AcDbEntity
  8
DIMENSION
100
AcDbBlockReference
  2
_OPEN30
 10
114.7499999999999
 20
40.49999999999999
 30
0.0
 50
270.0
  0
INSERT
  5
50B2
330
50AA
100
AcDbEntity
  8
0
100
AcDbBlockReference
  2
*U87
 10
0.0
 20
0.0
 30
0.0
  0
POINT
  5
50B3
330
50AA
100
AcDbEntity
  8
DEFPOINTS
 62
     0
100
AcDbPoint
 10
110.25
 20
46.5
 30
0.0
  0
POINT
  5
50B4
330
50AA
100
AcDbEntity
  8
DEFPOINTS
 62
     0
100
AcDbPoint
 10
110.25
 20
40.49999999999999
 30
0.0
  0
POINT
  5
50B5
330
50AA
100
AcDbEntity
  8
DEFPOINTS
 62
     0
100
AcDbPoint
 10
114.7499999999999
 20
40.49999999999999
 30
0.0
  0
ENDBLK
  5
50B6
330
50AA
100
AcDbEntity
  8
0
100
AcDbBlockEnd
  0
BLOCK
  5
53A6
330
50B1
100
AcDbEntity
  8
0
100
AcDbBlockBegin
  2
*U87
 70
     1
 10
0.0
 20
0.0
 30
0.0
  3
*U87
  1

  0
TEXT
  5
53A7
330
50B1
100
AcDbEntity
  8
DIMENSION
100
AcDbText
 10
114.25
 20
43.01269035532995
 30
0.0
 40
1.5
  1
6
 50
90.0
  7
GOTHIC
100
AcDbText
  0
ENDBLK
  5
53A8
330
50B1
100
AcDbEntity
  8
0
100
AcDbBlockEnd
  0
BLOCK
  5
50B8
330
50B7
100
AcDbEntity
  8
0
100
AcDbBlockBegin
  2
*D88
 70
     1
 10
0.0
 20
0.0
 30
0.0
  3
*D88
  1

  0
LINE
  5
50B9
330
50B7
100
AcDbEntity
  8
DIMENSION
100
AcDbLine
 10
46.05384757729336
 20
78.49999999999993
 30
0.0
 11
47.26225257450152
 21
83.00982884570075
 31
0.0
  0
LINE
  5
50BA
330
50B7
100
AcDbEntity
  8
DIMENSION
100
AcDbLine
 10
46.06901882299202
 20
81.72106559314078
 30
0.0
 11
46.45919946702427
 21
83.68263615394724
 31
0.0
  0
LINE
  5
50BB
330
50B7
100
AcDbEntity
  8
DIMENSION
100
AcDbLine
 10
46.45919946702427
 20
83.68263615394724
 30
0.0
 11
49.30437713199891
 21
83.68263615394724
 31
0.0
  0
ARC
  5
50BC
330
50B7
100
AcDbEntity
  8
DIMENSION
100
AcDbCircle
 10
45.25
 20
75.4999999999999
 30
0.0
 40
6.274746922910643
100
AcDbArc
 50
56.71827851843199
 51
65.85913925921595
  0
ARC
  5
50BD
330
50B7
100
AcDbEntity
  8
DIMENSION
100
AcDbCircle
 10
45.25
 20
75.4999999999999
 30
0.0
 40
6.274746922910643
100
AcDbArc
 50
99.14086074078385
 51
108.2817214815678
  0
ARC
  5
50BE
330
50B7
100
AcDbEntity
  8
DIMENSION
100
AcDbCircle
 10
45.25
 20
75.4999999999999
 30
0.0
 40
6.274746922910643
100
AcDbArc
 50
74.99999999999987
 51
89.99999999999991
  0
INSERT
  5
50BF
330
50B7
100
AcDbEntity
  8
DIMENSION
100
AcDbBlockReference
  2
_OPEN30
 10
46.87402400684771
 20
81.56094010626715
 30
0.0
 50
160.4295696296079
  0
INSERT
  5
50C0
330
50B7
100
AcDbEntity
  8
DIMENSION
100
AcDbBlockReference
  2
_OPEN30
 10
45.25000000000001
 20
81.77474692291056
 30
0.0
 50
4.570430370391879
  0
INSERT
  5
50C2
330
50B7
100
AcDbEntity
  8
0
100
AcDbBlockReference
  2
*U89
 10
0.0
 20
0.0
 30
0.0
  0
POINT
  5
50C3
330
50B7
100
AcDbEntity
  8
DEFPOINTS
 62
     0
100
AcDbPoint
 10
45.79688022861986
 20
81.75086961647098
 30
0.0
  0
POINT
  5
50C4
330
50B7
100
AcDbEntity
  8
DEFPOINTS
 62
     0
100
AcDbPoint
 10
45.25
 20
73.49999999999993
 30
0.0
  0
POINT
  5
50C5
330
50B7
100
AcDbEntity
  8
DEFPOINTS
 62
     0
100
AcDbPoint
 10
46.05384757729336
 20
78.49999999999993
 30
0.0
  0
POINT
  5
50C6
330
50B7
100
AcDbEntity
  8
DEFPOINTS
 62
     0
100
AcDbPoint
 10
45.25
 20
75.4999999999999
 30
0.0
  0
POINT
  5
50C7
330
50B7
100
AcDbEntity
  8
DEFPOINTS
 62
     0
100
AcDbPoint
 10
45.25
 20
75.4999999999999
 30
0.0
  0
ENDBLK
  5
50C8
330
50B7
100
AcDbEntity
  8
0
100
AcDbBlockEnd
  0
BLOCK
  5
53B5
330
50C1
100
AcDbEntity
  8
0
100
AcDbBlockBegin
  2
*U89
 70
     1
 10
0.0
 20
0.0
 30
0.0
  3
*U89
  1

  0
TEXT
  5
53B6
330
50C1
100
AcDbEntity
  8
DIMENSION
100
AcDbText
 10
46.76884413707504
 20
84.18263615394725
 30
0.0
 40
1.5
  1
15°
  7
GOTHIC
100
AcDbText
  0
ENDBLK
  5
53B7
330
50C1
100
AcDbEntity
  8
0
100
AcDbBlockEnd
  0
BLOCK
  5
50CA
330
50C9
100
AcDbEntity
  8
0
100
AcDbBlockBegin
  2
*D90
 70
     1
 10
0.0
 20
0.0
 30
0.0
  3
*D90
  1

  0
LINE
  5
50CB
330
50C9
100
AcDbEntity
  8
DIMENSION
100
AcDbLine
 10
45.25
 20
75.4999999999999
 30
0.0
 11
40.49999999999999
 21
75.4999999999999
 31
0.0
  0
LINE
  5
50CC
330
50C9
100
AcDbEntity
  8
DIMENSION
100
AcDbLine
 10
45.25
 20
71.4999999999999
 30
0.0
 11
40.49999999999999
 21
71.4999999999999
 31
0.0
  0
LINE
  5
50CD
330
50C9
100
AcDbEntity
  8
DIMENSION
100
AcDbLine
 10
42.0
 20
74.4999999999999
 30
0.0
 11
42.0
 21
72.49999999999987
 31
0.0
  0
INSERT
  5
50CE
330
50C9
100
AcDbEntity
  8
DIMENSION
100
AcDbBlockReference
  2
_OPEN30
 10
42.0
 20
75.4999999999999
 30
0.0
 50
90.0
  0
INSERT
  5
50CF
330
50C9
100
AcDbEntity
  8
DIMENSION
100
AcDbBlockReference
  2
_OPEN30
 10
42.0
 20
71.4999999999999
 30
0.0
 50
270.0
  0
INSERT
  5
50D1
330
50C9
100
AcDbEntity
  8
0
100
AcDbBlockReference
  2
*U91
 10
0.0
 20
0.0
 30
0.0
  0
POINT
  5
50D2
330
50C9
100
AcDbEntity
  8
DEFPOINTS
 62
     0
100
AcDbPoint
 10
45.25
 20
75.4999999999999
 30
0.0
  0
POINT
  5
50D3
330
50C9
100
AcDbEntity
  8
DEFPOINTS
 62
     0
100
AcDbPoint
 10
45.25
 20
71.4999999999999
 30
0.0
  0
POINT
  5
50D4
330
50C9
100
AcDbEntity
  8
DEFPOINTS
 62
     0
100
AcDbPoint
 10
42.0
 20
71.4999999999999
 30
0.0
  0
ENDBLK
  5
50D5
330
50C9
100
AcDbEntity
  8
0
100
AcDbBlockEnd
  0
BLOCK
  5
53B8
330
50D0
100
AcDbEntity
  8
0
100
AcDbBlockBegin
  2
*U91
 70
     1
 10
0.0
 20
0.0
 30
0.0
  3
*U91
  1

  0
TEXT
  5
53B9
330
50D0
100
AcDbEntity
  8
DIMENSION
100
AcDbText
 10
41.49999999999999
 20
73.01649746192885
 30
0.0
 40
1.5
  1
4
 50
90.0
  7
GOTHIC
100
AcDbText
  0
ENDBLK
  5
53BA
330
50D0
100
AcDbEntity
  8
0
100
AcDbBlockEnd
  0
BLOCK
  5
50D7
330
50D6
100
AcDbEntity
  8
0
100
AcDbBlockBegin
  2
*D92
 70
     1
 10
0.0
 20
0.0
 30
0.0
  3
*D92
  1

  0
LINE
  5
50D8
330
50D6
100
AcDbEntity
  8
DIMENSION
100
AcDbLine
 10
46.05384757729349
 20
78.49999999999997
 30
0.0
 11
37.5
 21
78.49999999999997
 31
0.0
  0
LINE
  5
50D9
330
50D6
100
AcDbEntity
  8
DIMENSION
100
AcDbLine
 10
46.05384757729336
 20
68.49999999999987
 30
0.0
 11
37.5
 21
68.49999999999987
 31
0.0
  0
LINE
  5
50DA
330
50D6
100
AcDbEntity
  8
DIMENSION
100
AcDbLine
 10
39.0
 20
77.49999999999997
 30
0.0
 11
39.0
 21
69.49999999999987
 31
0.0
  0
INSERT
  5
50DB
330
50D6
100
AcDbEntity
  8
DIMENSION
100
AcDbBlockReference
  2
_OPEN30
 10
39.0
 20
78.49999999999997
 30
0.0
 50
90.0
  0
INSERT
  5
50DC
330
50D6
100
AcDbEntity
  8
DIMENSION
100
AcDbBlockReference
  2
_OPEN30
 10
39.0
 20
68.49999999999987
 30
0.0
 50
270.0
  0
INSERT
  5
50DE
330
50D6
100
AcDbEntity
  8
0
100
AcDbBlockReference
  2
*U93
 10
0.0
 20
0.0
 30
0.0
  0
POINT
  5
50DF
330
50D6
100
AcDbEntity
  8
DEFPOINTS
 62
     0
100
AcDbPoint
 10
46.05384757729349
 20
78.49999999999997
 30
0.0
  0
POINT
  5
50E0
330
50D6
100
AcDbEntity
  8
DEFPOINTS
 62
     0
100
AcDbPoint
 10
46.05384757729336
 20
68.49999999999987
 30
0.0
  0
POINT
  5
50E1
330
50D6
100
AcDbEntity
  8
DEFPOINTS
 62
     0
100
AcDbPoint
 10
39.0
 20
68.49999999999987
 30
0.0
  0
ENDBLK
  5
50E2
330
50D6
100
AcDbEntity
  8
0
100
AcDbBlockEnd
  0
BLOCK
  5
53BB
330
50DD
100
AcDbEntity
  8
0
100
AcDbBlockBegin
  2
*U93
 70
     1
 10
0.0
 20
0.0
 30
0.0
  3
*U93
  1

  0
TEXT
  5
53BC
330
50DD
100
AcDbEntity
  8
DIMENSION
100
AcDbText
 10
38.5
 20
72.46827411167505
 30
0.0
 40
1.5
  1
10
 50
90.0
  7
GOTHIC
100
AcDbText
  0
ENDBLK
  5
53BD
330
50DD
100
AcDbEntity
  8
0
100
AcDbBlockEnd
  0
BLOCK
  5
50E4
330
50E3
100
AcDbEntity
  8
0
100
AcDbBlockBegin
  2
*D94
 70
     1
 10
0.0
 20
0.0
 30
0.0
  3
*D94
  1

  0
LINE
  5
50E5
330
50E3
100
AcDbEntity
  8
DIMENSION
100
AcDbLine
 10
45.25
 20
73.4999999999999
 30
0.0
 11
38.29248125463531
 21
83.43636652806315
 31
0.0
  0
LINE
  5
50E6
330
50E3
100
AcDbEntity
  8
DIMENSION
100
AcDbLine
 10
45.25
 20
73.4999999999999
 30
0.0
 11
38.29248125463531
 21
63.56363347193665
 31
0.0
  0
ARC
  5
50E7
330
50E3
100
AcDbEntity
  8
DIMENSION
100
AcDbCircle
 10
45.25
 20
73.4999999999999
 30
0.0
 40
10.6300637620796
100
AcDbArc
 50
130.3919646152762
 51
229.6080353847237
  0
INSERT
  5
50E8
330
50E3
100
AcDbEntity
  8
DIMENSION
100
AcDbBlockReference
  2
_OPEN30
 10
39.1528459091619
 20
82.20763846162965
 30
0.0
 50
37.69598230763843
  0
INSERT
  5
50E9
330
50E3
100
AcDbEntity
  8
DIMENSION
100
AcDbBlockReference
  2
_OPEN30
 10
39.15284590916188
 20
64.79236153837013
 30
0.0
 50
322.3040176923615
  0
INSERT
  5
50EB
330
50E3
100
AcDbEntity
  8
0
100
AcDbBlockReference
  2
*U95
 10
0.0
 20
0.0
 30
0.0
  0
POINT
  5
50EC
330
50E3
100
AcDbEntity
  8
DEFPOINTS
 62
     0
100
AcDbPoint
 10
35.15949017313364
 20
76.84363081391929
 30
0.0
  0
POINT
  5
50ED
330
50E3
100
AcDbEntity
  8
DEFPOINTS
 62
     0
100
AcDbPoint
 10
45.25
 20
73.4999999999999
 30
0.0
  0
POINT
  5
50EE
330
50E3
100
AcDbEntity
  8
DEFPOINTS
 62
     0
100
AcDbPoint
 10
45.25
 20
73.4999999999999
 30
0.0
  0
POINT
  5
50EF
330
50E3
100
AcDbEntity
  8
DEFPOINTS
 62
     0
100
AcDbPoint
 10
45.89485464119904
 20
72.5790521295331
 30
0.0
  0
POINT
  5
50F0
330
50E3
100
AcDbEntity
  8
DEFPOINTS
 62
     0
100
AcDbPoint
 10
45.89485464119904
 20
74.42094787046672
 30
0.0
  0
ENDBLK
  5
50F1
330
50E3
100
AcDbEntity
  8
0
100
AcDbBlockEnd
  0
BLOCK
  5
53BE
330
50EA
100
AcDbEntity
  8
0
100
AcDbBlockBegin
  2
*U95
 70
     1
 10
0.0
 20
0.0
 30
0.0
  3
*U95
  1

  0
TEXT
  5
53BF
330
50EA
100
AcDbEntity
  8
DIMENSION
100
AcDbText
 10
34.11993623792039
 20
71.64974619289329
 30
0.0
 40
1.5
  1
110°
 50
90.0
  7
GOTHIC
100
AcDbText
  0
ENDBLK
  5
53C0
330
50EA
100
AcDbEntity
  8
0
100
AcDbBlockEnd
  0
BLOCK
  5
50F3
330
50F2
100
AcDbEntity
  8
0
100
AcDbBlockBegin
  2
*D96
 70
     1
 10
0.0
 20
0.0
 30
0.0
  3
*D96
  1

  0
LINE
  5
50F4
330
50F2
100
AcDbEntity
  8
DIMENSION
100
AcDbLine
 10
48.75000000000015
 20
73.5000000000001
 30
0.0
 11
47.39089444767882
 21
74.9672532493232
 31
0.0
  0
INSERT
  5
50F5
330
50F2
100
AcDbEntity
  8
DIMENSION
100
AcDbBlockReference
  2
_OPEN30
 10
46.71134167151814
 20
75.70087987398476
 30
0.0
 50
132.8087052729054
  0
INSERT
  5
50F7
330
50F2
100
AcDbEntity
  8
0
100
AcDbBlockReference
  2
*U97
 10
0.0
 20
0.0
 30
0.0
  0
POINT
  5
50F8
330
50F2
100
AcDbEntity
  8
DEFPOINTS
 62
     0
100
AcDbPoint
 10
46.71134167151814
 20
75.70087987398476
 30
0.0
  0
POINT
  5
50F9
330
50F2
100
AcDbEntity
  8
DEFPOINTS
 62
     0
100
AcDbPoint
 10
48.75000000000015
 20
73.5000000000001
 30
0.0
  0
ENDBLK
  5
50FA
330
50F2
100
AcDbEntity
  8
0
100
AcDbBlockEnd
  0
BLOCK
  5
53C1
330
50F6
100
AcDbEntity
  8
0
100
AcDbBlockBegin
  2
*U97
 70
     1
 10
0.0
 20
0.0
 30
0.0
  3
*U97
  1

  0
TEXT
  5
53C2
330
50F6
100
AcDbEntity
  8
DIMENSION
100
AcDbText
 10
47.71812771122338
 20
75.34975917749754
 30
0.0
 40
1.5
  1
R3
 50
312.8087052729053
  7
GOTHIC
100
AcDbText
  0
ENDBLK
  5
53C3
330
50F6
100
AcDbEntity
  8
0
100
AcDbBlockEnd
  0
BLOCK
  5
50FC
330
50FB
100
AcDbEntity
  8
0
100
AcDbBlockBegin
  2
*D98
 70
     1
 10
0.0
 20
0.0
 30
0.0
  3
*D98
  1

  0
LINE
  5
50FD
330
50FB
100
AcDbEntity
  8
DIMENSION
100
AcDbLine
 10
45.25
 20
71.4999999999999
 30
0.0
 11
45.25
 21
63.0
 31
0.0
  0
LINE
  5
50FE
330
50FB
100
AcDbEntity
  8
DIMENSION
100
AcDbLine
 10
45.75000000000001
 20
73.4999999999999
 30
0.0
 11
45.75000000000001
 21
63.0
 31
0.0
  0
LINE
  5
50FF
330
50FB
100
AcDbEntity
  8
DIMENSION
100
AcDbLine
 10
44.24999999999999
 20
64.5
 30
0.0
 11
43.25
 21
64.5
 31
0.0
  0
LINE
  5
5100
330
50FB
100
AcDbEntity
  8
DIMENSION
100
AcDbLine
 10
46.74999999999999
 20
64.5
 30
0.0
 11
47.75000000000001
 21
64.5
 31
0.0
  0
LINE
  5
5101
330
50FB
100
AcDbEntity
  8
DIMENSION
100
AcDbLine
 10
45.49999999999999
 20
64.5
 30
0.0
 11
44.0
 21
61.5
 31
0.0
  0
LINE
  5
5102
330
50FB
100
AcDbEntity
  8
DIMENSION
100
AcDbLine
 10
44.0
 20
61.5
 30
0.0
 11
40.25126903553299
 21
61.5
 31
0.0
  0
INSERT
  5
5104
330
50FB
100
AcDbEntity
  8
0
100
AcDbBlockReference
  2
*U99
 10
0.0
 20
0.0
 30
0.0
  0
LINE
  5
5105
330
50FB
100
AcDbEntity
  8
DIMENSION
100
AcDbLine
 10
45.25
 20
64.5
 30
0.0
 11
45.75000000000001
 21
64.5
 31
0.0
  0
LINE
  5
5106
330
50FB
100
AcDbEntity
  8
DIMENSION
100
AcDbLine
 10
45.25
 20
64.5
 30
0.0
 11
45.75000000000001
 21
64.5
 31
0.0
  0
INSERT
  5
5107
330
50FB
100
AcDbEntity
  8
DIMENSION
100
AcDbBlockReference
  2
_OPEN30
 10
45.25
 20
64.5
 30
0.0
  0
INSERT
  5
5108
330
50FB
100
AcDbEntity
  8
DIMENSION
100
AcDbBlockReference
  2
_OPEN30
 10
45.75000000000001
 20
64.5
 30
0.0
 50
180.0
  0
POINT
  5
5109
330
50FB
100
AcDbEntity
  8
DEFPOINTS
 62
     0
100
AcDbPoint
 10
45.25
 20
71.4999999999999
 30
0.0
  0
POINT
  5
510A
330
50FB
100
AcDbEntity
  8
DEFPOINTS
 62
     0
100
AcDbPoint
 10
45.75000000000001
 20
73.4999999999999
 30
0.0
  0
POINT
  5
510B
330
50FB
100
AcDbEntity
  8
DEFPOINTS
 62
     0
100
AcDbPoint
 10
45.75000000000001
 20
64.5
 30
0.0
  0
ENDBLK
  5
510C
330
50FB
100
AcDbEntity
  8
0
100
AcDbBlockEnd
  0
BLOCK
  5
53C4
330
5103
100
AcDbEntity
  8
0
100
AcDbBlockBegin
  2
*U99
 70
     1
 10
0.0
 20
0.0
 30
0.0
  3
*U99
  1

  0
TEXT
  5
53C5
330
5103
100
AcDbEntity
  8
DIMENSION
100
AcDbText
 10
40.69035532994924
 20
62.0
 30
0.0
 40
1.5
  1
0.5
  7
GOTHIC
100
AcDbText
  0
ENDBLK
  5
53C6
330
5103
100
AcDbEntity
  8
0
100
AcDbBlockEnd
  0
BLOCK
  5
514D
330
514C
100
AcDbEntity
  8
0
100
AcDbBlockBegin
  2
*U100
 70
     1
 10
0.0
 20
0.0
 30
0.0
  3
*U100
  1

  0
TEXT
  5
514E
330
514C
100
AcDbEntity
  8
DIMENSION
100
AcDbText
 10
40.74999999999999
 20
73.02791878172583
 30
0.0
 40
1.5
  1
3
 50
90.0
  7
GOTHIC
100
AcDbText
  0
ENDBLK
  5
514F
330
514C
100
AcDbEntity
  8
0
100
AcDbBlockEnd
  0
BLOCK
  5
5151
330
5150
100
AcDbEntity
  8
0
100
AcDbBlockBegin
  2
*U101
 70
     1
 10
0.0
 20
0.0
 30
0.0
  3
*U101
  1

  0
TEXT
  5
5152
330
5150
100
AcDbEntity
  8
DIMENSION
100
AcDbText
 10
67.87055837563453
 20
84.7499999999999
 30
0.0
 40
1.5
  1
11
  7
GOTHIC
100
AcDbText
  0
ENDBLK
  5
5153
330
5150
100
AcDbEntity
  8
0
100
AcDbBlockEnd
  0
BLOCK
  5
5155
330
5154
100
AcDbEntity
  8
0
100
AcDbBlockBegin
  2
*U102
 70
     1
 10
0.0
 20
0.0
 30
0.0
  3
*U102
  1

  0
TEXT
  5
5156
330
5154
100
AcDbEntity
  8
DIMENSION
100
AcDbText
 10
53.22969543147208
 20
84.74999999999965
 30
0.0
 40
1.5
  1
18
  7
GOTHIC
100
AcDbText
  0
ENDBLK
  5
5157
330
5154
100
AcDbEntity
  8
0
100
AcDbBlockEnd
  0
BLOCK
  5
5159
330
5158
100
AcDbEntity
  8
0
100
AcDbBlockBegin
  2
*U103
 70
     1
 10
0.0
 20
0.0
 30
0.0
  3
*U103
  1

  0
TEXT
  5
515A
330
5158
100
AcDbEntity
  8
DIMENSION
100
AcDbText
 10
39.24999999999999
 20
44.02791878172592
 30
0.0
 40
1.5
  1
5
 50
90.0
  7
GOTHIC
100
AcDbText
  0
ENDBLK
  5
515B
330
5158
100
AcDbEntity
  8
0
100
AcDbBlockEnd
  0
BLOCK
  5
515D
330
515C
100
AcDbEntity
  8
0
100
AcDbBlockBegin
  2
*U104
 70
     1
 10
0.0
 20
0.0
 30
0.0
  3
*U104
  1

  0
TEXT
  5
515E
330
515C
100
AcDbEntity
  8
DIMENSION
100
AcDbText
 10
118.75
 20
41.56294416243656
 30
0.0
 40
1.5
  1
7
 50
90.0
  7
GOTHIC
100
AcDbText
  0
TEXT
  5
515F
330
515C
100
AcDbEntity
  8
DIMENSION
100
AcDbText
 10
117.1621827411166
 20
42.53756345177666
 30
0.0
 40
1.199999999999999
  1
 0
 50
90.0
  7
GOTHIC
100
AcDbText
  0
TEXT
  5
5160
330
515C
100
AcDbEntity
  8
DIMENSION
100
AcDbText
 10
118.75
 20
42.5010152284264
 30
0.0
 40
1.199999999999999
  1
-0.1
 50
90.0
  7
GOTHIC
100
AcDbText
  0
ENDBLK
  5
5161
330
515C
100
AcDbEntity
  8
0
100
AcDbBlockEnd
  0
BLOCK
  5
5163
330
5162
100
AcDbEntity
  8
0
100
AcDbBlockBegin
  2
*U105
 70
     1
 10
0.0
 20
0.0
 30
0.0
  3
*U105
  1

  0
TEXT
  5
5164
330
5162
100
AcDbEntity
  8
DIMENSION
100
AcDbText
 10
67.87055837563453
 20
35.74999999999999
 30
0.0
 40
1.5
  1
11
  7
GOTHIC
100
AcDbText
  0
ENDBLK
  5
5165
330
5162
100
AcDbEntity
  8
0
100
AcDbBlockEnd
  0
BLOCK
  5
5167
330
5166
100
AcDbEntity
  8
0
100
AcDbBlockBegin
  2
*U106
 70
     1
 10
0.0
 20
0.0
 30
0.0
  3
*U106
  1

  0
TEXT
  5
5168
330
5166
100
AcDbEntity
  8
DIMENSION
100
AcDbText
 10
58.78680203045674
 20
89.2499999999999
 30
0.0
 40
1.5
  1
29
  7
GOTHIC
100
AcDbText
  0
ENDBLK
  5
5169
330
5166
100
AcDbEntity
  8
0
100
AcDbBlockEnd
  0
BLOCK
  5
516B
330
516A
100
AcDbEntity
  8
0
100
AcDbBlockBegin
  2
*U107
 70
     1
 10
0.0
 20
0.0
 30
0.0
  3
*U107
  1

  0
TEXT
  5
516C
330
516A
100
AcDbEntity
  8
DIMENSION
100
AcDbText
 10
63.55583756345177
 20
62.24365482233503
 30
0.0
 40
1.5
  1
φ4.1
  7
GOTHIC
100
AcDbText
  0
ENDBLK
  5
516D
330
516A
100
AcDbEntity
  8
0
100
AcDbBlockEnd
  0
BLOCK
  5
516F
330
516E
100
AcDbEntity
  8
0
100
AcDbBlockBegin
  2
*U108
 70
     1
 10
0.0
 20
0.0
 30
0.0
  3
*U108
  1

  0
TEXT
  5
5170
330
516E
100
AcDbEntity
  8
DIMENSION
100
AcDbText
 10
21.12956758936029
 20
84.7499999999999
 30
0.0
 40
1.5
  1
5
  7
GOTHIC
100
AcDbText
  0
ENDBLK
  5
5171
330
516E
100
AcDbEntity
  8
0
100
AcDbBlockEnd
  0
BLOCK
  5
5173
330
5172
100
AcDbEntity
  8
0
100
AcDbBlockBegin
  2
*U109
 70
     1
 10
0.0
 20
0.0
 30
0.0
  3
*U109
  1

  0
TEXT
  5
5174
330
5172
100
AcDbEntity
  8
DIMENSION
100
AcDbText
 10
11.21633111563911
 20
72.48730964466995
 30
0.0
 40
1.5
  1
15
 50
90.0
  7
GOTHIC
100
AcDbText
  0
ENDBLK
  5
5175
330
5172
100
AcDbEntity
  8
0
100
AcDbBlockEnd
  0
BLOCK
  5
5177
330
5176
100
AcDbEntity
  8
0
100
AcDbBlockBegin
  2
*U110
 70
     1
 10
0.0
 20
0.0
 30
0.0
  3
*U110
  1

  0
TEXT
  5
5178
330
5176
100
AcDbEntity
  8
DIMENSION
 62
     3
100
AcDbText
 10
94.5432149409277
 20
95.33374846594096
 30
0.0
 40
1.5
  1
φ18
 50
329.9999999999997
  7
GOTHIC
100
AcDbText
  0
ENDBLK
  5
5179
330
5176
100
AcDbEntity
  8
0
100
AcDbBlockEnd
  0
BLOCK
  5
517B
330
517A
100
AcDbEntity
  8
0
100
AcDbBlockBegin
  2
*U111
 70
     1
 10
0.0
 20
0.0
 30
0.0
  3
*U111
  1

  0
TEXT
  5
517C
330
517A
100
AcDbEntity
  8
DIMENSION
 62
     3
100
AcDbText
 10
96.33092219788457
 20
98.39969141125795
 30
0.0
 40
1.5
  1
φ17
 50
329.9999999999998
  7
GOTHIC
100
AcDbText
  0
ENDBLK
  5
517D
330
517A
100
AcDbEntity
  8
0
100
AcDbBlockEnd
  0
BLOCK
  5
517F
330
517E
100
AcDbEntity
  8
0
100
AcDbBlockBegin
  2
*U112
 70
     1
 10
0.0
 20
0.0
 30
0.0
  3
*U112
  1

  0
TEXT
  5
5180
330
517E
100
AcDbEntity
  8
DIMENSION
 62
     3
100
AcDbText
 10
145.0
 20
108.7703045685279
 30
0.0
 40
1.5
  1
2
 50
90.0
  7
GOTHIC
100
AcDbText
  0
ENDBLK
  5
5181
330
517E
100
AcDbEntity
  8
0
100
AcDbBlockEnd
  0
BLOCK
  5
5183
330
5182
100
AcDbEntity
  8
0
100
AcDbBlockBegin
  2
*U113
 70
     1
 10
0.0
 20
0.0
 30
0.0
  3
*U113
  1

  0
TEXT
  5
5184
330
5182
100
AcDbEntity
  8
DIMENSION
 62
     3
100
AcDbText
 10
144.5368020304565
 20
97.9999999999999
 30
0.0
 40
1.5
  1
R3
  7
GOTHIC
100
AcDbText
  0
ENDBLK
  5
5185
330
5182
100
AcDbEntity
  8
0
100
AcDbBlockEnd
  0
BLOCK
  5
5187
330
5186
100
AcDbEntity
  8
0
100
AcDbBlockBegin
  2
*U114
 70
     1
 10
0.0
 20
0.0
 30
0.0
  3
*U114
  1

  0
TEXT
  5
5188
330
5186
100
AcDbEntity
  8
DIMENSION
 62
     3
100
AcDbText
 10
29.49999999999999
 20
108.2373096446699
 30
0.0
 40
1.5
  1
15
 50
90.0
  7
GOTHIC
100
AcDbText
  0
ENDBLK
  5
5189
330
5186
100
AcDbEntity
  8
0
100
AcDbBlockEnd
  0
BLOCK
  5
518B
330
518A
100
AcDbEntity
  8
0
100
AcDbBlockBegin
  2
*U115
 70
     1
 10
0.0
 20
0.0
 30
0.0
  3
*U115
  1

  0
TEXT
  5
518C
330
518A
100
AcDbEntity
  8
DIMENSION
 62
     3
100
AcDbText
 10
126.9944142473518
 20
111.2531309544715
 30
0.0
 40
1.5
  1
2
 50
90.0
  7
GOTHIC
100
AcDbText
  0
ENDBLK
  5
518D
330
518A
100
AcDbEntity
  8
0
100
AcDbBlockEnd
  0
BLOCK
  5
518F
330
518E
100
AcDbEntity
  8
0
100
AcDbBlockBegin
  2
*U116
 70
     1
 10
0.0
 20
0.0
 30
0.0
  3
*U116
  1

  0
TEXT
  5
5190
330
518E
100
AcDbEntity
  8
DIMENSION
 62
     3
100
AcDbText
 10
149.4999999999998
 20
107.2626903553298
 30
0.0
 40
1.5
  1
11.5
 50
90.0
  7
GOTHIC
100
AcDbText
  0
ENDBLK
  5
5191
330
518E
100
AcDbEntity
  8
0
100
AcDbBlockEnd
  0
BLOCK
  5
5193
330
5192
100
AcDbEntity
  8
0
100
AcDbBlockBegin
  2
*U117
 70
     1
 10
0.0
 20
0.0
 30
0.0
  3
*U117
  1

  0
TEXT
  5
5194
330
5192
100
AcDbEntity
  8
DIMENSION
 62
     3
100
AcDbText
 10
139.0279187817258
 20
98.0
 30
0.0
 40
1.5
  1
3
  7
GOTHIC
100
AcDbText
  0
ENDBLK
  5
5195
330
5192
100
AcDbEntity
  8
0
100
AcDbBlockEnd
  0
BLOCK
  5
5197
330
5196
100
AcDbEntity
  8
0
100
AcDbBlockBegin
  2
*U118
 70
     1
 10
0.0
 20
0.0
 30
0.0
  3
*U118
  1

  0
TEXT
  5
5198
330
5196
100
AcDbEntity
  8
DIMENSION
 62
     3
100
AcDbText
 10
110.4873096446699
 20
98.0
 30
0.0
 40
1.5
  1
13
  7
GOTHIC
100
AcDbText
  0
ENDBLK
  5
5199
330
5196
100
AcDbEntity
  8
0
100
AcDbBlockEnd
  0
BLOCK
  5
519B
330
519A
100
AcDbEntity
  8
0
100
AcDbBlockBegin
  2
*U119
 70
     1
 10
0.0
 20
0.0
 30
0.0
  3
*U119
  1

  0
TEXT
  5
519C
330
519A
100
AcDbEntity
  8
DIMENSION
 62
     3
100
AcDbText
 10
71.49999999999997
 20
108.7779187817259
 30
0.0
 40
1.5
  1
3
 50
90.0
  7
GOTHIC
100
AcDbText
  0
ENDBLK
  5
519D
330
519A
100
AcDbEntity
  8
0
100
AcDbBlockEnd
  0
BLOCK
  5
519F
330
519E
100
AcDbEntity
  8
0
100
AcDbBlockBegin
  2
*U120
 70
     1
 10
0.0
 20
0.0
 30
0.0
  3
*U120
  1

  0
TEXT
  5
51A0
330
519E
100
AcDbEntity
  8
DIMENSION
 62
     3
100
AcDbText
 10
107.5291878172587
 20
129.4999999999997
 30
0.0
 40
1.5
  1
65
  7
GOTHIC
100
AcDbText
  0
ENDBLK
  5
51A1
330
519E
100
AcDbEntity
  8
0
100
AcDbBlockEnd
  0
BLOCK
  5
51A3
330
51A2
100
AcDbEntity
  8
0
100
AcDbBlockBegin
  2
*U121
 70
     1
 10
0.0
 20
0.0
 30
0.0
  3
*U121
  1

  0
TEXT
  5
51A4
330
51A2
100
AcDbEntity
  8
DIMENSION
 62
     3
100
AcDbText
 10
142.6084167671189
 20
120.5
 30
0.0
 40
1.5
  1
3.5
  7
GOTHIC
100
AcDbText
  0
ENDBLK
  5
51A5
330
51A2
100
AcDbEntity
  8
0
100
AcDbBlockEnd
  0
BLOCK
  5
51A7
330
51A6
100
AcDbEntity
  8
0
100
AcDbBlockBegin
  2
*U122
 70
     1
 10
0.0
 20
0.0
 30
0.0
  3
*U122
  1

  0
TEXT
  5
51A8
330
51A6
100
AcDbEntity
  8
DIMENSION
 62
     3
100
AcDbText
 10
121.8121827411166
 20
120.5
 30
0.0
 40
1.5
  1
27.5
  7
GOTHIC
100
AcDbText
  0
ENDBLK
  5
51A9
330
51A6
100
AcDbEntity
  8
0
100
AcDbBlockEnd
  0
BLOCK
  5
51AB
330
51AA
100
AcDbEntity
  8
0
100
AcDbBlockBegin
  2
*U123
 70
     1
 10
0.0
 20
0.0
 30
0.0
  3
*U123
  1

  0
TEXT
  5
51AC
330
51AA
100
AcDbEntity
  8
DIMENSION
 62
     3
100
AcDbText
 10
107.0279187817259
 20
120.5
 30
0.0
 40
1.5
  1
5
  7
GOTHIC
100
AcDbText
  0
ENDBLK
  5
51AD
330
51AA
100
AcDbEntity
  8
0
100
AcDbBlockEnd
  0
BLOCK
  5
51AF
330
51AE
100
AcDbEntity
  8
0
100
AcDbBlockBegin
  2
*U124
 70
     1
 10
0.0
 20
0.0
 30
0.0
  3
*U124
  1

  0
TEXT
  5
51B0
330
51AE
100
AcDbEntity
  8
DIMENSION
 62
     3
100
AcDbText
 10
98.62055837563453
 20
120.5
 30
0.0
 40
1.5
  1
11
  7
GOTHIC
100
AcDbText
  0
ENDBLK
  5
51B1
330
51AE
100
AcDbEntity
  8
0
100
AcDbBlockEnd
  0
BLOCK
  5
51B3
330
51B2
100
AcDbEntity
  8
0
100
AcDbBlockBegin
  2
*U125
 70
     1
 10
0.0
 20
0.0
 30
0.0
  3
*U125
  1

  0
TEXT
  5
51B4
330
51B2
100
AcDbEntity
  8
DIMENSION
 62
     3
100
AcDbText
 10
83.97969543147208
 20
120.4999999999997
 30
0.0
 40
1.5
  1
18
  7
GOTHIC
100
AcDbText
  0
ENDBLK
  5
51B5
330
51B2
100
AcDbEntity
  8
0
100
AcDbBlockEnd
  0
BLOCK
  5
51B7
330
51B6
100
AcDbEntity
  8
0
100
AcDbBlockBegin
  2
*U126
 70
     1
 10
0.0
 20
0.0
 30
0.0
  3
*U126
  1

  0
TEXT
  5
51B8
330
51B6
100
AcDbEntity
  8
DIMENSION
 62
     3
100
AcDbText
 10
36.41323647372117
 20
98.0
 30
0.0
 40
1.5
  1
3
  7
GOTHIC
100
AcDbText
  0
ENDBLK
  5
51B9
330
51B6
100
AcDbEntity
  8
0
100
AcDbBlockEnd
  0
BLOCK
  5
51BB
330
51BA
100
AcDbEntity
  8
0
100
AcDbBlockBegin
  2
*U127
 70
     1
 10
0.0
 20
0.0
 30
0.0
  3
*U127
  1

  0
TEXT
  5
51BC
330
51BA
100
AcDbEntity
  8
DIMENSION
 62
     3
100
AcDbText
 10
89.53680203045685
 20
125.0
 30
0.0
 40
1.5
  1
29
  7
GOTHIC
100
AcDbText
  0
ENDBLK
  5
51BD
330
51BA
100
AcDbEntity
  8
0
100
AcDbBlockEnd
  0
BLOCK
  5
51BF
330
51BE
100
AcDbEntity
  8
0
100
AcDbBlockBegin
  2
*U128
 70
     1
 10
0.0
 20
0.0
 30
0.0
  3
*U128
  1

  0
TEXT
  5
51C0
330
51BE
100
AcDbEntity
  8
DIMENSION
 62
     3
100
AcDbText
 10
122.0368020304567
 20
125.0
 30
0.0
 40
1.5
  1
36
  7
GOTHIC
100
AcDbText
  0
ENDBLK
  5
51C1
330
51BE
100
AcDbEntity
  8
0
100
AcDbBlockEnd
  0
BLOCK
  5
51C3
330
51C2
100
AcDbEntity
  8
0
100
AcDbBlockBegin
  2
*U129
 70
     1
 10
0.0
 20
0.0
 30
0.0
  3
*U129
  1

  0
TEXT
  5
51C4
330
51C2
100
AcDbEntity
  8
DIMENSION
100
AcDbText
 10
63.79321494092767
 20
59.58374846594089
 30
0.0
 40
1.5
  1
φ18
 50
329.9999999999997
  7
GOTHIC
100
AcDbText
  0
ENDBLK
  5
51C5
330
51C2
100
AcDbEntity
  8
0
100
AcDbBlockEnd
  0
BLOCK
  5
51C7
330
51C6
100
AcDbEntity
  8
0
100
AcDbBlockBegin
  2
*U130
 70
     1
 10
0.0
 20
0.0
 30
0.0
  3
*U130
  1

  0
TEXT
  5
51C8
330
51C6
100
AcDbEntity
  8
DIMENSION
100
AcDbText
 10
65.5809221978846
 20
62.64969141125789
 30
0.0
 40
1.5
  1
φ17
 50
329.9999999999998
  7
GOTHIC
100
AcDbText
  0
ENDBLK
  5
51C9
330
51C6
100
AcDbEntity
  8
0
100
AcDbBlockEnd
  0
BLOCK
  5
51CB
330
51CA
100
AcDbEntity
  8
0
100
AcDbBlockBegin
  2
*U131
 70
     1
 10
0.0
 20
0.0
 30
0.0
  3
*U131
  1

  0
TEXT
  5
51CC
330
51CA
100
AcDbEntity
  8
DIMENSION
100
AcDbText
 10
96.24441424735188
 20
75.5031309544715
 30
0.0
 40
1.5
  1
2
 50
90.0
  7
GOTHIC
100
AcDbText
  0
ENDBLK
  5
51CD
330
51CA
100
AcDbEntity
  8
0
100
AcDbBlockEnd
  0
BLOCK
  5
51CF
330
51CE
100
AcDbEntity
  8
0
100
AcDbBlockBegin
  2
*U132
 70
     1
 10
0.0
 20
0.0
 30
0.0
  3
*U132
  1

  0
TEXT
  5
51D0
330
51CE
100
AcDbEntity
  8
DIMENSION
100
AcDbText
 10
118.75
 20
71.51269035532988
 30
0.0
 40
1.5
  1
11.5
 50
90.0
  7
GOTHIC
100
AcDbText
  0
ENDBLK
  5
51D1
330
51CE
100
AcDbEntity
  8
0
100
AcDbBlockEnd
  0
BLOCK
  5
51D3
330
51D2
100
AcDbEntity
  8
0
100
AcDbBlockBegin
  2
*U133
 70
     1
 10
0.0
 20
0.0
 30
0.0
  3
*U133
  1

  0
TEXT
  5
51D4
330
51D2
100
AcDbEntity
  8
DIMENSION
100
AcDbText
 10
114.25
 20
73.02030456852786
 30
0.0
 40
1.5
  1
2
 50
90.0
  7
GOTHIC
100
AcDbText
  0
ENDBLK
  5
51D5
330
51D2
100
AcDbEntity
  8
0
100
AcDbBlockEnd
  0
BLOCK
  5
51D7
330
51D6
100
AcDbEntity
  8
0
100
AcDbBlockBegin
  2
*U134
 70
     1
 10
0.0
 20
0.0
 30
0.0
  3
*U134
  1

  0
TEXT
  5
51D8
330
51D6
100
AcDbEntity
  8
DIMENSION
100
AcDbText
 10
108.2779187817259
 20
62.2499999999999
 30
0.0
 40
1.5
  1
3
  7
GOTHIC
100
AcDbText
  0
ENDBLK
  5
51D9
330
51D6
100
AcDbEntity
  8
0
100
AcDbBlockEnd
  0
BLOCK
  5
51DB
330
51DA
100
AcDbEntity
  8
0
100
AcDbBlockBegin
  2
*U135
 70
     1
 10
0.0
 20
0.0
 30
0.0
  3
*U135
  1

  0
TEXT
  5
51DC
330
51DA
100
AcDbEntity
  8
DIMENSION
100
AcDbText
 10
79.73730964467006
 20
62.2499999999999
 30
0.0
 40
1.5
  1
13
  7
GOTHIC
100
AcDbText
  0
ENDBLK
  5
51DD
330
51DA
100
AcDbEntity
  8
0
100
AcDbBlockEnd
  0
BLOCK
  5
51DF
330
51DE
100
AcDbEntity
  8
0
100
AcDbBlockBegin
  2
*U136
 70
     1
 10
0.0
 20
0.0
 30
0.0
  3
*U136
  1

  0
TEXT
  5
51E0
330
51DE
100
AcDbEntity
  8
DIMENSION
100
AcDbText
 10
40.74999999999999
 20
73.02791878172581
 30
0.0
 40
1.5
  1
3
 50
90.0
  7
GOTHIC
100
AcDbText
  0
ENDBLK
  5
51E1
330
51DE
100
AcDbEntity
  8
0
100
AcDbBlockEnd
  0
BLOCK
  5
51E3
330
51E2
100
AcDbEntity
  8
0
100
AcDbBlockBegin
  2
*U137
 70
     1
 10
0.0
 20
0.0
 30
0.0
  3
*U137
  1

  0
TEXT
  5
51E4
330
51E2
100
AcDbEntity
  8
DIMENSION
100
AcDbText
 10
111.858416767119
 20
84.7499999999999
 30
0.0
 40
1.5
  1
3.5
  7
GOTHIC
100
AcDbText
  0
ENDBLK
  5
51E5
330
51E2
100
AcDbEntity
  8
0
100
AcDbBlockEnd
  0
BLOCK
  5
51E7
330
51E6
100
AcDbEntity
  8
0
100
AcDbBlockBegin
  2
*U138
 70
     1
 10
0.0
 20
0.0
 30
0.0
  3
*U138
  1

  0
TEXT
  5
51E8
330
51E6
100
AcDbEntity
  8
DIMENSION
100
AcDbText
 10
91.06218274111673
 20
84.7499999999999
 30
0.0
 40
1.5
  1
27.5
  7
GOTHIC
100
AcDbText
  0
ENDBLK
  5
51E9
330
51E6
100
AcDbEntity
  8
0
100
AcDbBlockEnd
  0
BLOCK
  5
51EB
330
51EA
100
AcDbEntity
  8
0
100
AcDbBlockBegin
  2
*U139
 70
     1
 10
0.0
 20
0.0
 30
0.0
  3
*U139
  1

  0
TEXT
  5
51EC
330
51EA
100
AcDbEntity
  8
DIMENSION
100
AcDbText
 10
76.27791878172589
 20
84.7499999999999
 30
0.0
 40
1.5
  1
5
  7
GOTHIC
100
AcDbText
  0
ENDBLK
  5
51ED
330
51EA
100
AcDbEntity
  8
0
100
AcDbBlockEnd
  0
BLOCK
  5
51EF
330
51EE
100
AcDbEntity
  8
0
100
AcDbBlockBegin
  2
*U140
 70
     1
 10
0.0
 20
0.0
 30
0.0
  3
*U140
  1

  0
TEXT
  5
51F0
330
51EE
100
AcDbEntity
  8
DIMENSION
100
AcDbText
 10
67.87055837563453
 20
84.7499999999999
 30
0.0
 40
1.5
  1
11
  7
GOTHIC
100
AcDbText
  0
ENDBLK
  5
51F1
330
51EE
100
AcDbEntity
  8
0
100
AcDbBlockEnd
  0
BLOCK
  5
51F3
330
51F2
100
AcDbEntity
  8
0
100
AcDbBlockBegin
  2
*U141
 70
     1
 10
0.0
 20
0.0
 30
0.0
  3
*U141
  1

  0
TEXT
  5
51F4
330
51F2
100
AcDbEntity
  8
DIMENSION
100
AcDbText
 10
91.28680203045677
 20
89.2499999999999
 30
0.0
 40
1.5
  1
36
  7
GOTHIC
100
AcDbText
  0
ENDBLK
  5
51F5
330
51F2
100
AcDbEntity
  8
0
100
AcDbBlockEnd
  0
BLOCK
  5
51F7
330
51F6
100
AcDbEntity
  8
0
100
AcDbBlockBegin
  2
*U142
 70
     1
 10
0.0
 20
0.0
 30
0.0
  3
*U142
  1

  0
TEXT
  5
51F8
330
51F6
100
AcDbEntity
  8
DIMENSION
100
AcDbText
 10
113.7868020304565
 20
62.24999999999987
 30
0.0
 40
1.5
  1
R3
  7
GOTHIC
100
AcDbText
  0
ENDBLK
  5
51F9
330
51F6
100
AcDbEntity
  8
0
100
AcDbBlockEnd
  0
BLOCK
  5
51FB
330
51FA
100
AcDbEntity
  8
0
100
AcDbBlockBegin
  2
*U143
 70
     1
 10
0.0
 20
0.0
 30
0.0
  3
*U143
  1

  0
TEXT
  5
51FC
330
51FA
100
AcDbEntity
  8
DIMENSION
100
AcDbText
 10
76.77918781725868
 20
93.74999999999978
 30
0.0
 40
1.5
  1
65
  7
GOTHIC
100
AcDbText
  0
ENDBLK
  5
51FD
330
51FA
100
AcDbEntity
  8
0
100
AcDbBlockEnd
  0
BLOCK
  5
51FF
330
51FE
100
AcDbEntity
  8
0
100
AcDbBlockBegin
  2
*U144
 70
     1
 10
0.0
 20
0.0
 30
0.0
  3
*U144
  1

  0
TEXT
  5
5200
330
51FE
100
AcDbEntity
  8
DIMENSION
100
AcDbText
 10
53.22969543147208
 20
84.74999999999964
 30
0.0
 40
1.5
  1
18
  7
GOTHIC
100
AcDbText
  0
ENDBLK
  5
5201
330
51FE
100
AcDbEntity
  8
0
100
AcDbBlockEnd
  0
BLOCK
  5
5203
330
5202
100
AcDbEntity
  8
0
100
AcDbBlockBegin
  2
*U145
 70
     1
 10
0.0
 20
0.0
 30
0.0
  3
*U145
  1

  0
TEXT
  5
5204
330
5202
100
AcDbEntity
  8
DIMENSION
 62
     3
100
AcDbText
 10
69.99999999999999
 20
68.7779187817259
 30
0.0
 40
1.5
  1
3
 50
90.0
  7
GOTHIC
100
AcDbText
  0
ENDBLK
  5
5205
330
5202
100
AcDbEntity
  8
0
100
AcDbBlockEnd
  0
BLOCK
  5
5207
330
5206
100
AcDbEntity
  8
0
100
AcDbBlockBegin
  2
*U146
 70
     1
 10
0.0
 20
0.0
 30
0.0
  3
*U146
  1

  0
TEXT
  5
5208
330
5206
100
AcDbEntity
  8
DIMENSION
 62
     3
100
AcDbText
 10
98.62055837563453
 20
78.5
 30
0.0
 40
1.5
  1
11
  7
GOTHIC
100
AcDbText
  0
ENDBLK
  5
5209
330
5206
100
AcDbEntity
  8
0
100
AcDbBlockEnd
  0
BLOCK
  5
520B
330
520A
100
AcDbEntity
  8
0
100
AcDbBlockBegin
  2
*U147
 70
     1
 10
0.0
 20
0.0
 30
0.0
  3
*U147
  1

  0
TEXT
  5
520C
330
520A
100
AcDbEntity
  8
DIMENSION
 62
     3
100
AcDbText
 10
143.0329949238583
 20
63.49999999999997
 30
0.0
 40
1.5
  1
R2
  7
GOTHIC
100
AcDbText
  0
ENDBLK
  5
520D
330
520A
100
AcDbEntity
  8
0
100
AcDbBlockEnd
  0
BLOCK
  5
520F
330
520E
100
AcDbEntity
  8
0
100
AcDbBlockBegin
  2
*U148
 70
     1
 10
0.0
 20
0.0
 30
0.0
  3
*U148
  1

  0
TEXT
  5
5210
330
520E
100
AcDbEntity
  8
DIMENSION
 62
     3
100
AcDbText
 10
149.4999999999998
 20
69.31294416243656
 30
0.0
 40
1.5
  1
7
 50
90.0
  7
GOTHIC
100
AcDbText
  0
TEXT
  5
5211
330
520E
100
AcDbEntity
  8
DIMENSION
 62
     3
100
AcDbText
 10
147.9121827411167
 20
70.28756345177666
 30
0.0
 40
1.199999999999999
  1
 0
 50
90.0
  7
GOTHIC
100
AcDbText
  0
TEXT
  5
5212
330
520E
100
AcDbEntity
  8
DIMENSION
 62
     3
100
AcDbText
 10
149.4999999999998
 20
70.25101522842641
 30
0.0
 40
1.199999999999999
  1
-0.1
 50
90.0
  7
GOTHIC
100
AcDbText
  0
ENDBLK
  5
5213
330
520E
100
AcDbEntity
  8
0
100
AcDbBlockEnd
  0
BLOCK
  5
5215
330
5214
100
AcDbEntity
  8
0
100
AcDbBlockBegin
  2
*U149
 70
     1
 10
0.0
 20
0.0
 30
0.0
  3
*U149
  1

  0
TEXT
  5
5216
330
5214
100
AcDbEntity
  8
DIMENSION
 62
     3
100
AcDbText
 10
145.0
 20
70.76269035532995
 30
0.0
 40
1.5
  1
6
 50
90.0
  7
GOTHIC
100
AcDbText
  0
ENDBLK
  5
5217
330
5214
100
AcDbEntity
  8
0
100
AcDbBlockEnd
  0
BLOCK
  5
5219
330
5218
100
AcDbEntity
  8
0
100
AcDbBlockBegin
  2
*U150
 70
     1
 10
0.0
 20
0.0
 30
0.0
  3
*U150
  1

  0
TEXT
  5
521A
330
5218
100
AcDbEntity
  8
DIMENSION
100
AcDbText
 10
39.24999999999999
 20
41.02791878172591
 30
0.0
 40
1.5
  1
3
 50
90.0
  7
GOTHIC
100
AcDbText
  0
ENDBLK
  5
521B
330
5218
100
AcDbEntity
  8
0
100
AcDbBlockEnd
  0
BLOCK
  5
521D
330
521C
100
AcDbEntity
  8
0
100
AcDbBlockBegin
  2
*U151
 70
     1
 10
0.0
 20
0.0
 30
0.0
  3
*U151
  1

  0
TEXT
  5
521E
330
521C
100
AcDbEntity
  8
DIMENSION
100
AcDbText
 10
67.87055837563453
 20
50.75
 30
0.0
 40
1.5
  1
11
  7
GOTHIC
100
AcDbText
  0
ENDBLK
  5
521F
330
521C
100
AcDbEntity
  8
0
100
AcDbBlockEnd
  0
BLOCK
  5
5221
330
5220
100
AcDbEntity
  8
0
100
AcDbBlockBegin
  2
*U152
 70
     1
 10
0.0
 20
0.0
 30
0.0
  3
*U152
  1

  0
TEXT
  5
5222
330
5220
100
AcDbEntity
  8
DIMENSION
100
AcDbText
 10
118.75
 20
41.56294416243656
 30
0.0
 40
1.5
  1
7
 50
90.0
  7
GOTHIC
100
AcDbText
  0
TEXT
  5
5223
330
5220
100
AcDbEntity
  8
DIMENSION
100
AcDbText
 10
117.1621827411166
 20
42.53756345177666
 30
0.0
 40
1.199999999999999
  1
 0
 50
90.0
  7
GOTHIC
100
AcDbText
  0
TEXT
  5
5224
330
5220
100
AcDbEntity
  8
DIMENSION
100
AcDbText
 10
118.75
 20
42.5010152284264
 30
0.0
 40
1.199999999999999
  1
-0.1
 50
90.0
  7
GOTHIC
100
AcDbText
  0
ENDBLK
  5
5225
330
5220
100
AcDbEntity
  8
0
100
AcDbBlockEnd
  0
BLOCK
  5
5227
330
5226
100
AcDbEntity
  8
0
100
AcDbBlockBegin
  2
*U153
 70
     1
 10
0.0
 20
0.0
 30
0.0
  3
*U153
  1

  0
TEXT
  5
5228
330
5226
100
AcDbEntity
  8
DIMENSION
100
AcDbText
 10
114.25
 20
43.01269035532995
 30
0.0
 40
1.5
  1
6
 50
90.0
  7
GOTHIC
100
AcDbText
  0
ENDBLK
  5
5229
330
5226
100
AcDbEntity
  8
0
100
AcDbBlockEnd
  0
BLOCK
  5
522B
330
522A
100
AcDbEntity
  8
0
100
AcDbBlockBegin
  2
*U154
 70
     1
 10
0.0
 20
0.0
 30
0.0
  3
*U154
  1

  0
TEXT
  5
522C
330
522A
100
AcDbEntity
  8
DIMENSION
100
AcDbText
 10
112.2829949238584
 20
35.74999999999996
 30
0.0
 40
1.5
  1
R2
  7
GOTHIC
100
AcDbText
  0
ENDBLK
  5
522D
330
522A
100
AcDbEntity
  8
0
100
AcDbBlockEnd
  0
BLOCK
  5
522F
330
522E
100
AcDbEntity
  8
0
100
AcDbBlockBegin
  2
*U155
 70
     1
 10
0.0
 20
0.0
 30
0.0
  3
*U155
  1

  0
TEXT
  5
5230
330
522E
100
AcDbEntity
  8
DIMENSION
100
AcDbText
 10
58.78680203045685
 20
89.2499999999999
 30
0.0
 40
1.5
  1
29
  7
GOTHIC
100
AcDbText
  0
ENDBLK
  5
5231
330
522E
100
AcDbEntity
  8
0
100
AcDbBlockEnd
  0
BLOCK
  5
5233
330
5232
100
AcDbEntity
  8
0
100
AcDbBlockBegin
  2
*U156
 70
     1
 10
0.0
 20
0.0
 30
0.0
  3
*U156
  1

  0
TEXT
  5
5234
330
5232
100
AcDbEntity
  8
DIMENSION
100
AcDbText
 10
63.55583756345176
 20
62.24365482233505
 30
0.0
 40
1.5
  1
φ4.1
  7
GOTHIC
100
AcDbText
  0
ENDBLK
  5
5235
330
5232
100
AcDbEntity
  8
0
100
AcDbBlockEnd
  0
BLOCK
  5
5237
330
5236
100
AcDbEntity
  8
0
100
AcDbBlockBegin
  2
*U157
 70
     1
 10
0.0
 20
0.0
 30
0.0
  3
*U157
  1

  0
TEXT
  5
5238
330
5236
100
AcDbEntity
  8
DIMENSION
100
AcDbText
 10
11.21633111563911
 20
72.48730964466995
 30
0.0
 40
1.5
  1
15
 50
90.0
  7
GOTHIC
100
AcDbText
  0
ENDBLK
  5
5239
330
5236
100
AcDbEntity
  8
0
100
AcDbBlockEnd
  0
BLOCK
  5
523B
330
523A
100
AcDbEntity
  8
0
100
AcDbBlockBegin
  2
*U158
 70
     1
 10
0.0
 20
0.0
 30
0.0
  3
*U158
  1

  0
TEXT
  5
523C
330
523A
100
AcDbEntity
  8
DIMENSION
100
AcDbText
 10
18.12956758936029
 20
62.2499999999999
 30
0.0
 40
1.5
  1
3
  7
GOTHIC
100
AcDbText
  0
ENDBLK
  5
523D
330
523A
100
AcDbEntity
  8
0
100
AcDbBlockEnd
  0
BLOCK
  5
523F
330
523E
100
AcDbEntity
  8
0
100
AcDbBlockBegin
  2
*U159
 70
     1
 10
0.0
 20
0.0
 30
0.0
  3
*U159
  1

  0
TEXT
  5
5240
330
523E
100
AcDbEntity
  8
DIMENSION
 62
     3
100
AcDbText
 10
94.5432149409277
 20
95.33374846594096
 30
0.0
 40
1.5
  1
φ18
 50
329.9999999999997
  7
GOTHIC
100
AcDbText
  0
ENDBLK
  5
5241
330
523E
100
AcDbEntity
  8
0
100
AcDbBlockEnd
  0
BLOCK
  5
5243
330
5242
100
AcDbEntity
  8
0
100
AcDbBlockBegin
  2
*U160
 70
     1
 10
0.0
 20
0.0
 30
0.0
  3
*U160
  1

  0
TEXT
  5
5244
330
5242
100
AcDbEntity
  8
DIMENSION
 62
     3
100
AcDbText
 10
96.33092219788457
 20
98.39969141125795
 30
0.0
 40
1.5
  1
φ17
 50
329.9999999999998
  7
GOTHIC
100
AcDbText
  0
ENDBLK
  5
5245
330
5242
100
AcDbEntity
  8
0
100
AcDbBlockEnd
  0
BLOCK
  5
5247
330
5246
100
AcDbEntity
  8
0
100
AcDbBlockBegin
  2
*U161
 70
     1
 10
0.0
 20
0.0
 30
0.0
  3
*U161
  1

  0
TEXT
  5
5248
330
5246
100
AcDbEntity
  8
DIMENSION
 62
     3
100
AcDbText
 10
145.0
 20
108.7703045685279
 30
0.0
 40
1.5
  1
2
 50
90.0
  7
GOTHIC
100
AcDbText
  0
ENDBLK
  5
5249
330
5246
100
AcDbEntity
  8
0
100
AcDbBlockEnd
  0
BLOCK
  5
524B
330
524A
100
AcDbEntity
  8
0
100
AcDbBlockBegin
  2
*U162
 70
     1
 10
0.0
 20
0.0
 30
0.0
  3
*U162
  1

  0
TEXT
  5
524C
330
524A
100
AcDbEntity
  8
DIMENSION
 62
     3
100
AcDbText
 10
83.97969543147208
 20
120.5
 30
0.0
 40
1.5
  1
18
  7
GOTHIC
100
AcDbText
  0
ENDBLK
  5
524D
330
524A
100
AcDbEntity
  8
0
100
AcDbBlockEnd
  0
BLOCK
  5
524F
330
524E
100
AcDbEntity
  8
0
100
AcDbBlockBegin
  2
*U163
 70
     1
 10
0.0
 20
0.0
 30
0.0
  3
*U163
  1

  0
TEXT
  5
5250
330
524E
100
AcDbEntity
  8
DIMENSION
 62
     3
100
AcDbText
 10
144.5368020304568
 20
98.00000000000004
 30
0.0
 40
1.5
  1
R3
  7
GOTHIC
100
AcDbText
  0
ENDBLK
  5
5251
330
524E
100
AcDbEntity
  8
0
100
AcDbBlockEnd
  0
BLOCK
  5
5253
330
5252
100
AcDbEntity
  8
0
100
AcDbBlockBegin
  2
*U164
 70
     1
 10
0.0
 20
0.0
 30
0.0
  3
*U164
  1

  0
TEXT
  5
5254
330
5252
100
AcDbEntity
  8
DIMENSION
 62
     3
100
AcDbText
 10
61.5494923857868
 20
98.0
 30
0.0
 40
1.5
  1
2.5
  7
GOTHIC
100
AcDbText
  0
ENDBLK
  5
5255
330
5252
100
AcDbEntity
  8
0
100
AcDbBlockEnd
  0
BLOCK
  5
5257
330
5256
100
AcDbEntity
  8
0
100
AcDbBlockBegin
  2
*U165
 70
     1
 10
0.0
 20
0.0
 30
0.0
  3
*U165
  1

  0
TEXT
  5
5258
330
5256
100
AcDbEntity
  8
DIMENSION
 62
     3
100
AcDbText
 10
50.49999999999998
 20
108.2373096446699
 30
0.0
 40
1.5
  1
15
 50
90.0
  7
GOTHIC
100
AcDbText
  0
ENDBLK
  5
5259
330
5256
100
AcDbEntity
  8
0
100
AcDbBlockEnd
  0
BLOCK
  5
525B
330
525A
100
AcDbEntity
  8
0
100
AcDbBlockBegin
  2
*U166
 70
     1
 10
0.0
 20
0.0
 30
0.0
  3
*U166
  1

  0
TEXT
  5
525C
330
525A
100
AcDbEntity
  8
DIMENSION
 62
     3
100
AcDbText
 10
90.4753714791507
 20
109.433259544961
 30
0.0
 40
1.5
  1
R3
 50
44.86917784183886
  7
GOTHIC
100
AcDbText
  0
ENDBLK
  5
525D
330
525A
100
AcDbEntity
  8
0
100
AcDbBlockEnd
  0
BLOCK
  5
525F
330
525E
100
AcDbEntity
  8
0
100
AcDbBlockBegin
  2
*U167
 70
     1
 10
0.0
 20
0.0
 30
0.0
  3
*U167
  1

  0
TEXT
  5
5260
330
525E
100
AcDbEntity
  8
DIMENSION
 62
     3
100
AcDbText
 10
84.98927404340962
 20
109.8727410158374
 30
0.0
 40
1.5
  1
6
 50
90.0
  7
GOTHIC
100
AcDbText
  0
ENDBLK
  5
5261
330
525E
100
AcDbEntity
  8
0
100
AcDbBlockEnd
  0
BLOCK
  5
5263
330
5262
100
AcDbEntity
  8
0
100
AcDbBlockBegin
  2
*U168
 70
     1
 10
0.0
 20
0.0
 30
0.0
  3
*U168
  1

  0
TEXT
  5
5264
330
5262
100
AcDbEntity
  8
DIMENSION
 62
     3
100
AcDbText
 10
67.54949238578681
 20
129.4999999999999
 30
0.0
 40
1.5
  1
2.5
  7
GOTHIC
100
AcDbText
  0
ENDBLK
  5
5265
330
5262
100
AcDbEntity
  8
0
100
AcDbBlockEnd
  0
BLOCK
  5
5267
330
5266
100
AcDbEntity
  8
0
100
AcDbBlockBegin
  2
*U169
 70
     1
 10
0.0
 20
0.0
 30
0.0
  3
*U169
  1

  0
TEXT
  5
5268
330
5266
100
AcDbEntity
  8
DIMENSION
 62
     3
100
AcDbText
 10
105.3045685279188
 20
134.0
 30
0.0
 40
1.5
  1
67.5
  7
GOTHIC
100
AcDbText
  0
ENDBLK
  5
5269
330
5266
100
AcDbEntity
  8
0
100
AcDbBlockEnd
  0
BLOCK
  5
526B
330
526A
100
AcDbEntity
  8
0
100
AcDbBlockBegin
  2
*U170
 70
     1
 10
0.0
 20
0.0
 30
0.0
  3
*U170
  1

  0
TEXT
  5
526C
330
526A
100
AcDbEntity
  8
DIMENSION
 62
     3
100
AcDbText
 10
107.5291878172587
 20
129.4999999999999
 30
0.0
 40
1.5
  1
65
  7
GOTHIC
100
AcDbText
  0
ENDBLK
  5
526D
330
526A
100
AcDbEntity
  8
0
100
AcDbBlockEnd
  0
BLOCK
  5
526F
330
526E
100
AcDbEntity
  8
0
100
AcDbBlockBegin
  2
*U171
 70
     1
 10
0.0
 20
0.0
 30
0.0
  3
*U171
  1

  0
TEXT
  5
5270
330
526E
100
AcDbEntity
  8
DIMENSION
 62
     3
100
AcDbText
 10
126.9944142473518
 20
111.2531309544715
 30
0.0
 40
1.5
  1
2
 50
90.0
  7
GOTHIC
100
AcDbText
  0
ENDBLK
  5
5271
330
526E
100
AcDbEntity
  8
0
100
AcDbBlockEnd
  0
BLOCK
  5
5273
330
5272
100
AcDbEntity
  8
0
100
AcDbBlockBegin
  2
*U172
 70
     1
 10
0.0
 20
0.0
 30
0.0
  3
*U172
  1

  0
TEXT
  5
5274
330
5272
100
AcDbEntity
  8
DIMENSION
 62
     3
100
AcDbText
 10
149.4999999999998
 20
107.2626903553298
 30
0.0
 40
1.5
  1
11.5
 50
90.0
  7
GOTHIC
100
AcDbText
  0
ENDBLK
  5
5275
330
5272
100
AcDbEntity
  8
0
100
AcDbBlockEnd
  0
BLOCK
  5
5277
330
5276
100
AcDbEntity
  8
0
100
AcDbBlockBegin
  2
*U173
 70
     1
 10
0.0
 20
0.0
 30
0.0
  3
*U173
  1

  0
TEXT
  5
5278
330
5276
100
AcDbEntity
  8
DIMENSION
 62
     3
100
AcDbText
 10
138.0279187817258
 20
98.0
 30
0.0
 40
1.5
  1
5
  7
GOTHIC
100
AcDbText
  0
ENDBLK
  5
5279
330
5276
100
AcDbEntity
  8
0
100
AcDbBlockEnd
  0
BLOCK
  5
527B
330
527A
100
AcDbEntity
  8
0
100
AcDbBlockBegin
  2
*U174
 70
     1
 10
0.0
 20
0.0
 30
0.0
  3
*U174
  1

  0
TEXT
  5
527C
330
527A
100
AcDbEntity
  8
DIMENSION
 62
     3
100
AcDbText
 10
110.4873096446699
 20
98.0
 30
0.0
 40
1.5
  1
13
  7
GOTHIC
100
AcDbText
  0
ENDBLK
  5
527D
330
527A
100
AcDbEntity
  8
0
100
AcDbBlockEnd
  0
BLOCK
  5
527F
330
527E
100
AcDbEntity
  8
0
100
AcDbBlockBegin
  2
*U175
 70
     1
 10
0.0
 20
0.0
 30
0.0
  3
*U175
  1

  0
TEXT
  5
5280
330
527E
100
AcDbEntity
  8
DIMENSION
 62
     3
100
AcDbText
 10
142.6084167671189
 20
120.5
 30
0.0
 40
1.5
  1
3.5
  7
GOTHIC
100
AcDbText
  0
ENDBLK
  5
5281
330
527E
100
AcDbEntity
  8
0
100
AcDbBlockEnd
  0
BLOCK
  5
5283
330
5282
100
AcDbEntity
  8
0
100
AcDbBlockBegin
  2
*U176
 70
     1
 10
0.0
 20
0.0
 30
0.0
  3
*U176
  1

  0
TEXT
  5
5284
330
5282
100
AcDbEntity
  8
DIMENSION
 62
     3
100
AcDbText
 10
121.8121827411166
 20
120.5
 30
0.0
 40
1.5
  1
27.5
  7
GOTHIC
100
AcDbText
  0
ENDBLK
  5
5285
330
5282
100
AcDbEntity
  8
0
100
AcDbBlockEnd
  0
BLOCK
  5
5287
330
5286
100
AcDbEntity
  8
0
100
AcDbBlockBegin
  2
*U177
 70
     1
 10
0.0
 20
0.0
 30
0.0
  3
*U177
  1

  0
TEXT
  5
5288
330
5286
100
AcDbEntity
  8
DIMENSION
 62
     3
100
AcDbText
 10
107.0279187817259
 20
120.5
 30
0.0
 40
1.5
  1
5
  7
GOTHIC
100
AcDbText
  0
ENDBLK
  5
5289
330
5286
100
AcDbEntity
  8
0
100
AcDbBlockEnd
  0
BLOCK
  5
528B
330
528A
100
AcDbEntity
  8
0
100
AcDbBlockBegin
  2
*U178
 70
     1
 10
0.0
 20
0.0
 30
0.0
  3
*U178
  1

  0
TEXT
  5
528C
330
528A
100
AcDbEntity
  8
DIMENSION
 62
     3
100
AcDbText
 10
98.62055837563453
 20
120.5
 30
0.0
 40
1.5
  1
11
  7
GOTHIC
100
AcDbText
  0
ENDBLK
  5
528D
330
528A
100
AcDbEntity
  8
0
100
AcDbBlockEnd
  0
BLOCK
  5
528F
330
528E
100
AcDbEntity
  8
0
100
AcDbBlockBegin
  2
*U179
 70
     1
 10
0.0
 20
0.0
 30
0.0
  3
*U179
  1

  0
TEXT
  5
5290
330
528E
100
AcDbEntity
  8
DIMENSION
 62
     3
100
AcDbText
 10
89.53680203045685
 20
125.0
 30
0.0
 40
1.5
  1
29
  7
GOTHIC
100
AcDbText
  0
ENDBLK
  5
5291
330
528E
100
AcDbEntity
  8
0
100
AcDbBlockEnd
  0
BLOCK
  5
5293
330
5292
100
AcDbEntity
  8
0
100
AcDbBlockBegin
  2
*U180
 70
     1
 10
0.0
 20
0.0
 30
0.0
  3
*U180
  1

  0
TEXT
  5
5294
330
5292
100
AcDbEntity
  8
DIMENSION
 62
     3
100
AcDbText
 10
122.0368020304567
 20
125.0
 30
0.0
 40
1.5
  1
36
  7
GOTHIC
100
AcDbText
  0
ENDBLK
  5
5295
330
5292
100
AcDbEntity
  8
0
100
AcDbBlockEnd
  0
BLOCK
  5
5297
330
5296
100
AcDbEntity
  8
0
100
AcDbBlockBegin
  2
*U181
 70
     1
 10
0.0
 20
0.0
 30
0.0
  3
*U181
  1

  0
TEXT
  5
5298
330
5296
100
AcDbEntity
  8
DIMENSION
100
AcDbText
 10
54.23927404340965
 20
74.12274101583735
 30
0.0
 40
1.5
  1
6
 50
90.0
  7
GOTHIC
100
AcDbText
  0
ENDBLK
  5
5299
330
5296
100
AcDbEntity
  8
0
100
AcDbBlockEnd
  0
BLOCK
  5
529B
330
529A
100
AcDbEntity
  8
0
100
AcDbBlockBegin
  2
*U182
 70
     1
 10
0.0
 20
0.0
 30
0.0
  3
*U182
  1

  0
TEXT
  5
529C
330
529A
100
AcDbEntity
  8
DIMENSION
100
AcDbText
 10
74.55456852791876
 20
98.2499999999999
 30
0.0
 40
1.5
  1
67.5
  7
GOTHIC
100
AcDbText
  0
ENDBLK
  5
529D
330
529A
100
AcDbEntity
  8
0
100
AcDbBlockEnd
  0
BLOCK
  5
529F
330
529E
100
AcDbEntity
  8
0
100
AcDbBlockBegin
  2
*U183
 70
     1
 10
0.0
 20
0.0
 30
0.0
  3
*U183
  1

  0
TEXT
  5
52A0
330
529E
100
AcDbEntity
  8
DIMENSION
100
AcDbText
 10
76.77918781725885
 20
93.74999999999992
 30
0.0
 40
1.5
  1
65
  7
GOTHIC
100
AcDbText
  0
ENDBLK
  5
52A1
330
529E
100
AcDbEntity
  8
0
100
AcDbBlockEnd
  0
BLOCK
  5
52A3
330
52A2
100
AcDbEntity
  8
0
100
AcDbBlockBegin
  2
*U184
 70
     1
 10
0.0
 20
0.0
 30
0.0
  3
*U184
  1

  0
TEXT
  5
52A4
330
52A2
100
AcDbEntity
  8
DIMENSION
100
AcDbText
 10
63.79321494092767
 20
59.58374846594085
 30
0.0
 40
1.5
  1
φ18
 50
329.9999999999997
  7
GOTHIC
100
AcDbText
  0
ENDBLK
  5
52A5
330
52A2
100
AcDbEntity
  8
0
100
AcDbBlockEnd
  0
BLOCK
  5
52A7
330
52A6
100
AcDbEntity
  8
0
100
AcDbBlockBegin
  2
*U185
 70
     1
 10
0.0
 20
0.0
 30
0.0
  3
*U185
  1

  0
TEXT
  5
52A8
330
52A6
100
AcDbEntity
  8
DIMENSION
100
AcDbText
 10
65.5809221978846
 20
62.64969141125785
 30
0.0
 40
1.5
  1
φ17
 50
329.9999999999998
  7
GOTHIC
100
AcDbText
  0
ENDBLK
  5
52A9
330
52A6
100
AcDbEntity
  8
0
100
AcDbBlockEnd
  0
BLOCK
  5
52AB
330
52AA
100
AcDbEntity
  8
0
100
AcDbBlockBegin
  2
*U186
 70
     1
 10
0.0
 20
0.0
 30
0.0
  3
*U186
  1

  0
TEXT
  5
52AC
330
52AA
100
AcDbEntity
  8
DIMENSION
100
AcDbText
 10
96.24441424735188
 20
75.50313095447146
 30
0.0
 40
1.5
  1
2
 50
90.0
  7
GOTHIC
100
AcDbText
  0
ENDBLK
  5
52AD
330
52AA
100
AcDbEntity
  8
0
100
AcDbBlockEnd
  0
BLOCK
  5
52AF
330
52AE
100
AcDbEntity
  8
0
100
AcDbBlockBegin
  2
*U187
 70
     1
 10
0.0
 20
0.0
 30
0.0
  3
*U187
  1

  0
TEXT
  5
52B0
330
52AE
100
AcDbEntity
  8
DIMENSION
100
AcDbText
 10
118.75
 20
71.51269035532988
 30
0.0
 40
1.5
  1
11.5
 50
90.0
  7
GOTHIC
100
AcDbText
  0
ENDBLK
  5
52B1
330
52AE
100
AcDbEntity
  8
0
100
AcDbBlockEnd
  0
BLOCK
  5
52B3
330
52B2
100
AcDbEntity
  8
0
100
AcDbBlockBegin
  2
*U188
 70
     1
 10
0.0
 20
0.0
 30
0.0
  3
*U188
  1

  0
TEXT
  5
52B4
330
52B2
100
AcDbEntity
  8
DIMENSION
100
AcDbText
 10
114.25
 20
73.02030456852785
 30
0.0
 40
1.5
  1
2
 50
90.0
  7
GOTHIC
100
AcDbText
  0
ENDBLK
  5
52B5
330
52B2
100
AcDbEntity
  8
0
100
AcDbBlockEnd
  0
BLOCK
  5
52B7
330
52B6
100
AcDbEntity
  8
0
100
AcDbBlockBegin
  2
*U189
 70
     1
 10
0.0
 20
0.0
 30
0.0
  3
*U189
  1

  0
TEXT
  5
52B8
330
52B6
100
AcDbEntity
  8
DIMENSION
100
AcDbText
 10
107.2779187817259
 20
62.24999999999989
 30
0.0
 40
1.5
  1
5
  7
GOTHIC
100
AcDbText
  0
ENDBLK
  5
52B9
330
52B6
100
AcDbEntity
  8
0
100
AcDbBlockEnd
  0
BLOCK
  5
52BB
330
52BA
100
AcDbEntity
  8
0
100
AcDbBlockBegin
  2
*U190
 70
     1
 10
0.0
 20
0.0
 30
0.0
  3
*U190
  1

  0
TEXT
  5
52BC
330
52BA
100
AcDbEntity
  8
DIMENSION
100
AcDbText
 10
79.73730964467006
 20
62.24999999999989
 30
0.0
 40
1.5
  1
13
  7
GOTHIC
100
AcDbText
  0
ENDBLK
  5
52BD
330
52BA
100
AcDbEntity
  8
0
100
AcDbBlockEnd
  0
BLOCK
  5
52BF
330
52BE
100
AcDbEntity
  8
0
100
AcDbBlockBegin
  2
*U191
 70
     1
 10
0.0
 20
0.0
 30
0.0
  3
*U191
  1

  0
TEXT
  5
52C0
330
52BE
100
AcDbEntity
  8
DIMENSION
100
AcDbText
 10
111.858416767119
 20
84.7499999999999
 30
0.0
 40
1.5
  1
3.5
  7
GOTHIC
100
AcDbText
  0
ENDBLK
  5
52C1
330
52BE
100
AcDbEntity
  8
0
100
AcDbBlockEnd
  0
BLOCK
  5
52C3
330
52C2
100
AcDbEntity
  8
0
100
AcDbBlockBegin
  2
*U192
 70
     1
 10
0.0
 20
0.0
 30
0.0
  3
*U192
  1

  0
TEXT
  5
52C4
330
52C2
100
AcDbEntity
  8
DIMENSION
100
AcDbText
 10
91.06218274111673
 20
84.7499999999999
 30
0.0
 40
1.5
  1
27.5
  7
GOTHIC
100
AcDbText
  0
ENDBLK
  5
52C5
330
52C2
100
AcDbEntity
  8
0
100
AcDbBlockEnd
  0
BLOCK
  5
52C7
330
52C6
100
AcDbEntity
  8
0
100
AcDbBlockBegin
  2
*U193
 70
     1
 10
0.0
 20
0.0
 30
0.0
  3
*U193
  1

  0
TEXT
  5
52C8
330
52C6
100
AcDbEntity
  8
DIMENSION
100
AcDbText
 10
76.27791878172589
 20
84.7499999999999
 30
0.0
 40
1.5
  1
5
  7
GOTHIC
100
AcDbText
  0
ENDBLK
  5
52C9
330
52C6
100
AcDbEntity
  8
0
100
AcDbBlockEnd
  0
BLOCK
  5
52CB
330
52CA
100
AcDbEntity
  8
0
100
AcDbBlockBegin
  2
*U194
 70
     1
 10
0.0
 20
0.0
 30
0.0
  3
*U194
  1

  0
TEXT
  5
52CC
330
52CA
100
AcDbEntity
  8
DIMENSION
100
AcDbText
 10
91.28680203045686
 20
89.2499999999999
 30
0.0
 40
1.5
  1
36
  7
GOTHIC
100
AcDbText
  0
ENDBLK
  5
52CD
330
52CA
100
AcDbEntity
  8
0
100
AcDbBlockEnd
  0
BLOCK
  5
52CF
330
52CE
100
AcDbEntity
  8
0
100
AcDbBlockBegin
  2
*U195
 70
     1
 10
0.0
 20
0.0
 30
0.0
  3
*U195
  1

  0
TEXT
  5
52D0
330
52CE
100
AcDbEntity
  8
DIMENSION
100
AcDbText
 10
59.72537147915065
 20
73.68325954496102
 30
0.0
 40
1.5
  1
R3
 50
44.86917784183932
  7
GOTHIC
100
AcDbText
  0
ENDBLK
  5
52D1
330
52CE
100
AcDbEntity
  8
0
100
AcDbBlockEnd
  0
BLOCK
  5
52D3
330
52D2
100
AcDbEntity
  8
0
100
AcDbBlockBegin
  2
*U196
 70
     1
 10
0.0
 20
0.0
 30
0.0
  3
*U196
  1

  0
TEXT
  5
52D4
330
52D2
100
AcDbEntity
  8
DIMENSION
100
AcDbText
 10
113.7868020304569
 20
62.24999999999994
 30
0.0
 40
1.5
  1
R3
  7
GOTHIC
100
AcDbText
  0
ENDBLK
  5
52D5
330
52D2
100
AcDbEntity
  8
0
100
AcDbBlockEnd
  0
BLOCK
  5
52D7
330
52D6
100
AcDbEntity
  8
0
100
AcDbBlockBegin
  2
*U197
 70
     1
 10
0.0
 20
0.0
 30
0.0
  3
*U197
  1

  0
TEXT
  5
52D8
330
52D6
100
AcDbEntity
  8
DIMENSION
 62
     3
100
AcDbText
 10
68.49999999999998
 20
72.78122439111509
 30
0.0
 40
1.5
  1
2.5
 50
90.0
  7
GOTHIC
100
AcDbText
  0
ENDBLK
  5
52D9
330
52D6
100
AcDbEntity
  8
0
100
AcDbBlockEnd
  0
BLOCK
  5
52DB
330
52DA
100
AcDbEntity
  8
0
100
AcDbBlockBegin
  2
*U198
 70
     1
 10
0.0
 20
0.0
 30
0.0
  3
*U198
  1

  0
TEXT
  5
52DC
330
52DA
100
AcDbEntity
  8
DIMENSION
 62
     3
100
AcDbText
 10
143.0329949238583
 20
63.49999999999997
 30
0.0
 40
1.5
  1
R2
  7
GOTHIC
100
AcDbText
  0
ENDBLK
  5
52DD
330
52DA
100
AcDbEntity
  8
0
100
AcDbBlockEnd
  0
BLOCK
  5
52DF
330
52DE
100
AcDbEntity
  8
0
100
AcDbBlockBegin
  2
*U199
 70
     1
 10
0.0
 20
0.0
 30
0.0
  3
*U199
  1

  0
TEXT
  5
52E0
330
52DE
100
AcDbEntity
  8
DIMENSION
 62
     3
100
AcDbText
 10
149.4999999999998
 20
69.31294416243656
 30
0.0
 40
1.5
  1
7
 50
90.0
  7
GOTHIC
100
AcDbText
  0
TEXT
  5
52E1
330
52DE
100
AcDbEntity
  8
DIMENSION
 62
     3
100
AcDbText
 10
147.9121827411167
 20
70.28756345177666
 30
0.0
 40
1.199999999999999
  1
 0
 50
90.0
  7
GOTHIC
100
AcDbText
  0
TEXT
  5
52E2
330
52DE
100
AcDbEntity
  8
DIMENSION
 62
     3
100
AcDbText
 10
149.4999999999998
 20
70.25101522842641
 30
0.0
 40
1.199999999999999
  1
-0.1
 50
90.0
  7
GOTHIC
100
AcDbText
  0
ENDBLK
  5
52E3
330
52DE
100
AcDbEntity
  8
0
100
AcDbBlockEnd
  0
BLOCK
  5
52E5
330
52E4
100
AcDbEntity
  8
0
100
AcDbBlockBegin
  2
*U200
 70
     1
 10
0.0
 20
0.0
 30
0.0
  3
*U200
  1

  0
TEXT
  5
52E6
330
52E4
100
AcDbEntity
  8
DIMENSION
 62
     3
100
AcDbText
 10
145.0
 20
70.76269035532995
 30
0.0
 40
1.5
  1
6
 50
90.0
  7
GOTHIC
100
AcDbText
  0
ENDBLK
  5
52E7
330
52E4
100
AcDbEntity
  8
0
100
AcDbBlockEnd
  0
BLOCK
  5
52E9
330
52E8
100
AcDbEntity
  8
0
100
AcDbBlockBegin
  2
*U201
 70
     1
 10
0.0
 20
0.0
 30
0.0
  3
*U201
  1

  0
TEXT
  5
52EA
330
52E8
100
AcDbEntity
  8
DIMENSION
100
AcDbText
 10
37.74999999999999
 20
45.0312243911151
 30
0.0
 40
1.5
  1
2.5
 50
90.0
  7
GOTHIC
100
AcDbText
  0
ENDBLK
  5
52EB
330
52E8
100
AcDbEntity
  8
0
100
AcDbBlockEnd
  0
BLOCK
  5
52ED
330
52EC
100
AcDbEntity
  8
0
100
AcDbBlockBegin
  2
*U202
 70
     1
 10
0.0
 20
0.0
 30
0.0
  3
*U202
  1

  0
TEXT
  5
52EE
330
52EC
100
AcDbEntity
  8
DIMENSION
100
AcDbText
 10
118.75
 20
41.56294416243656
 30
0.0
 40
1.5
  1
7
 50
90.0
  7
GOTHIC
100
AcDbText
  0
TEXT
  5
52EF
330
52EC
100
AcDbEntity
  8
DIMENSION
100
AcDbText
 10
117.1621827411166
 20
42.53756345177666
 30
0.0
 40
1.199999999999999
  1
 0
 50
90.0
  7
GOTHIC
100
AcDbText
  0
TEXT
  5
52F0
330
52EC
100
AcDbEntity
  8
DIMENSION
100
AcDbText
 10
118.75
 20
42.5010152284264
 30
0.0
 40
1.199999999999999
  1
-0.1
 50
90.0
  7
GOTHIC
100
AcDbText
  0
ENDBLK
  5
52F1
330
52EC
100
AcDbEntity
  8
0
100
AcDbBlockEnd
  0
BLOCK
  5
52F3
330
52F2
100
AcDbEntity
  8
0
100
AcDbBlockBegin
  2
*U203
 70
     1
 10
0.0
 20
0.0
 30
0.0
  3
*U203
  1

  0
TEXT
  5
52F4
330
52F2
100
AcDbEntity
  8
DIMENSION
100
AcDbText
 10
114.25
 20
43.01269035532995
 30
0.0
 40
1.5
  1
6
 50
90.0
  7
GOTHIC
100
AcDbText
  0
ENDBLK
  5
52F5
330
52F2
100
AcDbEntity
  8
0
100
AcDbBlockEnd
  0
BLOCK
  5
52F7
330
52F6
100
AcDbEntity
  8
0
100
AcDbBlockBegin
  2
*U204
 70
     1
 10
0.0
 20
0.0
 30
0.0
  3
*U204
  1

  0
TEXT
  5
52F8
330
52F6
100
AcDbEntity
  8
DIMENSION
100
AcDbText
 10
112.2829949238584
 20
35.74999999999996
 30
0.0
 40
1.5
  1
R2
  7
GOTHIC
100
AcDbText
  0
ENDBLK
  5
52F9
330
52F6
100
AcDbEntity
  8
0
100
AcDbBlockEnd
  0
BLOCK
  5
52FB
330
52FA
100
AcDbEntity
  8
0
100
AcDbBlockBegin
  2
*U205
 70
     1
 10
0.0
 20
0.0
 30
0.0
  3
*U205
  1

  0
TEXT
  5
52FC
330
52FA
100
AcDbEntity
  8
DIMENSION
100
AcDbText
 10
53.22969543147208
 20
84.50000000000001
 30
0.0
 40
1.5
  1
18
  7
GOTHIC
100
AcDbText
  0
ENDBLK
  5
52FD
330
52FA
100
AcDbEntity
  8
0
100
AcDbBlockEnd
  0
BLOCK
  5
52FF
330
52FE
100
AcDbEntity
  8
0
100
AcDbBlockBegin
  2
*U206
 70
     1
 10
0.0
 20
0.0
 30
0.0
  3
*U206
  1

  0
TEXT
  5
5300
330
52FE
100
AcDbEntity
  8
DIMENSION
100
AcDbText
 10
67.87055837563453
 20
84.50000000000001
 30
0.0
 40
1.5
  1
11
  7
GOTHIC
100
AcDbText
  0
ENDBLK
  5
5301
330
52FE
100
AcDbEntity
  8
0
100
AcDbBlockEnd
  0
BLOCK
  5
5303
330
5302
100
AcDbEntity
  8
0
100
AcDbBlockBegin
  2
*U207
 70
     1
 10
0.0
 20
0.0
 30
0.0
  3
*U207
  1

  0
TEXT
  5
5304
330
5302
100
AcDbEntity
  8
DIMENSION
100
AcDbText
 10
58.78680203045685
 20
89.0
 30
0.0
 40
1.5
  1
29
  7
GOTHIC
100
AcDbText
  0
ENDBLK
  5
5305
330
5302
100
AcDbEntity
  8
0
100
AcDbBlockEnd
  0
BLOCK
  5
5307
330
5306
100
AcDbEntity
  8
0
100
AcDbBlockBegin
  2
*U208
 70
     1
 10
0.0
 20
0.0
 30
0.0
  3
*U208
  1

  0
TEXT
  5
5308
330
5306
100
AcDbEntity
  8
DIMENSION
100
AcDbText
 10
37.40612678236416
 20
89.0
 30
0.0
 40
1.5
  1
2.5
  7
GOTHIC
100
AcDbText
  0
ENDBLK
  5
5309
330
5306
100
AcDbEntity
  8
0
100
AcDbBlockEnd
  0
BLOCK
  5
530B
330
530A
100
AcDbEntity
  8
0
100
AcDbBlockBegin
  2
*U209
 70
     1
 10
0.0
 20
0.0
 30
0.0
  3
*U209
  1

  0
TEXT
  5
530C
330
530A
100
AcDbEntity
  8
DIMENSION
100
AcDbText
 10
22.26582350142593
 20
62.2499999999999
 30
0.0
 40
1.5
  1
2.5
  7
GOTHIC
100
AcDbText
  0
ENDBLK
  5
530D
330
530A
100
AcDbEntity
  8
0
100
AcDbBlockEnd
  0
BLOCK
  5
530F
330
530E
100
AcDbEntity
  8
0
100
AcDbBlockBegin
  2
*U210
 70
     1
 10
0.0
 20
0.0
 30
0.0
  3
*U210
  1

  0
TEXT
  5
5310
330
530E
100
AcDbEntity
  8
DIMENSION
100
AcDbText
 10
11.21633111563911
 20
72.48730964466995
 30
0.0
 40
1.5
  1
15
 50
90.0
  7
GOTHIC
100
AcDbText
  0
ENDBLK
  5
5311
330
530E
100
AcDbEntity
  8
0
100
AcDbBlockEnd
  0
BLOCK
  5
5313
330
5312
100
AcDbEntity
  8
0
100
AcDbBlockBegin
  2
*U211
 70
     1
 10
0.0
 20
0.0
 30
0.0
  3
*U211
  1

  0
TEXT
  5
5314
330
5312
100
AcDbEntity
  8
DIMENSION
100
AcDbText
 10
62.05583756345177
 20
62.243654822335
 30
0.0
 40
1.5
  1
φ4.1
  7
GOTHIC
100
AcDbText
  0
ENDBLK
  5
5315
330
5312
100
AcDbEntity
  8
0
100
AcDbBlockEnd
  0
BLOCK
  5
5317
330
5316
100
AcDbEntity
  8
0
100
AcDbBlockBegin
  2
*U212
 70
     1
 10
0.0
 20
0.0
 30
0.0
  3
*U212
  1

  0
TEXT
  5
5318
330
5316
100
AcDbEntity
  8
DIMENSION
100
AcDbText
 10
38.5
 20
72.46827411167505
 30
0.0
 40
1.5
  1
10
 50
90.0
  7
GOTHIC
100
AcDbText
  0
ENDBLK
  5
5319
330
5316
100
AcDbEntity
  8
0
100
AcDbBlockEnd
  0
BLOCK
  5
531B
330
531A
100
AcDbEntity
  8
0
100
AcDbBlockBegin
  2
*U213
 70
     1
 10
0.0
 20
0.0
 30
0.0
  3
*U213
  1

  0
TEXT
  5
531C
330
531A
100
AcDbEntity
  8
DIMENSION
 62
     3
100
AcDbText
 10
94.5432149409277
 20
95.33374846594096
 30
0.0
 40
1.5
  1
φ18
 50
329.9999999999997
  7
GOTHIC
100
AcDbText
  0
ENDBLK
  5
531D
330
531A
100
AcDbEntity
  8
0
100
AcDbBlockEnd
  0
BLOCK
  5
531F
330
531E
100
AcDbEntity
  8
0
100
AcDbBlockBegin
  2
*U214
 70
     1
 10
0.0
 20
0.0
 30
0.0
  3
*U214
  1

  0
TEXT
  5
5320
330
531E
100
AcDbEntity
  8
DIMENSION
 62
     3
100
AcDbText
 10
96.33092219788457
 20
98.39969141125795
 30
0.0
 40
1.5
  1
φ17
 50
329.9999999999998
  7
GOTHIC
100
AcDbText
  0
ENDBLK
  5
5321
330
531E
100
AcDbEntity
  8
0
100
AcDbBlockEnd
  0
BLOCK
  5
5323
330
5322
100
AcDbEntity
  8
0
100
AcDbBlockBegin
  2
*U215
 70
     1
 10
0.0
 20
0.0
 30
0.0
  3
*U215
  1

  0
TEXT
  5
5324
330
5322
100
AcDbEntity
  8
DIMENSION
 62
     3
100
AcDbText
 10
145.0
 20
108.7703045685279
 30
0.0
 40
1.5
  1
2
 50
90.0
  7
GOTHIC
100
AcDbText
  0
ENDBLK
  5
5325
330
5322
100
AcDbEntity
  8
0
100
AcDbBlockEnd
  0
BLOCK
  5
5327
330
5326
100
AcDbEntity
  8
0
100
AcDbBlockBegin
  2
*U216
 70
     1
 10
0.0
 20
0.0
 30
0.0
  3
*U216
  1

  0
TEXT
  5
5328
330
5326
100
AcDbEntity
  8
DIMENSION
 62
     3
100
AcDbText
 10
83.97969543147208
 20
120.5
 30
0.0
 40
1.5
  1
18
  7
GOTHIC
100
AcDbText
  0
ENDBLK
  5
5329
330
5326
100
AcDbEntity
  8
0
100
AcDbBlockEnd
  0
BLOCK
  5
532B
330
532A
100
AcDbEntity
  8
0
100
AcDbBlockBegin
  2
*U217
 70
     1
 10
0.0
 20
0.0
 30
0.0
  3
*U217
  1

  0
TEXT
  5
532C
330
532A
100
AcDbEntity
  8
DIMENSION
 62
     3
100
AcDbText
 10
144.5368020304566
 20
97.99999999999979
 30
0.0
 40
1.5
  1
R3
  7
GOTHIC
100
AcDbText
  0
ENDBLK
  5
532D
330
532A
100
AcDbEntity
  8
0
100
AcDbBlockEnd
  0
BLOCK
  5
532F
330
532E
100
AcDbEntity
  8
0
100
AcDbBlockBegin
  2
*U218
 70
     1
 10
0.0
 20
0.0
 30
0.0
  3
*U218
  1

  0
TEXT
  5
5330
330
532E
100
AcDbEntity
  8
DIMENSION
 62
     3
100
AcDbText
 10
50.49999999999998
 20
108.2373096446699
 30
0.0
 40
1.5
  1
15
 50
90.0
  7
GOTHIC
100
AcDbText
  0
ENDBLK
  5
5331
330
532E
100
AcDbEntity
  8
0
100
AcDbBlockEnd
  0
BLOCK
  5
5333
330
5332
100
AcDbEntity
  8
0
100
AcDbBlockBegin
  2
*U219
 70
     1
 10
0.0
 20
0.0
 30
0.0
  3
*U219
  1

  0
TEXT
  5
5334
330
5332
100
AcDbEntity
  8
DIMENSION
 62
     3
100
AcDbText
 10
90.4753714791507
 20
109.433259544961
 30
0.0
 40
1.5
  1
R3
 50
44.86917784183886
  7
GOTHIC
100
AcDbText
  0
ENDBLK
  5
5335
330
5332
100
AcDbEntity
  8
0
100
AcDbBlockEnd
  0
BLOCK
  5
5337
330
5336
100
AcDbEntity
  8
0
100
AcDbBlockBegin
  2
*U220
 70
     1
 10
0.0
 20
0.0
 30
0.0
  3
*U220
  1

  0
TEXT
  5
5338
330
5336
100
AcDbEntity
  8
DIMENSION
 62
     3
100
AcDbText
 10
84.98927404340962
 20
109.8727410158374
 30
0.0
 40
1.5
  1
6
 50
90.0
  7
GOTHIC
100
AcDbText
  0
ENDBLK
  5
5339
330
5336
100
AcDbEntity
  8
0
100
AcDbBlockEnd
  0
BLOCK
  5
533B
330
533A
100
AcDbEntity
  8
0
100
AcDbBlockBegin
  2
*U221
 70
     1
 10
0.0
 20
0.0
 30
0.0
  3
*U221
  1

  0
TEXT
  5
533C
330
533A
100
AcDbEntity
  8
DIMENSION
 62
     3
100
AcDbText
 10
107.5291878172587
 20
129.4999999999999
 30
0.0
 40
1.5
  1
65
  7
GOTHIC
100
AcDbText
  0
ENDBLK
  5
533D
330
533A
100
AcDbEntity
  8
0
100
AcDbBlockEnd
  0
BLOCK
  5
533F
330
533E
100
AcDbEntity
  8
0
100
AcDbBlockBegin
  2
*U222
 70
     1
 10
0.0
 20
0.0
 30
0.0
  3
*U222
  1

  0
TEXT
  5
5340
330
533E
100
AcDbEntity
  8
DIMENSION
 62
     3
100
AcDbText
 10
126.9944142473518
 20
111.2531309544715
 30
0.0
 40
1.5
  1
2
 50
90.0
  7
GOTHIC
100
AcDbText
  0
ENDBLK
  5
5341
330
533E
100
AcDbEntity
  8
0
100
AcDbBlockEnd
  0
BLOCK
  5
5343
330
5342
100
AcDbEntity
  8
0
100
AcDbBlockBegin
  2
*U223
 70
     1
 10
0.0
 20
0.0
 30
0.0
  3
*U223
  1

  0
TEXT
  5
5344
330
5342
100
AcDbEntity
  8
DIMENSION
 62
     3
100
AcDbText
 10
149.4999999999998
 20
107.2626903553298
 30
0.0
 40
1.5
  1
11.5
 50
90.0
  7
GOTHIC
100
AcDbText
  0
ENDBLK
  5
5345
330
5342
100
AcDbEntity
  8
0
100
AcDbBlockEnd
  0
BLOCK
  5
5347
330
5346
100
AcDbEntity
  8
0
100
AcDbBlockBegin
  2
*U224
 70
     1
 10
0.0
 20
0.0
 30
0.0
  3
*U224
  1

  0
TEXT
  5
5348
330
5346
100
AcDbEntity
  8
DIMENSION
 62
     3
100
AcDbText
 10
138.0279187817258
 20
98.0
 30
0.0
 40
1.5
  1
5
  7
GOTHIC
100
AcDbText
  0
ENDBLK
  5
5349
330
5346
100
AcDbEntity
  8
0
100
AcDbBlockEnd
  0
BLOCK
  5
534B
330
534A
100
AcDbEntity
  8
0
100
AcDbBlockBegin
  2
*U225
 70
     1
 10
0.0
 20
0.0
 30
0.0
  3
*U225
  1

  0
TEXT
  5
534C
330
534A
100
AcDbEntity
  8
DIMENSION
 62
     3
100
AcDbText
 10
110.4873096446699
 20
98.0
 30
0.0
 40
1.5
  1
13
  7
GOTHIC
100
AcDbText
  0
ENDBLK
  5
534D
330
534A
100
AcDbEntity
  8
0
100
AcDbBlockEnd
  0
BLOCK
  5
534F
330
534E
100
AcDbEntity
  8
0
100
AcDbBlockBegin
  2
*U226
 70
     1
 10
0.0
 20
0.0
 30
0.0
  3
*U226
  1

  0
TEXT
  5
5350
330
534E
100
AcDbEntity
  8
DIMENSION
 62
     3
100
AcDbText
 10
142.6084167671189
 20
120.5
 30
0.0
 40
1.5
  1
3.5
  7
GOTHIC
100
AcDbText
  0
ENDBLK
  5
5351
330
534E
100
AcDbEntity
  8
0
100
AcDbBlockEnd
  0
BLOCK
  5
5353
330
5352
100
AcDbEntity
  8
0
100
AcDbBlockBegin
  2
*U227
 70
     1
 10
0.0
 20
0.0
 30
0.0
  3
*U227
  1

  0
TEXT
  5
5354
330
5352
100
AcDbEntity
  8
DIMENSION
 62
     3
100
AcDbText
 10
121.8121827411166
 20
120.5
 30
0.0
 40
1.5
  1
27.5
  7
GOTHIC
100
AcDbText
  0
ENDBLK
  5
5355
330
5352
100
AcDbEntity
  8
0
100
AcDbBlockEnd
  0
BLOCK
  5
5357
330
5356
100
AcDbEntity
  8
0
100
AcDbBlockBegin
  2
*U228
 70
     1
 10
0.0
 20
0.0
 30
0.0
  3
*U228
  1

  0
TEXT
  5
5358
330
5356
100
AcDbEntity
  8
DIMENSION
 62
     3
100
AcDbText
 10
107.0279187817259
 20
120.5
 30
0.0
 40
1.5
  1
5
  7
GOTHIC
100
AcDbText
  0
ENDBLK
  5
5359
330
5356
100
AcDbEntity
  8
0
100
AcDbBlockEnd
  0
BLOCK
  5
535B
330
535A
100
AcDbEntity
  8
0
100
AcDbBlockBegin
  2
*U229
 70
     1
 10
0.0
 20
0.0
 30
0.0
  3
*U229
  1

  0
TEXT
  5
535C
330
535A
100
AcDbEntity
  8
DIMENSION
 62
     3
100
AcDbText
 10
98.62055837563453
 20
120.5
 30
0.0
 40
1.5
  1
11
  7
GOTHIC
100
AcDbText
  0
ENDBLK
  5
535D
330
535A
100
AcDbEntity
  8
0
100
AcDbBlockEnd
  0
BLOCK
  5
535F
330
535E
100
AcDbEntity
  8
0
100
AcDbBlockBegin
  2
*U230
 70
     1
 10
0.0
 20
0.0
 30
0.0
  3
*U230
  1

  0
TEXT
  5
5360
330
535E
100
AcDbEntity
  8
DIMENSION
 62
     3
100
AcDbText
 10
89.53680203045685
 20
125.0
 30
0.0
 40
1.5
  1
29
  7
GOTHIC
100
AcDbText
  0
ENDBLK
  5
5361
330
535E
100
AcDbEntity
  8
0
100
AcDbBlockEnd
  0
BLOCK
  5
5363
330
5362
100
AcDbEntity
  8
0
100
AcDbBlockBegin
  2
*U231
 70
     1
 10
0.0
 20
0.0
 30
0.0
  3
*U231
  1

  0
TEXT
  5
5364
330
5362
100
AcDbEntity
  8
DIMENSION
 62
     3
100
AcDbText
 10
122.0368020304567
 20
125.0
 30
0.0
 40
1.5
  1
36
  7
GOTHIC
100
AcDbText
  0
ENDBLK
  5
5365
330
5362
100
AcDbEntity
  8
0
100
AcDbBlockEnd
  0
BLOCK
  5
5394
330
5393
100
AcDbEntity
  8
0
100
AcDbBlockBegin
  2
*U232
 70
     1
 10
0.0
 20
0.0
 30
0.0
  3
*U232
  1

  0
TEXT
  5
5395
330
5393
100
AcDbEntity
  8
DIMENSION
 62
     3
100
AcDbText
 10
143.0329949238583
 20
63.49999999999997
 30
0.0
 40
1.5
  1
R2
  7
GOTHIC
100
AcDbText
  0
ENDBLK
  5
5396
330
5393
100
AcDbEntity
  8
0
100
AcDbBlockEnd
  0
BLOCK
  5
5398
330
5397
100
AcDbEntity
  8
0
100
AcDbBlockBegin
  2
*U233
 70
     1
 10
0.0
 20
0.0
 30
0.0
  3
*U233
  1

  0
TEXT
  5
5399
330
5397
100
AcDbEntity
  8
DIMENSION
 62
     3
100
AcDbText
 10
149.4999999999998
 20
69.31294416243656
 30
0.0
 40
1.5
  1
7
 50
90.0
  7
GOTHIC
100
AcDbText
  0
TEXT
  5
539A
330
5397
100
AcDbEntity
  8
DIMENSION
 62
     3
100
AcDbText
 10
147.9121827411167
 20
70.28756345177666
 30
0.0
 40
1.199999999999999
  1
 0
 50
90.0
  7
GOTHIC
100
AcDbText
  0
TEXT
  5
539B
330
5397
100
AcDbEntity
  8
DIMENSION
 62
     3
100
AcDbText
 10
149.4999999999998
 20
70.25101522842641
 30
0.0
 40
1.199999999999999
  1
-0.1
 50
90.0
  7
GOTHIC
100
AcDbText
  0
ENDBLK
  5
539C
330
5397
100
AcDbEntity
  8
0
100
AcDbBlockEnd
  0
BLOCK
  5
539E
330
539D
100
AcDbEntity
  8
0
100
AcDbBlockBegin
  2
*U234
 70
     1
 10
0.0
 20
0.0
 30
0.0
  3
*U234
  1

  0
TEXT
  5
539F
330
539D
100
AcDbEntity
  8
DIMENSION
 62
     3
100
AcDbText
 10
145.0
 20
70.76269035532995
 30
0.0
 40
1.5
  1
6
 50
90.0
  7
GOTHIC
100
AcDbText
  0
ENDBLK
  5
53A0
330
539D
100
AcDbEntity
  8
0
100
AcDbBlockEnd
  0
BLOCK
  5
53C8
330
53C7
100
AcDbEntity
  8
0
100
AcDbBlockBegin
  2
*U235
 70
     1
 10
0.0
 20
0.0
 30
0.0
  3
*U235
  1

  0
INSERT
  5
53C9
330
53C7
100
AcDbEntity
  8
DIMENSION
100
AcDbBlockReference
  2
_OPEN30
 10
51.36092499239559
 20
66.63301413797751
 30
0.0
 50
59.99999999999997
  0
POLYLINE
  5
53CA
330
53C7
100
AcDbEntity
  8
DIMENSION
100
AcDb2dPolyline
 66
     1
 10
0.0
 20
0.0
 30
0.0
  0
VERTEX
  5
53CB
330
53CA
100
AcDbEntity
  8
DIMENSION
100
AcDbVertex
100
AcDb2dVertex
 10
50.86092499239558
 20
65.76698873419307
 30
0.0
  0
VERTEX
  5
53CC
330
53CA
100
AcDbEntity
  8
DIMENSION
100
AcDbVertex
100
AcDb2dVertex
 10
48.38486488778315
 20
61.47832683041002
 30
0.0
  0
VERTEX
  5
53CD
330
53CA
100
AcDbEntity
  8
DIMENSION
100
AcDbVertex
100
AcDb2dVertex
 10
49.47045846048285
 20
61.47832683041002
 30
0.0
  0
VERTEX
  5
53CE
330
53CA
100
AcDbEntity
  8
DIMENSION
100
AcDbVertex
100
AcDb2dVertex
 10
52.68873257215799
 20
61.47832683041002
 30
0.0
  0
SEQEND
  5
53CF
330
53CA
100
AcDbEntity
  8
DIMENSION
  0
ENDBLK
  5
53D0
330
53C7
100
AcDbEntity
  8
0
100
AcDbBlockEnd
  0
BLOCK
  5
53D2
330
53D1
100
AcDbEntity
  8
0
100
AcDbBlockBegin
  2
*U236
 70
     1
 10
0.0
 20
0.0
 30
0.0
  3
*U236
  1

  0
TEXT
  5
53D3
330
53D1
100
AcDbEntity
  8
DIMENSION
100
AcDbText
 10
49.87908790210722
 20
61.97832683041003
 30
0.0
 40
1.5
  1
R25
  7
GOTHIC
100
AcDbText
  0
ENDBLK
  5
53D4
330
53D1
100
AcDbEntity
  8
0
100
AcDbBlockEnd
  0
BLOCK
  5
5462
330
5459
100
AcDbEntity
  8
0
100
AcDbBlockBegin
  2
*D237
 70
     1
 10
0.0
 20
0.0
 30
0.0
  3
*D237
  1

  0
LINE
  5
545A
330
5459
100
AcDbEntity
  8
DIMENSION
 62
     0
100
AcDbLine
 10
63.25
 20
74.1249999999999
 30
0.0
 11
63.25
 21
88.25000000000001
 31
0.0
  0
LINE
  5
545B
330
5459
100
AcDbEntity
  8
DIMENSION
 62
     0
100
AcDbLine
 10
47.75
 20
87.0
 30
0.0
 11
60.75
 21
87.0
 31
0.0
  0
SOLID
  5
545C
330
5459
100
AcDbEntity
  8
DIMENSION
 62
     0
100
AcDbTrace
 10
47.75
 20
87.41666666666667
 30
0.0
 11
47.75
 21
86.58333333333333
 31
0.0
 12
45.25
 22
87.0
 32
0.0
 13
45.25
 23
87.0
 33
0.0
  0
SOLID
  5
545D
330
5459
100
AcDbEntity
  8
DIMENSION
 62
     0
100
AcDbTrace
 10
60.75
 20
87.41666666666667
 30
0.0
 11
60.75
 21
86.58333333333333
 31
0.0
 12
63.25
 22
87.0
 32
0.0
 13
63.25
 23
87.0
 33
0.0
  0
MTEXT
  5
545E
330
5459
100
AcDbEntity
  8
DIMENSION
 62
     0
100
AcDbMText
 10
54.25
 20
88.87500000000001
 30
0.0
 40
2.5
 41
0.0
 71
     5
 72
     1
  1
\A1;18
  7
GOTHIC
  0
POINT
  5
545F
330
5459
100
AcDbEntity
  8
DEFPOINTS
 62
     0
100
AcDbPoint
 10
45.25
 20
74.9999999999999
 30
0.0
  0
POINT
  5
5460
330
5459
100
AcDbEntity
  8
DEFPOINTS
 62
     0
100
AcDbPoint
 10
63.25
 20
73.4999999999999
 30
0.0
  0
POINT
  5
5461
330
5459
100
AcDbEntity
  8
DEFPOINTS
 62
     0
100
AcDbPoint
 10
63.25
 20
87.0
 30
0.0
  0
ENDBLK
  5
5463
330
5459
100
AcDbEntity
  8
0
100
AcDbBlockEnd
  0
BLOCK
  5
5471
330
5464
100
AcDbEntity
  8
0
100
AcDbBlockBegin
  2
*D238
 70
     1
 10
0.0
 20
0.0
 30
0.0
  3
*D238
  1

  0
LINE
  5
5465
330
5464
100
AcDbEntity
  8
DIMENSION
 62
     0
100
AcDbLine
 10
46.21560948048243
 20
79.10370364143057
 30
0.0
 11
47.19754781322583
 21
82.76834738912851
 31
0.0
  0
ARC
  5
5466
330
5464
100
AcDbEntity
  8
DIMENSION
 62
     0
100
AcDbCircle
 10
45.25000000000001
 20
75.49999999999991
 30
0.0
 40
6.274746922910644
100
AcDbArc
 50
29.03665112068116
 51
52.01832556034075
  0
ARC
  5
5467
330
5464
100
AcDbEntity
  8
DIMENSION
 62
     0
100
AcDbCircle
 10
45.25000000000001
 20
75.49999999999991
 30
0.0
 40
6.274746922910644
100
AcDbArc
 50
112.9816744396594
 51
135.963348879319
  0
ARC
  5
5468
330
5464
100
AcDbEntity
  8
DIMENSION
 62
     0
100
AcDbCircle
 10
45.25000000000001
 20
75.49999999999991
 30
0.0
 40
6.274746922910644
100
AcDbArc
 50
75.00000000000034
 51
89.99999999999991
  0
SOLID
  5
5469
330
5464
100
AcDbEntity
  8
DIMENSION
 62
     0
100
AcDbTrace
 10
48.92568215251846
 20
80.07288433969998
 30
0.0
 11
49.29739439326075
 21
80.81872242838064
 31
0.0
 12
46.87402400684769
 22
81.56094010626716
 32
0.0
 13
46.87402400684769
 23
81.56094010626716
 33
0.0
  0
SOLID
  5
546A
330
5464
100
AcDbEntity
  8
DIMENSION
 62
     0
100
AcDbTrace
 10
42.71710388645071
 20
81.68503410845278
 30
0.0
 11
42.88311323781806
 21
80.86840362916424
 31
0.0
 12
45.25000000000002
 22
81.77474692291054
 32
0.0
 13
45.25000000000002
 23
81.77474692291054
 33
0.0
  0
MTEXT
  5
546B
330
5464
100
AcDbEntity
  8
DIMENSION
 62
     0
100
AcDbMText
 10
46.72164978409226
 20
86.67828990000986
 30
0.0
 40
2.5
 41
0.0
 71
     5
 72
     1
  1
\A1;15°
  7
GOTHIC
 11
0.9914448613738105
 21
-0.1305261922200503
 31
0.0
  0
POINT
  5
546C
330
5464
100
AcDbEntity
  8
DEFPOINTS
 62
     0
100
AcDbPoint
 10
46.33959836848459
 20
81.67941941787182
 30
0.0
  0
POINT
  5
546D
330
5464
100
AcDbEntity
  8
DEFPOINTS
 62
     0
100
AcDbPoint
 10
45.25
 20
73.4999999999999
 30
0.0
  0
POINT
  5
546E
330
5464
100
AcDbEntity
  8
DEFPOINTS
 62
     0
100
AcDbPoint
 10
46.05384757729335
 20
78.49999999999991
 30
0.0
  0
POINT
  5
546F
330
5464
100
AcDbEntity
  8
DEFPOINTS
 62
     0
100
AcDbPoint
 10
45.25000000000001
 20
75.49999999999991
 30
0.0
  0
POINT
  5
5470
330
5464
100
AcDbEntity
  8
DEFPOINTS
 62
     0
100
AcDbPoint
 10
45.25000000000001
 20
75.49999999999991
 30
0.0
  0
ENDBLK
  5
5472
330
5464
100
AcDbEntity
  8
0
100
AcDbBlockEnd
  0
BLOCK
  5
547F
330
5473
100
AcDbEntity
  8
0
100
AcDbBlockBegin
  2
*D239
 70
     1
 10
0.0
 20
0.0
 30
0.0
  3
*D239
  1

  0
LINE
  5
5474
330
5473
100
AcDbEntity
  8
DIMENSION
 62
     0
100
AcDbLine
 10
44.89151472728059
 20
74.01197002768052
 30
0.0
 11
38.43587536372312
 21
83.23157851699091
 31
0.0
  0
LINE
  5
5475
330
5473
100
AcDbEntity
  8
DIMENSION
 62
     0
100
AcDbLine
 10
44.89151472728059
 20
72.98802997231928
 30
0.0
 11
38.43587536372317
 21
63.76842148300884
 31
0.0
  0
ARC
  5
5476
330
5473
100
AcDbEntity
  8
DIMENSION
 62
     0
100
AcDbCircle
 10
45.25
 20
73.4999999999999
 30
0.0
 40
10.63006376207959
100
AcDbArc
 50
138.5061871608861
 51
221.4938128391143
  0
SOLID
  5
5477
330
5473
100
AcDbEntity
  8
DIMENSION
 62
     0
100
AcDbTrace
 10
37.01032487894337
 20
80.85367585277287
 30
0.0
 11
37.56525983480063
 21
80.23199133534291
 31
0.0
 12
39.15284590916193
 22
82.20763846162968
 32
0.0
 13
39.15284590916193
 23
82.20763846162968
 33
0.0
  0
SOLID
  5
5478
330
5473
100
AcDbEntity
  8
DIMENSION
 62
     0
100
AcDbTrace
 10
37.56525983480067
 20
66.76800866465685
 30
0.0
 11
37.01032487894341
 21
66.14632414722686
 31
0.0
 12
39.15284590916198
 22
64.79236153837007
 32
0.0
 13
39.15284590916198
 23
64.79236153837007
 33
0.0
  0
MTEXT
  5
5479
330
5473
100
AcDbEntity
  8
DIMENSION
 62
     0
100
AcDbMText
 10
32.74493623792039
 20
73.49999999999987
 30
0.0
 40
2.5
 41
0.0
 71
     5
 72
     1
  1
\A1;110°
  7
GOTHIC
 11
0.0000000000000001
 21
1.0
 31
0.0
  0
POINT
  5
547A
330
5473
100
AcDbEntity
  8
DEFPOINTS
 62
     0
100
AcDbPoint
 10
35.15949017313364
 20
76.84363081391928
 30
0.0
  0
POINT
  5
547B
330
5473
100
AcDbEntity
  8
DEFPOINTS
 62
     0
100
AcDbPoint
 10
45.25
 20
73.4999999999999
 30
0.0
  0
POINT
  5
547C
330
5473
100
AcDbEntity
  8
DEFPOINTS
 62
     0
100
AcDbPoint
 10
45.25
 20
73.4999999999999
 30
0.0
  0
POINT
  5
547D
330
5473
100
AcDbEntity
  8
DEFPOINTS
 62
     0
100
AcDbPoint
 10
45.89485464119904
 20
72.5790521295331
 30
0.0
  0
POINT
  5
547E
330
5473
100
AcDbEntity
  8
DEFPOINTS
 62
     0
100
AcDbPoint
 10
45.89485464119904
 20
74.42094787046672
 30
0.0
  0
ENDBLK
  5
5480
330
5473
100
AcDbEntity
  8
0
100
AcDbBlockEnd
  0
ENDSEC
  0
SECTION
  2
ENTITIES
  0
TEXT
  5
53D5
330
4DC5
100
AcDbEntity
  8
TEXT
100
AcDbText
 10
9.0
 20
36.75
 30
0.0
 40
1.5
  1
◇ブレード仕様
  7
GOTHIC
 11
9.0
 21
37.5
 31
0.0
100
AcDbText
 73
     2
  0
TEXT
  5
53D6
330
4DC5
100
AcDbEntity
  8
TEXT
100
AcDbText
 10
12.0
 20
33.75
 30
0.0
 40
1.5
  1
切刃有効長　＝　先端刃幅7
  7
GOTHIC
 11
12.0
 21
34.5
 31
0.0
100
AcDbText
 73
     2
  0
TEXT
  5
53D7
330
4DC5
100
AcDbEntity
  8
TEXT
100
AcDbText
 10
12.0
 20
30.75
 30
0.0
 40
1.5
  1
刃開き最大　＝　 6
  7
GOTHIC
 11
12.0
 21
31.5
 31
0.0
100
AcDbText
 73
     2
  0
LINE
  5
53D8
330
4DC5
100
AcDbEntity
  8
TEXT
100
AcDbLine
 10
12.0
 20
33.0
 30
0.0
 11
37.5
 21
33.0
 31
0.0
  0
LINE
  5
53D9
330
4DC5
100
AcDbEntity
  8
TEXT
100
AcDbLine
 10
12.0
 20
30.0
 30
0.0
 11
30.0
 21
30.0
 31
0.0
  0
TEXT
  5
53DA
330
4DC5
100
AcDbEntity
  8
TEXT
100
AcDbText
 10
15.0
 20
48.75
 30
0.0
 40
1.5
  1
ＮＴ０５ＡＥ
  7
GOTHIC
 11
15.0
 21
49.5
 31
0.0
100
AcDbText
 73
     2
  0
TEXT
  5
53DC
330
4DC5
100
AcDbEntity
  8
TEXT
100
AcDbText
 10
15.0
 20
42.75
 30
0.0
 40
1.5
  1
2005/03/25
  7
GOTHIC
 11
15.0
 21
43.5
 31
0.0
100
AcDbText
 73
     2
  0
DIMENSION
  5
53DD
330
4DC5
100
AcDbEntity
  8
DIMENSION
100
AcDbDimension
  2
*D54
 10
11.71633111563913
 20
65.9999999999999
 30
0.0
 11
10.46633111563912
 21
73.4999999999999
 31
0.0
  3
ISO-25
100
AcDbAlignedDimension
 13
17.10164880763441
 23
80.9999999999999
 33
0.0
 14
17.10164880763441
 24
65.9999999999999
 34
0.0
 50
90.0
100
AcDbRotatedDimension
  0
LINE
  5
53DE
330
4DC5
100
AcDbEntity
  8
CENTER
100
AcDbLine
 10
14.71633111563913
 20
73.4999999999999
 30
0.0
 11
17.10164880763441
 21
73.4999999999999
 31
0.0
  0
LINE
  5
53DF
330
4DC5
100
AcDbEntity
  8
LINE
100
AcDbLine
 10
17.10164880763439
 20
73.49999999999987
 30
0.0
 11
24.10164880763441
 21
73.4999999999999
 31
0.0
  0
LINE
  5
53E0
330
4DC5
100
AcDbEntity
  8
CENTER
100
AcDbLine
 10
24.10164880763441
 20
73.4999999999999
 30
0.0
 11
26.71633111563914
 21
73.4999999999999
 31
0.0
  0
LINE
  5
53E1
330
4DC5
100
AcDbEntity
  8
LINE
100
AcDbLine
 10
24.10164880763441
 20
68.49999999999987
 30
0.0
 11
17.10164880763441
 21
68.49999999999987
 31
0.0
  0
LINE
  5
53E2
330
4DC5
100
AcDbEntity
  8
LINE
100
AcDbLine
 10
24.10164880763441
 20
71.49999999999979
 30
0.0
 11
17.10164880763441
 21
71.4999999999999
 31
0.0
  0
LINE
  5
53E3
330
4DC5
100
AcDbEntity
  8
LINE
100
AcDbLine
 10
24.10164880763441
 20
75.4999999999999
 30
0.0
 11
17.10164880763441
 21
75.49999999999993
 31
0.0
  0
LINE
  5
53E4
330
4DC5
100
AcDbEntity
  8
LINE
100
AcDbLine
 10
24.10164880763439
 20
78.4999999999999
 30
0.0
 11
17.10164880763441
 21
78.4999999999999
 31
0.0
  0
DIMENSION
  5
53E5
330
4DC5
100
AcDbEntity
  8
DIMENSION
100
AcDbDimension
  2
*D56
 10
60.25
 20
73.4999999999999
 30
0.0
 11
60.76075383083462
 21
74.00842675479852
 31
0.0
 70
   132
  3
ISO-25
100
AcDbRadialDimension
 15
62.37615837254161
 25
75.61647125538485
 35
0.0
 40
0.0
1001
ACAD
1000
DSTYLE
1002
{
1070
   288
1070
     1
1002
}
  0
DIMENSION
  5
53E6
330
4DC5
100
AcDbEntity
  8
DIMENSION
100
AcDbDimension
  2
*D58
 10
54.75
 20
70.49999999999987
 30
0.0
 11
54.73927404340964
 21
74.6100506605074
 31
0.0
 70
   128
  3
ISO-25
100
AcDbAlignedDimension
 13
48.75
 23
76.4999999999999
 33
0.0
 14
48.75
 24
70.49999999999987
 34
0.0
 50
90.0
100
AcDbRotatedDimension
1001
ACAD
1000
DSTYLE
1002
{
1070
    76
1070
     1
1070
    75
1070
     1
1002
}
  0
LINE
  5
53E7
330
4DC5
100
AcDbEntity
  8
LINE
100
AcDbLine
 10
45.25
 20
73.49999999999987
 30
0.0
 11
45.25
 21
71.4999999999999
 31
0.0
  0
LINE
  5
53E8
330
4DC5
100
AcDbEntity
  8
LINE
100
AcDbLine
 10
46.05384757729336
 20
68.49999999999987
 30
0.0
 11
45.25
 21
71.4999999999999
 31
0.0
  0
ARC
  5
53E9
330
4DC5
100
AcDbEntity
  8
LINE
100
AcDbCircle
 10
60.25
 20
73.4999999999999
 30
0.0
 40
3.0
100
AcDbArc
 50
270.0
 51
350.40593177314
  0
ARC
  5
53EA
330
4DC5
100
AcDbEntity
  8
LINE
100
AcDbCircle
 10
48.75
 20
73.49999999999987
 30
0.0
 40
3.0
100
AcDbArc
 50
197.8774831208108
 51
270.0
  0
LINE
  5
53EB
330
4DC5
100
AcDbEntity
  8
LINE
100
AcDbLine
 10
45.25
 20
73.4999999999999
 30
0.0
 11
45.89485464119904
 21
72.5790521295331
 31
0.0
  0
LINE
  5
53EC
330
4DC5
100
AcDbEntity
  8
LINE
100
AcDbLine
 10
48.75
 20
70.49999999999987
 30
0.0
 11
60.25
 21
70.4999999999999
 31
0.0
  0
ARC
  5
53ED
330
4DC5
100
AcDbEntity
  8
LINE
100
AcDbCircle
 10
56.95109493614499
 20
90.99999999999992
 30
0.0
 40
25.0
100
AcDbArc
 50
244.1580672368332
 51
270.0
  0
LINE
  5
53EE
330
4DC5
100
AcDbEntity
  8
LINE
100
AcDbLine
 10
48.75
 20
76.4999999999999
 30
0.0
 11
60.25
 21
76.4999999999999
 31
0.0
  0
LINE
  5
53EF
330
4DC5
100
AcDbEntity
  8
LINE
100
AcDbLine
 10
45.25
 20
73.4999999999999
 30
0.0
 11
45.89485464119904
 21
74.42094787046672
 31
0.0
  0
ARC
  5
53F0
330
4DC5
100
AcDbEntity
  8
LINE
100
AcDbCircle
 10
48.75
 20
73.4999999999999
 30
0.0
 40
3.0
100
AcDbArc
 50
90.0
 51
162.1225168791891
  0
ARC
  5
53F1
330
4DC5
100
AcDbEntity
  8
LINE
100
AcDbCircle
 10
60.25
 20
73.4999999999999
 30
0.0
 40
3.0
100
AcDbArc
 50
9.594068226859855
 51
90.0
  0
ARC
  5
53F2
330
4DC5
100
AcDbEntity
  8
LINE
100
AcDbCircle
 10
56.95109493614501
 20
55.99999999999989
 30
0.0
 40
25.0
100
AcDbArc
 50
90.0
 51
115.8419327631666
  0
LINE
  5
53F3
330
4DC5
100
AcDbEntity
  8
LINE
100
AcDbLine
 10
46.05384757729336
 20
78.4999999999999
 30
0.0
 11
45.25
 21
75.4999999999999
 31
0.0
  0
LINE
  5
53F4
330
4DC5
100
AcDbEntity
  8
LINE
100
AcDbLine
 10
45.25
 20
73.4999999999999
 30
0.0
 11
45.25
 21
75.4999999999999
 31
0.0
  0
DIMENSION
  5
53F5
330
4DC5
100
AcDbEntity
  8
DIMENSION
100
AcDbDimension
  2
*D76
 10
74.25
 20
87.0
 30
0.0
 11
68.75
 21
88.25000000000001
 31
0.0
  3
ISO-25
100
AcDbAlignedDimension
 13
63.25
 23
80.9999999999999
 33
0.0
 14
74.25
 24
82.74999999999987
 34
0.0
100
AcDbRotatedDimension
1001
ACAD
1000
DSTYLE
1002
{
1070
    76
1070
     1
1002
}
  0
DIMENSION
  5
53F6
330
4DC5
100
AcDbEntity
  8
DIMENSION
100
AcDbDimension
  2
*D237
 10
63.25
 20
87.0
 30
0.0
 11
54.25
 21
88.87500000000001
 31
0.0
 70
    32
  3
ISO-25
100
AcDbAlignedDimension
 13
45.25
 23
74.9999999999999
 33
0.0
 14
63.25
 24
73.4999999999999
 34
0.0
100
AcDbRotatedDimension
1001
ACAD
1000
DSTYLE
1002
{
1070
   287
1070
     3
1070
   287
1070
     3
1070
   279
1070
     0
1070
    75
1070
     1
1002
}
  0
TEXT
  5
53F7
330
4DC5
100
AcDbEntity
  8
TEXT
  6
BYBLOCK
100
AcDbText
 10
69.91601295855862
 20
69.29208408774371
 30
0.0
 40
1.5
  1
Ｖ
 50
127.499999999999
  7
GOTHIC
 72
     1
 11
68.8948649530341
 21
69.39086035419106
 31
0.0
100
AcDbText
 73
     2
  0
TEXT
  5
53F8
330
4DC5
100
AcDbEntity
  8
TEXT
  6
BYBLOCK
100
AcDbText
 10
80.59584498103982
 20
77.55003104637603
 30
0.0
 40
1.5
  1
Ｅ
 50
127.499999999999
  7
GOTHIC
 72
     1
 11
79.60513504696573
 21
77.60913964580881
 31
0.0
100
AcDbText
 73
     2
  0
TEXT
  5
53F9
330
4DC5
100
AcDbEntity
  8
TEXT
  6
BYBLOCK
100
AcDbText
 10
68.95546703596953
 20
70.60337770967707
 30
0.0
 40
1.5
  1
Ｅ
 50
112.5000000000005
  7
GOTHIC
 72
     1
 11
68.01381315554874
 21
70.91688683153558
 31
0.0
100
AcDbText
 73
     2
  0
TEXT
  5
53FA
330
4DC5
100
AcDbEntity
  8
TEXT
  6
BYBLOCK
100
AcDbText
 10
81.44697489649018
 20
75.72341006998025
 30
0.0
 40
1.5
  1
Ａ
 50
112.5000000000005
  7
GOTHIC
 72
     1
 11
80.48618684445115
 21
76.08311316846431
 31
0.0
100
AcDbText
 73
     2
  0
TEXT
  5
53FB
330
4DC5
100
AcDbEntity
  8
TEXT
  6
BYBLOCK
100
AcDbText
 10
68.39269916631112
 20
72.02283144371792
 30
0.0
 40
1.5
  1
Ｓ
 50
97.49999999999971
  7
GOTHIC
 72
     1
 11
67.55774718572673
 21
72.61894820251455
 31
0.0
100
AcDbText
 73
     2
  0
TEXT
  5
53FC
330
4DC5
100
AcDbEntity
  8
TEXT
  6
BYBLOCK
100
AcDbText
 10
81.78373110446855
 20
73.73536279561995
 30
0.0
 40
1.5
  1
５
 50
97.49999999999971
  7
GOTHIC
 72
     1
 11
80.94225281427316
 21
74.38105179748527
 31
0.0
100
AcDbText
 73
     2
  0
TEXT
  5
53FD
330
4DC5
100
AcDbEntity
  8
TEXT
  6
BYBLOCK
100
AcDbText
 10
68.20996249720305
 20
73.58914575035857
 30
0.0
 40
1.5
  1
Ｓ
 50
82.5000000000003
  7
GOTHIC
 72
     1
 11
67.55774718572673
 21
74.38105179748527
 31
0.0
100
AcDbText
 73
     2
  0
TEXT
  5
53FE
330
4DC5
100
AcDbEntity
  8
TEXT
  6
BYBLOCK
100
AcDbText
 10
81.60099443536049
 20
71.87661439845659
 30
0.0
 40
1.5
  1
０
 50
82.5000000000003
  7
GOTHIC
 72
     1
 11
80.94225281427316
 21
72.61894820251462
 31
0.0
100
AcDbText
 73
     2
  0
TEXT
  5
53FF
330
4DC5
100
AcDbEntity
  8
TEXT
  6
BYBLOCK
100
AcDbText
 10
68.45797857389489
 20
75.19557889805811
 30
0.0
 40
1.5
  1
Ｅ
 50
67.49999999999936
  7
GOTHIC
 72
     1
 11
68.01381315554874
 21
76.08311316846428
 31
0.0
100
AcDbText
 73
     2
  0
TEXT
  5
5400
330
4DC5
100
AcDbEntity
  8
TEXT
  6
BYBLOCK
100
AcDbText
 10
80.91121809117906
 20
69.98315858450382
 30
0.0
 40
1.5
  1
Ｔ
 50
67.49999999999936
  7
GOTHIC
 72
     1
 11
80.48618684445115
 21
70.91688683153555
 31
0.0
100
AcDbText
 73
     2
  0
TEXT
  5
5401
330
4DC5
100
AcDbEntity
  8
TEXT
  6
BYBLOCK
100
AcDbText
 10
69.06374695794643
 20
76.59722123584838
 30
0.0
 40
1.5
  1
Ｌ
 50
52.50000000000096
  7
GOTHIC
 72
     1
 11
68.8948649530341
 21
77.60913964580878
 31
0.0
100
AcDbText
 73
     2
  0
TEXT
  5
5402
330
4DC5
100
AcDbEntity
  8
TEXT
  6
BYBLOCK
100
AcDbText
 10
79.77401705187806
 20
68.37894194423066
 30
0.0
 40
1.5
  1
Ｎ
 50
52.50000000000096
  7
GOTHIC
 72
     1
 11
79.60513504696573
 21
69.39086035419106
 31
0.0
100
AcDbText
 73
     2
  0
LINE
  5
5403
330
4DC5
100
AcDbEntity
  8
LINE
100
AcDbLine
 10
105.017949192431
 20
67.6397785849728
 30
0.0
 11
108.4820508075688
 21
70.10064038170053
 31
0.0
  0
LINE
  5
5404
330
4DC5
100
AcDbEntity
  8
LINE
100
AcDbLine
 10
105.017949192431
 20
79.36022141502701
 30
0.0
 11
108.4820508075688
 21
76.89935961829927
 31
0.0
  0
LINE
  5
5405
330
4DC5
100
AcDbEntity
  8
LINE
100
AcDbLine
 10
17.10164880763441
 20
65.9999999999999
 30
0.0
 11
17.10164880763441
 21
73.4999999999999
 31
0.0
  0
LINE
  5
5406
330
4DC5
100
AcDbEntity
  8
LINE
100
AcDbLine
 10
24.10164880763441
 20
65.9999999999999
 30
0.0
 11
24.10164880763441
 21
73.4999999999999
 31
0.0
  0
LINE
  5
5407
330
4DC5
100
AcDbEntity
  8
LINE
100
AcDbLine
 10
24.10164880763441
 20
65.9999999999999
 30
0.0
 11
17.10164880763441
 21
65.9999999999999
 31
0.0
  0
LINE
  5
5408
330
4DC5
100
AcDbEntity
  8
LINE
100
AcDbLine
 10
24.10164880763441
 20
80.9999999999999
 30
0.0
 11
17.10164880763441
 21
80.9999999999999
 31
0.0
  0
LINE
  5
5409
330
4DC5
100
AcDbEntity
  8
LINE
100
AcDbLine
 10
24.10164880763441
 20
80.9999999999999
 30
0.0
 11
24.10164880763441
 21
73.4999999999999
 31
0.0
  0
LINE
  5
540A
330
4DC5
100
AcDbEntity
  8
LINE
100
AcDbLine
 10
17.10164880763441
 20
80.9999999999999
 30
0.0
 11
17.10164880763441
 21
73.4999999999999
 31
0.0
  0
LINE
  5
540B
330
4DC5
100
AcDbEntity
  8
CENTER
100
AcDbLine
 10
43.57297281576633
 20
73.4999999999999
 30
0.0
 11
107.25
 21
73.4999999999999
 31
0.0
  0
LINE
  5
540C
330
4DC5
100
AcDbEntity
  8
LINE
100
AcDbLine
 10
74.25
 20
80.9999999999999
 30
0.0
 11
79.25
 21
80.9999999999999
 31
0.0
  0
LINE
  5
540D
330
4DC5
100
AcDbEntity
  8
LINE
100
AcDbLine
 10
79.25
 20
80.9999999999999
 30
0.0
 11
105.3547131864717
 21
79.33879097904259
 31
0.0
  0
LINE
  5
540E
330
4DC5
100
AcDbEntity
  8
LINE
100
AcDbLine
 10
107.5793569890054
 20
78.12444408634963
 30
0.0
 11
110.25
 21
74.4999999999999
 31
0.0
  0
LINE
  5
540F
330
4DC5
100
AcDbEntity
  8
LINE
100
AcDbLine
 10
110.25
 20
74.4999999999999
 30
0.0
 11
110.25
 21
73.4999999999999
 31
0.0
  0
LINE
  5
5410
330
4DC5
100
AcDbEntity
  8
LINE
100
AcDbLine
 10
82.75
 20
73.4999999999999
 30
0.0
 11
82.74999999999998
 21
73.4999999999999
 31
0.0
  0
LINE
  5
5411
330
4DC5
100
AcDbEntity
  8
LINE
100
AcDbLine
 10
83.74999999999998
 20
74.4999999999999
 30
0.0
 11
106.25
 21
74.4999999999999
 31
0.0
  0
LINE
  5
5412
330
4DC5
100
AcDbEntity
  8
LINE
100
AcDbLine
 10
107.25
 20
73.4999999999999
 30
0.0
 11
107.25
 21
73.4999999999999
 31
0.0
  0
ARC
  5
5413
330
4DC5
100
AcDbEntity
  8
LINE
100
AcDbCircle
 10
83.74999999999998
 20
73.4999999999999
 30
0.0
 40
1.0
100
AcDbArc
 50
90.0
 51
180.0
  0
ARC
  5
5414
330
4DC5
100
AcDbEntity
  8
LINE
100
AcDbCircle
 10
106.25
 20
73.4999999999999
 30
0.0
 40
1.0
100
AcDbArc
 50
0.0
 51
90.0
  0
LINE
  5
5415
330
4DC5
100
AcDbEntity
  8
LINE
100
AcDbLine
 10
74.25
 20
80.9999999999999
 30
0.0
 11
56.95109493614501
 21
80.9999999999999
 31
0.0
  0
LINE
  5
5416
330
4DC5
100
AcDbEntity
  8
LINE
100
AcDbLine
 10
65.75
 20
73.4999999999999
 30
0.0
 11
65.75
 21
73.4999999999999
 31
0.0
  0
LINE
  5
5417
330
4DC5
100
AcDbEntity
  8
LINE
100
AcDbLine
 10
65.25
 20
73.9999999999999
 30
0.0
 11
63.20803989154981
 21
73.9999999999999
 31
0.0
  0
ARC
  5
5418
330
4DC5
100
AcDbEntity
  8
LINE
100
AcDbCircle
 10
65.25
 20
73.4999999999999
 30
0.0
 40
0.5
100
AcDbArc
 50
0.0
 51
90.0
  0
ARC
  5
5419
330
4DC5
100
AcDbEntity
  8
LINE
100
AcDbCircle
 10
105.1641894769453
 20
76.34484697220006
 30
0.0
 40
3.0
100
AcDbArc
 50
36.38435181583583
 51
86.35881474209861
  0
ARC
  5
541A
330
4DC5
100
AcDbEntity
  8
LINE
100
AcDbCircle
 10
105.1641894769453
 20
70.65515302779973
 30
0.0
 40
3.0
100
AcDbArc
 50
273.6411852579014
 51
323.6156481841641
  0
ARC
  5
541B
330
4DC5
100
AcDbEntity
  8
LINE
100
AcDbCircle
 10
65.25
 20
73.4999999999999
 30
0.0
 40
0.5
100
AcDbArc
 50
270.0
 51
0.0
  0
LINE
  5
541C
330
4DC5
100
AcDbEntity
  8
LINE
100
AcDbLine
 10
65.25
 20
72.9999999999999
 30
0.0
 11
63.20803989154979
 21
72.9999999999999
 31
0.0
  0
LINE
  5
541D
330
4DC5
100
AcDbEntity
  8
LINE
100
AcDbLine
 10
65.75
 20
73.4999999999999
 30
0.0
 11
65.75
 21
73.4999999999999
 31
0.0
  0
LINE
  5
541E
330
4DC5
100
AcDbEntity
  8
LINE
100
AcDbLine
 10
74.25
 20
65.9999999999999
 30
0.0
 11
56.95109493614499
 21
65.9999999999999
 31
0.0
  0
ARC
  5
541F
330
4DC5
100
AcDbEntity
  8
LINE
100
AcDbCircle
 10
106.25
 20
73.4999999999999
 30
0.0
 40
1.0
100
AcDbArc
 50
270.0
 51
0.0
  0
ARC
  5
5420
330
4DC5
100
AcDbEntity
  8
LINE
100
AcDbCircle
 10
83.74999999999998
 20
73.4999999999999
 30
0.0
 40
1.0
100
AcDbArc
 50
180.0
 51
270.0
  0
LINE
  5
5421
330
4DC5
100
AcDbEntity
  8
LINE
100
AcDbLine
 10
107.25
 20
73.4999999999999
 30
0.0
 11
107.25
 21
73.4999999999999
 31
0.0
  0
LINE
  5
5422
330
4DC5
100
AcDbEntity
  8
LINE
100
AcDbLine
 10
83.74999999999998
 20
72.4999999999999
 30
0.0
 11
106.25
 21
72.4999999999999
 31
0.0
  0
LINE
  5
5423
330
4DC5
100
AcDbEntity
  8
LINE
100
AcDbLine
 10
82.75
 20
73.4999999999999
 30
0.0
 11
82.74999999999998
 21
73.4999999999999
 31
0.0
  0
LINE
  5
5424
330
4DC5
100
AcDbEntity
  8
LINE
100
AcDbLine
 10
110.25
 20
72.4999999999999
 30
0.0
 11
110.25
 21
73.4999999999999
 31
0.0
  0
LINE
  5
5425
330
4DC5
100
AcDbEntity
  8
LINE
100
AcDbLine
 10
107.5793569890054
 20
68.87555591365018
 30
0.0
 11
110.25
 21
72.4999999999999
 31
0.0
  0
LINE
  5
5426
330
4DC5
100
AcDbEntity
  8
LINE
100
AcDbLine
 10
79.25
 20
65.9999999999999
 30
0.0
 11
105.3547131864717
 21
67.6612090209572
 31
0.0
  0
LINE
  5
5427
330
4DC5
100
AcDbEntity
  8
LINE
100
AcDbLine
 10
74.25
 20
65.9999999999999
 30
0.0
 11
79.25
 21
65.9999999999999
 31
0.0
  0
CIRCLE
  5
5428
330
4DC5
100
AcDbEntity
  8
LINE
100
AcDbCircle
 10
74.25
 20
73.4999999999999
 30
0.0
 40
2.049999999999998
  0
CIRCLE
  5
5429
330
4DC5
100
AcDbEntity
  8
LINE
100
AcDbCircle
 10
74.25
 20
73.4999999999999
 30
0.0
 40
5.0
  0
ARC
  5
542A
330
4DC5
100
AcDbEntity
  8
LINE
100
AcDbCircle
 10
74.25
 20
73.4999999999999
 30
0.0
 40
8.5
100
AcDbArc
 50
118.072486935853
 51
180.0
  0
ARC
  5
542B
330
4DC5
100
AcDbEntity
  8
LINE
100
AcDbCircle
 10
74.25
 20
73.4999999999999
 30
0.0
 40
9.0
100
AcDbArc
 50
123.55730976192
 51
176.8164916468274
  0
ARC
  5
542C
330
4DC5
100
AcDbEntity
  8
LINE
100
AcDbCircle
 10
74.25
 20
73.4999999999999
 30
0.0
 40
9.0
100
AcDbArc
 50
303.55730976192
 51
354.6317953008377
  0
ARC
  5
542D
330
4DC5
100
AcDbEntity
  8
LINE
100
AcDbCircle
 10
74.25
 20
73.4999999999999
 30
0.0
 40
8.5
100
AcDbArc
 50
298.072486935853
 51
0.0
  0
LINE
  5
542E
330
4DC5
100
AcDbEntity
  8
CENTER
100
AcDbLine
 10
74.25
 20
82.74999999999987
 30
0.0
 11
74.25
 21
63.98732605523253
 31
0.0
  0
LINE
  5
542F
330
4DC5
100
AcDbEntity
  8
CENTER
100
AcDbLine
 10
110.25
 20
73.4999999999999
 30
0.0
 11
111.7499999999999
 21
73.4999999999999
 31
0.0
  0
LINE
  5
5430
330
4DC5
100
AcDbEntity
  8
LINE
100
AcDbLine
 10
107.25
 20
73.4999999999999
 30
0.0
 11
110.25
 21
73.4999999999999
 31
0.0
  0
DIMENSION
  5
5431
330
4DC5
100
AcDbEntity
  8
DIMENSION
100
AcDbDimension
  2
*D78
 10
74.25
 20
91.5
 30
0.0
 11
59.75
 21
92.75
 31
0.0
  3
ISO-25
100
AcDbAlignedDimension
 13
45.25
 23
75.4999999999999
 33
0.0
 14
74.25
 24
82.74999999999987
 34
0.0
100
AcDbRotatedDimension
1001
ACAD
1000
DSTYLE
1002
{
1070
    75
1070
     0
1002
}
  0
LINE
  5
5432
330
4DC5
100
AcDbEntity
  8
LINE
100
AcDbLine
 10
46.05384757729338
 20
47.0
 30
0.0
 11
46.05384757729338
 21
40.0
 31
0.0
  0
LINE
  5
5433
330
4DC5
100
AcDbEntity
  8
LINE
100
AcDbLine
 10
45.25000000000001
 20
47.0
 30
0.0
 11
45.25
 21
40.0
 31
0.0
  0
DIMENSION
  5
5434
330
4DC5
100
AcDbEntity
  8
DIMENSION
100
AcDbDimension
  2
*D84
 10
119.25
 20
40.0
 30
0.0
 11
117.3591370558374
 21
43.5
 31
0.0
  3
ISO-25
100
AcDbAlignedDimension
 13
108.9271243444676
 23
47.0
 33
0.0
 14
108.9271243444676
 24
40.0
 34
0.0
 50
90.0
100
AcDbRotatedDimension
1001
ACAD
1000
DSTYLE
1002
{
1070
   146
1040
0.8
1070
    47
1040
0.0
1070
    48
1040
0.1
1070
   147
1040
0.5
1070
    72
1070
     0
1070
    71
1070
     1
1002
}
  0
LINE
  5
5435
330
4DC5
100
AcDbEntity
  8
CENTER
100
AcDbLine
 10
74.25
 20
48.34102768272578
 30
0.0
 11
74.25
 21
38.50483583895277
 31
0.0
  0
LINE
  5
5436
330
4DC5
100
AcDbEntity
  8
CENTER
100
AcDbLine
 10
43.57668642257567
 20
43.5
 30
0.0
 11
69.27506281446692
 21
43.5
 31
0.0
  0
ARC
  5
5437
330
4DC5
100
AcDbEntity
  8
LINE
100
AcDbCircle
 10
108.9271243444676
 20
42.0
 30
0.0
 40
2.0
100
AcDbArc
 50
270.0
 51
311.409622109271
  0
LINE
  5
5438
330
4DC5
100
AcDbEntity
  8
LINE
100
AcDbLine
 10
106.75
 20
41.0
 30
0.0
 11
108.4820508075688
 21
40.0
 31
0.0
  0
LINE
  5
5439
330
4DC5
100
AcDbEntity
  8
LINE
100
AcDbLine
 10
106.75
 20
41.0
 30
0.0
 11
105.017949192431
 21
40.0
 31
0.0
  0
LINE
  5
543A
330
4DC5
100
AcDbEntity
  8
LINE
100
AcDbLine
 10
106.75
 20
46.0
 30
0.0
 11
105.017949192431
 21
47.0
 31
0.0
  0
LINE
  5
543B
330
4DC5
100
AcDbEntity
  8
LINE
100
AcDbLine
 10
106.75
 20
46.0
 30
0.0
 11
108.4820508075688
 21
47.0
 31
0.0
  0
ARC
  5
543C
330
4DC5
100
AcDbEntity
  8
LINE
100
AcDbCircle
 10
108.9271243444676
 20
45.0
 30
0.0
 40
2.0
100
AcDbArc
 50
48.59037789072903
 51
90.0
  0
LINE
  5
543D
330
4DC5
100
AcDbEntity
  8
LINE
100
AcDbLine
 10
69.27506281446689
 20
43.5
 30
0.0
 11
79.25
 21
43.5
 31
0.0
  0
LINE
  5
543E
330
4DC5
100
AcDbEntity
  8
CENTER
100
AcDbLine
 10
79.25
 20
43.5
 30
0.0
 11
111.7499999999999
 21
43.5
 31
0.0
  0
LINE
  5
543F
330
4DC5
100
AcDbEntity
  8
LINE
100
AcDbLine
 10
79.25
 20
47.0
 30
0.0
 11
79.25
 21
43.5
 31
0.0
  0
LINE
  5
5440
330
4DC5
100
AcDbEntity
  8
LINE
100
AcDbLine
 10
78.25
 20
47.0
 30
0.0
 11
78.25
 21
43.5
 31
0.0
  0
LINE
  5
5441
330
4DC5
100
AcDbEntity
  8
LINE
100
AcDbLine
 10
70.24999999999998
 20
43.5
 30
0.0
 11
70.24999999999998
 21
40.0
 31
0.0
  0
LINE
  5
5442
330
4DC5
100
AcDbEntity
  8
LINE
100
AcDbLine
 10
69.27506281446689
 20
43.5
 30
0.0
 11
69.27506281446689
 21
40.0
 31
0.0
  0
LINE
  5
5443
330
4DC5
100
AcDbEntity
  8
LINE
100
AcDbLine
 10
110.25
 20
46.5
 30
0.0
 11
110.25
 21
40.49999999999999
 31
0.0
  0
LINE
  5
5444
330
4DC5
100
AcDbEntity
  8
LINE
100
AcDbLine
 10
45.25
 20
40.0
 30
0.0
 11
108.9271243444676
 21
40.0
 31
0.0
  0
LINE
  5
5445
330
4DC5
100
AcDbEntity
  8
LINE
100
AcDbLine
 10
45.25000000000001
 20
47.0
 30
0.0
 11
108.9271243444676
 21
47.0
 31
0.0
  0
DIMENSION
  5
5446
330
4DC5
100
AcDbEntity
  8
DIMENSION
100
AcDbDimension
  2
*D238
 10
45.25
 20
75.4999999999999
 30
0.0
 11
46.72164978409226
 21
86.67828990000986
 31
0.0
 70
    34
  3
ISO-25
100
AcDb2LineAngularDimension
 13
46.05384757729336
 23
78.4999999999999
 33
0.0
 14
45.25
 24
75.4999999999999
 34
0.0
 15
45.25
 25
73.4999999999999
 35
0.0
 16
46.33959836848459
 26
81.67941941787182
 36
0.0
1001
ACAD
1000
DSTYLE
1002
{
1070
   271
1070
     0
1070
    75
1070
     1
1002
}
  0
DIMENSION
  5
5447
330
4DC5
100
AcDbEntity
  8
DIMENSION
100
AcDbDimension
  2
*D90
 10
42.0
 20
71.4999999999999
 30
0.0
 11
40.74999999999999
 21
73.4999999999999
 31
0.0
  3
ISO-25
100
AcDbAlignedDimension
 13
45.25
 23
75.4999999999999
 33
0.0
 14
45.25
 24
71.4999999999999
 34
0.0
 50
90.0
100
AcDbRotatedDimension
  0
DIMENSION
  5
5448
330
4DC5
100
AcDbEntity
  8
DIMENSION
100
AcDbDimension
  2
*D92
 10
39.0
 20
68.49999999999987
 30
0.0
 11
37.74999999999999
 21
73.49999999999993
 31
0.0
  3
ISO-25
100
AcDbAlignedDimension
 13
46.05384757729349
 23
78.49999999999997
 33
0.0
 14
46.05384757729336
 24
68.49999999999987
 34
0.0
 50
90.0
100
AcDbRotatedDimension
  0
DIMENSION
  5
5449
330
4DC5
100
AcDbEntity
  8
DIMENSION
100
AcDbDimension
  2
*D239
 10
45.89485464119904
 20
74.42094787046672
 30
0.0
 11
32.7449362379204
 21
73.49999999999986
 31
0.0
 70
    34
  3
ISO-25
100
AcDb2LineAngularDimension
 13
45.25
 23
73.4999999999999
 33
0.0
 14
45.89485464119904
 24
72.5790521295331
 34
0.0
 15
45.25
 25
73.4999999999999
 35
0.0
 16
35.15949017313364
 26
76.84363081391928
 36
0.0
1001
ACAD
1000
DSTYLE
1002
{
1070
   271
1070
     0
1002
}
  0
ARC
  5
544A
330
4DC5
100
AcDbEntity
  8
DIMENSION
100
AcDbCircle
 10
48.75
 20
73.4999999999999
 30
0.0
 40
3.0
100
AcDbArc
 50
162.1225168791889
 51
197.8774831208111
  0
ARC
  5
544B
330
4DC5
100
AcDbEntity
  8
DIMENSION
100
AcDbCircle
 10
60.25000000000001
 20
73.4999999999999
 30
0.0
 40
3.0
100
AcDbArc
 50
350.4059317731397
 51
9.594068226859922
  0
DIMENSION
  5
544C
330
4DC5
100
AcDbEntity
  8
DIMENSION
100
AcDbDimension
  2
*D96
 10
48.75000000000015
 20
73.5000000000001
 30
0.0
 11
48.00585825308798
 21
74.30335511414037
 31
0.0
 70
   132
  3
ISO-25
100
AcDbRadialDimension
 15
46.71134167151814
 25
75.70087987398476
 35
0.0
 40
0.0
1001
ACAD
1000
DSTYLE
1002
{
1070
   288
1070
     1
1002
}
  0
DIMENSION
  5
544D
330
4DC5
100
AcDbEntity
  8
DIMENSION
100
AcDbDimension
  2
*D98
 10
45.75000000000001
 20
64.5
 30
0.0
 11
43.5
 21
61.5
 31
0.0
 70
   128
  3
ISO-25
100
AcDbAlignedDimension
 13
45.25
 23
71.4999999999999
 33
0.0
 14
45.75000000000001
 24
73.4999999999999
 34
0.0
100
AcDbRotatedDimension
  0
INSERT
  5
544E
330
4DC5
100
AcDbEntity
  8
0
100
AcDbBlockReference
  2
*U235
 10
0.0
 20
0.0
 30
0.0
1001
ACAD
1000
DSTYLE
1002
{
1070
   147
1040
0.5
1070
    77
1070
     1
1002
}
  0
INSERT
  5
544F
330
4DC5
100
AcDbEntity
  8
0
100
AcDbBlockReference
  2
*U236
 10
0.0
 20
0.0
 30
0.0
  0
VIEWPORT
  5
5452
330
4DC1
100
AcDbEntity
 67
     1
  8
0
100
AcDbViewport
 10
145.3197631835936
 20
101.8222458362579
 30
0.0
 40
391.2734030671862
 41
222.174172088623
 68
     1
 69
     1
1001
ACAD
1000
MVIEW
1002
{
1070
    16
1010
0.0
1020
0.0
1030
0.0
1010
0.0
1020
0.0
1030
1.0
1040
0.0
1040
222.174172088623
1040
145.3197631835936
1040
101.8222458362579
1040
50.0
1040
0.0
1040
0.0
1070
     0
1070
  1000
1070
     1
1070
     1
1070
     0
1070
     0
1070
     0
1070
     0
1040
0.0
1040
0.0
1040
0.0
1040
10.0
1040
10.0
1040
10.0
1040
10.0
1070
     0
1002
{
1002
}
1002
}
  0
ENDSEC
  0
SECTION
  2
OBJECTS
  0
DICTIONARY
  5
4DB3
330
0
100
AcDbDictionary
  3
ACAD_GROUP
350
4DB4
  3
ACAD_LAYOUT
350
4DC0
  3
ACAD_MLINESTYLE
350
4DBD
  3
ACAD_PLOTSETTINGS
350
4DBF
1001
ACAD
1000
TREAT_AS_HARD
1070
     0
  0
DICTIONARY
  5
5457
330
4DC5
100
AcDbDictionary
  3
ACAD_LAYOUTSELFREF
350
5458
  0
DICTIONARY
  5
5455
330
4DC1
100
AcDbDictionary
  3
ACAD_LAYOUTSELFREF
350
5456
  0
DICTIONARY
  5
4DB4
102
{ACAD_REACTORS
330
4DB3
102
}
330
4DB3
100
AcDbDictionary
1001
ACAD
1000
TREAT_AS_HARD
1070
     0
  0
DICTIONARY
  5
4DC0
102
{ACAD_REACTORS
330
4DB3
102
}
330
4DB3
100
AcDbDictionary
1001
ACAD
1000
TREAT_AS_HARD
1070
     0
  0
DICTIONARY
  5
4DBD
102
{ACAD_REACTORS
330
4DB3
102
}
330
4DB3
100
AcDbDictionary
  3
STANDARD
350
4DBE
1001
ACAD
1000
TREAT_AS_HARD
1070
     0
  0
DICTIONARY
  5
4DBF
102
{ACAD_REACTORS
330
4DB3
102
}
330
4DB3
100
AcDbDictionary
1001
ACAD
1000
TREAT_AS_HARD
1070
     0
  0
XRECORD
  5
5458
102
{ACAD_REACTORS
330
5457
102
}
330
5457
100
AcDbXrecord
340
4DC5
  0
XRECORD
  5
5456
102
{ACAD_REACTORS
330
5455
102
}
330
5455
100
AcDbXrecord
340
4DC1
  0
MLINESTYLE
  5
4DBE
102
{ACAD_REACTORS
330
4DBD
102
}
330
4DBD
100
AcDbMlineStyle
  2
STANDARD
 70
     0
  3

 62
   256
 51
90.0
 52
90.0
 71
     2
 49
0.5
 62
   256
  6
BYLAYER
 49
-0.5
 62
   256
  6
BYLAYER
  0
ENDSEC
  0
EOF
