  0
SECTION
  2
HEADER
  9
$ACADVER
  1
AC1012
  9
$DWGCODEPAGE
  3
dos932
  9
$INSBASE
 10
0.0
 20
0.0
 30
0.0
  9
$EXTMIN
 10
10.74730718199549
 20
29.99748257919853
 30
-0.0015258207003583
  9
$EXTMAX
 10
119.2513736027192
 20
90.25520347437732
 30
0.0000000349246037
  9
$LIMMIN
 10
0.0
 20
0.0
  9
$LIMMAX
 10
148.5
 20
105.0
  9
$ORTHOMODE
 70
     0
  9
$REGENMODE
 70
     1
  9
$FILLMODE
 70
     1
  9
$QTEXTMODE
 70
     0
  9
$MIRRTEXT
 70
     0
  9
$DRAGMODE
 70
     2
  9
$LTSCALE
 40
0.25
  9
$OSMODE
 70
    37
  9
$ATTMODE
 70
     1
  9
$TEXTSIZE
 40
1.5
  9
$TRACEWID
 40
1.0
  9
$TEXTSTYLE
  7
GOTHIC
  9
$CLAYER
  8
0
  9
$CELTYPE
  6
BYLAYER
  9
$CECOLOR
 62
   256
  9
$CELTSCALE
 40
1.0
  9
$DELOBJ
 70
     1
  9
$DISPSILH
 70
     0
  9
$DIMSCALE
 40
1.0
  9
$DIMASZ
 40
1.0
  9
$DIMEXO
 40
0.0
  9
$DIMDLI
 40
1.5
  9
$DIMRND
 40
0.0
  9
$DIMDLE
 40
0.0
  9
$DIMEXE
 40
1.5
  9
$DIMTP
 40
0.0
  9
$DIMTM
 40
0.0
  9
$DIMTXT
 40
1.5
  9
$DIMCEN
 40
0.0
  9
$DIMTSZ
 40
0.0
  9
$DIMTOL
 70
     0
  9
$DIMLIM
 70
     0
  9
$DIMTIH
 70
     0
  9
$DIMTOH
 70
     0
  9
$DIMSE1
 70
     0
  9
$DIMSE2
 70
     0
  9
$DIMTAD
 70
     1
  9
$DIMZIN
 70
     8
  9
$DIMBLK
  1
OPEN30
  9
$DIMASO
 70
     1
  9
$DIMSHO
 70
     1
  9
$DIMPOST
  1

  9
$DIMAPOST
  1

  9
$DIMALT
 70
     0
  9
$DIMALTD
 70
     3
  9
$DIMALTF
 40
0.03937007874016
  9
$DIMLFAC
 40
1.0
  9
$DIMTOFL
 70
     1
  9
$DIMTVP
 40
0.0
  9
$DIMTIX
 70
     0
  9
$DIMSOXD
 70
     0
  9
$DIMSAH
 70
     0
  9
$DIMBLK1
  1

  9
$DIMBLK2
  1

  9
$DIMSTYLE
  2
VESSEL_ENGINEERING_ORIGIN0
  9
$DIMCLRD
 70
   256
  9
$DIMCLRE
 70
   256
  9
$DIMCLRT
 70
   256
  9
$DIMTFAC
 40
1.0
  9
$DIMGAP
 40
0.5
  9
$DIMJUST
 70
     0
  9
$DIMSD1
 70
     0
  9
$DIMSD2
 70
     0
  9
$DIMTOLJ
 70
     1
  9
$DIMTZIN
 70
     0
  9
$DIMALTZ
 70
     0
  9
$DIMALTTZ
 70
     0
  9
$DIMFIT
 70
     3
  9
$DIMUPT
 70
     0
  9
$DIMUNIT
 70
     2
  9
$DIMDEC
 70
     4
  9
$DIMTDEC
 70
     4
  9
$DIMALTU
 70
     2
  9
$DIMALTTD
 70
     2
  9
$DIMTXSTY
  7
STANDARD
  9
$DIMAUNIT
 70
     0
  9
$LUNITS
 70
     2
  9
$LUPREC
 70
     4
  9
$SKETCHINC
 40
1.0
  9
$FILLETRAD
 40
0.0
  9
$AUNITS
 70
     0
  9
$AUPREC
 70
     0
  9
$MENU
  1
.
  9
$ELEVATION
 40
0.0
  9
$PELEVATION
 40
0.0
  9
$THICKNESS
 40
0.0
  9
$LIMCHECK
 70
     0
  9
$BLIPMODE
 70
     1
  9
$CHAMFERA
 40
0.0
  9
$CHAMFERB
 40
0.0
  9
$CHAMFERC
 40
0.0
  9
$CHAMFERD
 40
0.0
  9
$SKPOLY
 70
     0
  9
$TDCREATE
 40
2452943.646856192
  9
$TDUPDATE
 40
2453515.807926863
  9
$TDINDWG
 40
0.2789446181
  9
$TDUSRTIMER
 40
0.2789443866
  9
$USRTIMER
 70
     1
  9
$ANGBASE
 50
0.0
  9
$ANGDIR
 70
     0
  9
$PDMODE
 70
     0
  9
$PDSIZE
 40
0.0
  9
$PLINEWID
 40
0.0
  9
$COORDS
 70
     1
  9
$SPLFRAME
 70
     0
  9
$SPLINETYPE
 70
     6
  9
$SPLINESEGS
 70
     8
  9
$ATTDIA
 70
     0
  9
$ATTREQ
 70
     1
  9
$HANDLING
 70
-16383
  9
$HANDSEED
  5
14B7
  9
$SURFTAB1
 70
     6
  9
$SURFTAB2
 70
     6
  9
$SURFTYPE
 70
     6
  9
$SURFU
 70
     6
  9
$SURFV
 70
     6
  9
$UCSNAME
  2

  9
$UCSORG
 10
0.0
 20
0.0
 30
0.0
  9
$UCSXDIR
 10
1.0
 20
0.0
 30
0.0
  9
$UCSYDIR
 10
0.0
 20
1.0
 30
0.0
  9
$PUCSNAME
  2

  9
$PUCSORG
 10
0.0
 20
0.0
 30
0.0
  9
$PUCSXDIR
 10
1.0
 20
0.0
 30
0.0
  9
$PUCSYDIR
 10
0.0
 20
1.0
 30
0.0
  9
$USERI1
 70
     0
  9
$USERI2
 70
     0
  9
$USERI3
 70
     0
  9
$USERI4
 70
     0
  9
$USERI5
 70
     0
  9
$USERR1
 40
0.0
  9
$USERR2
 40
0.0
  9
$USERR3
 40
0.0
  9
$USERR4
 40
0.0
  9
$USERR5
 40
0.0
  9
$WORLDVIEW
 70
     1
  9
$SHADEDGE
 70
     3
  9
$SHADEDIF
 70
    70
  9
$TILEMODE
 70
     1
  9
$MAXACTVP
 70
    64
  9
$PINSBASE
 10
0.0
 20
0.0
 30
0.0
  9
$PLIMCHECK
 70
     0
  9
$PEXTMIN
 10
1.000000000000000E+20
 20
1.000000000000000E+20
 30
1.000000000000000E+20
  9
$PEXTMAX
 10
-1.000000000000000E+20
 20
-1.000000000000000E+20
 30
-1.000000000000000E+20
  9
$PLIMMIN
 10
-3.17498779296875
 20
-3.174999952316283
  9
$PLIMMAX
 10
293.8145141601562
 20
206.819491624832
  9
$UNITMODE
 70
     0
  9
$VISRETAIN
 70
     1
  9
$PLINEGEN
 70
     0
  9
$PSLTSCALE
 70
     0
  9
$TREEDEPTH
 70
  3020
  9
$PICKSTYLE
 70
     3
  9
$CMLSTYLE
  2
STANDARD
  9
$CMLJUST
 70
     0
  9
$CMLSCALE
 40
1.0
  9
$SAVEIMAGES
 70
     1
  0
ENDSEC
  0
SECTION
  2
CLASSES
  0
CLASS
  1
ACDBDICTIONARYWDFLT
  2
AcDbDictionaryWithDefault
  3
AutoCAD 2000
 90
    32768
280
     0
281
     0
  0
CLASS
  1
ACDBPLACEHOLDER
  2
AcDbPlaceHolder
  3
AutoCAD 2000
 90
    32768
280
     0
281
     0
  0
CLASS
  1
LAYOUT
  2
AcDbLayout
  3
AutoCAD 2000
 90
    32768
280
     0
281
     0
  0
CLASS
  1
LONG_TRANSACTION
  2
AcDbLongTransaction
  3
AutoCAD 2000
 90
    32768
280
     0
281
     0
  0
CLASS
  1
LWPOLYLINE
  2
AcDbPolyline
  3
AutoCAD 2000
 90
    32768
280
     0
281
     1
  0
CLASS
  1
HATCH
  2
AcDbHatch
  3
AutoCAD 2000
 90
    32768
280
     0
281
     1
  0
CLASS
  1
XRECORD
  2
AcDbXrecord
  3
AutoCAD 2000
 90
    32768
280
     0
281
     0
  0
CLASS
  1
LONG_TRANSACTION
  2
AcDbLongTransaction
  3
AutoCAD 2000
 90
    32768
280
     0
281
     0
  0
CLASS
  1
LWPOLYLINE
  2
AcDbPolyline
  3
AutoCAD 2000
 90
    32768
280
     0
281
     1
  0
CLASS
  1
HATCH
  2
AcDbHatch
  3
AutoCAD 2000
 90
    32768
280
     0
281
     1
  0
CLASS
  1
XRECORD
  2
AcDbXrecord
  3
AutoCAD 2000
 90
    32768
280
     0
281
     0
  0
ENDSEC
  0
SECTION
  2
TABLES
  0
TABLE
  2
VPORT
  5
10EF
330
0
100
AcDbSymbolTable
 70
     2
  0
VPORT
  5
14A5
330
10EF
100
AcDbSymbolTableRecord
100
AcDbViewportTableRecord
  2
*ACTIVE
 70
     0
 10
0.0
 20
0.0
 11
1.0
 21
1.0
 12
64.99934039235736
 22
60.12634302678792
 13
0.0
 23
0.0
 14
1.5
 24
1.5
 15
1.5
 25
1.5
 16
0.0
 26
0.0
 36
1.0
 17
0.0
 27
0.0
 37
0.0
 40
72.21314542788633
 41
1.510025062656641
 42
50.0
 43
0.0
 44
0.0
 50
0.0
 51
0.0
 71
     0
 72
 20000
 73
     1
 74
     3
 75
     0
 76
     0
 77
     0
 78
     0
  0
ENDTAB
  0
TABLE
  2
LTYPE
  5
10EC
330
0
100
AcDbSymbolTable
 70
    12
  0
LTYPE
  5
10FA
330
10EC
100
AcDbSymbolTableRecord
100
AcDbLinetypeTableRecord
  2
BYBLOCK
 70
     0
  3

 72
    65
 73
     0
 40
0.0
  0
LTYPE
  5
10FB
330
10EC
100
AcDbSymbolTableRecord
100
AcDbLinetypeTableRecord
  2
BYLAYER
 70
     0
  3

 72
    65
 73
     0
 40
0.0
  0
LTYPE
  5
10FC
330
10EC
100
AcDbSymbolTableRecord
100
AcDbLinetypeTableRecord
  2
CONTINUOUS
 70
     0
  3
Solid line
 72
    65
 73
     0
 40
0.0
  0
LTYPE
  5
110B
330
10EC
100
AcDbSymbolTableRecord
100
AcDbLinetypeTableRecord
  2
CENTER2
 70
     0
  3
Center (.5x) ___ _ ___ _ ___ _ ___ _ ___ _ ___
 72
    65
 73
     4
 40
28.57499999999999
 49
19.05
 74
     0
 49
-3.174999999999998
 74
     0
 49
3.174999999999998
 74
     0
 49
-3.174999999999998
 74
     0
  0
LTYPE
  5
110C
330
10EC
100
AcDbSymbolTableRecord
100
AcDbLinetypeTableRecord
  2
HIDDEN2
 70
     0
  3
Hidden (.5x) _ _ _ _ _ _ _ _ _ _ _ _ _ _ _ _ _
 72
    65
 73
     2
 40
4.762499999999998
 49
3.174999999999998
 74
     0
 49
-1.587499999999999
 74
     0
  0
LTYPE
  5
110D
330
10EC
100
AcDbSymbolTableRecord
100
AcDbLinetypeTableRecord
  2
DASHED
 70
     0
  3
__ __ __ __ __ __ __ __ __ __ __ __ __ __ __
 72
    65
 73
     2
 40
0.75
 49
0.5
 74
     0
 49
-0.25
 74
     0
  0
LTYPE
  5
110E
330
10EC
100
AcDbSymbolTableRecord
100
AcDbLinetypeTableRecord
  2
HIDDEN
 70
     0
  3
_ _ _ _ _ _ _ _ _ _ _ _ _ _ _ _ _ _ _ _ _ _ _
 72
    65
 73
     2
 40
0.375
 49
0.25
 74
     0
 49
-0.125
 74
     0
  0
LTYPE
  5
110F
330
10EC
100
AcDbSymbolTableRecord
100
AcDbLinetypeTableRecord
  2
CENTER
 70
     0
  3
____ _ ____ _ ____ _ ____ _ ____ _ ____ _ ____
 72
    65
 73
     4
 40
2.0
 49
1.25
 74
     0
 49
-0.25
 74
     0
 49
0.25
 74
     0
 49
-0.25
 74
     0
  0
LTYPE
  5
1110
330
10EC
100
AcDbSymbolTableRecord
100
AcDbLinetypeTableRecord
  2
PHANTOM
 70
     0
  3
_____ _ _ _____ _ _ _____ _ _ _____ _ _ ____
 72
    65
 73
     6
 40
2.5
 49
1.25
 74
     0
 49
-0.25
 74
     0
 49
0.25
 74
     0
 49
-0.25
 74
     0
 49
0.25
 74
     0
 49
-0.25
 74
     0
  0
LTYPE
  5
1111
330
10EC
100
AcDbSymbolTableRecord
100
AcDbLinetypeTableRecord
  2
DOT
 70
     0
  3
...............................................
 72
    65
 73
     2
 40
0.25
 49
0.0
 74
     0
 49
-0.25
 74
     0
  0
LTYPE
  5
1112
330
10EC
100
AcDbSymbolTableRecord
100
AcDbLinetypeTableRecord
  2
DASHDOT
 70
     0
  3
__ . __ . __ . __ . __ . __ . __ . __ . __ . __
 72
    65
 73
     4
 40
1.0
 49
0.5
 74
     0
 49
-0.25
 74
     0
 49
0.0
 74
     0
 49
-0.25
 74
     0
  0
LTYPE
  5
1113
330
10EC
100
AcDbSymbolTableRecord
100
AcDbLinetypeTableRecord
  2
BORDER
 70
     0
  3
__ __ . __ __ . __ __ . __ __ . __ __ . __ __
 72
    65
 73
     6
 40
1.75
 49
0.5
 74
     0
 49
-0.25
 74
     0
 49
0.5
 74
     0
 49
-0.25
 74
     0
 49
0.0
 74
     0
 49
-0.25
 74
     0
  0
LTYPE
  5
1114
330
10EC
100
AcDbSymbolTableRecord
100
AcDbLinetypeTableRecord
  2
DIVIDE
 70
     0
  3
__ . . __ . . __ . . __ . . __ . . __ . . __
 72
    65
 73
     6
 40
1.25
 49
0.5
 74
     0
 49
-0.25
 74
     0
 49
0.0
 74
     0
 49
-0.25
 74
     0
 49
0.0
 74
     0
 49
-0.25
 74
     0
  0
LTYPE
  5
1115
330
10EC
100
AcDbSymbolTableRecord
100
AcDbLinetypeTableRecord
  2
PHANTOM2
 70
     0
  3
Phantom (.5x) ___ _ _ ___ _ _ ___ _ _ ___ _ _
 72
    65
 73
     6
 40
31.75
 49
15.875
 74
     0
 49
-3.174999999999998
 74
     0
 49
3.174999999999998
 74
     0
 49
-3.174999999999998
 74
     0
 49
3.174999999999998
 74
     0
 49
-3.174999999999998
 74
     0
  0
ENDTAB
  0
TABLE
  2
LAYER
  5
10E9
330
0
100
AcDbSymbolTable
 70
     9
  0
LAYER
  5
10F7
330
10E9
100
AcDbSymbolTableRecord
100
AcDbLayerTableRecord
  2
0
 70
     0
 62
     7
  6
CONTINUOUS
  0
LAYER
  5
1116
330
10E9
100
AcDbSymbolTableRecord
100
AcDbLayerTableRecord
  2
CENTER
 70
     0
 62
     4
  6
CENTER2
  0
LAYER
  5
1117
330
10E9
100
AcDbSymbolTableRecord
100
AcDbLayerTableRecord
  2
DIMENSION
 70
     0
 62
     3
  6
CONTINUOUS
  0
LAYER
  5
1118
330
10E9
100
AcDbSymbolTableRecord
100
AcDbLayerTableRecord
  2
HIDDEN
 70
     0
 62
     4
  6
HIDDEN2
  0
LAYER
  5
1119
330
10E9
100
AcDbSymbolTableRecord
100
AcDbLayerTableRecord
  2
LINE
 70
     0
 62
     2
  6
CONTINUOUS
  0
LAYER
  5
111A
330
10E9
100
AcDbSymbolTableRecord
100
AcDbLayerTableRecord
  2
TEXT
 70
     0
 62
     3
  6
CONTINUOUS
  0
LAYER
  5
111B
330
10E9
100
AcDbSymbolTableRecord
100
AcDbLayerTableRecord
  2
DEFPOINTS
 70
     0
 62
    -7
  6
CONTINUOUS
  0
LAYER
  5
111C
330
10E9
100
AcDbSymbolTableRecord
100
AcDbLayerTableRecord
  2
UNDER_LINE
 70
     0
 62
     6
  6
CONTINUOUS
  0
LAYER
  5
111D
330
10E9
100
AcDbSymbolTableRecord
100
AcDbLayerTableRecord
  2
HATCHING
 70
     0
 62
     7
  6
CONTINUOUS
  0
ENDTAB
  0
TABLE
  2
STYLE
  5
10EA
330
0
100
AcDbSymbolTable
 70
     6
  0
STYLE
  5
10F8
330
10EA
100
AcDbSymbolTableRecord
100
AcDbTextStyleTableRecord
  2
STANDARD
 70
     0
 40
0.0
 41
1.0
 50
0.0
 71
     0
 42
2.5
  3
txt
  4

  0
STYLE
  5
1109
330
10EA
100
AcDbSymbolTableRecord
100
AcDbTextStyleTableRecord
  2
GOTHIC
 70
     0
 40
0.0
 41
1.0
 50
0.0
 71
     0
 42
1.5
  3
txt.shx
  4
bigfont.shx
  0
STYLE
  5
111E
330
10EA
100
AcDbSymbolTableRecord
100
AcDbTextStyleTableRecord
  2

 70
     1
 40
0.0
 41
1.0
 50
0.0
 71
     0
 42
2.5
  3
ltypeshp.shx
  4

  0
STYLE
  5
111F
330
10EA
100
AcDbSymbolTableRecord
100
AcDbTextStyleTableRecord
  2
KANJI
 70
     0
 40
0.0
 41
1.0
 50
0.0
 71
     0
 42
2.5
  3
romans.shx
  4
extfont.shx
  0
STYLE
  5
1120
330
10EA
100
AcDbSymbolTableRecord
100
AcDbTextStyleTableRecord
  2
KANJI1
 70
     0
 40
0.0
 41
1.0
 50
0.0
 71
     0
 42
0.2
  3
txt.shx
  4
BIGFONT
  0
STYLE
  5
1121
330
10EA
100
AcDbSymbolTableRecord
100
AcDbTextStyleTableRecord
  2
KANJI2
 70
     4
 40
0.0
 41
1.0
 50
0.0
 71
     0
 42
0.2
  3
txt.shx
  4
BIGFONT
  0
ENDTAB
  0
TABLE
  2
VIEW
  5
10ED
330
0
100
AcDbSymbolTable
 70
     0
  0
ENDTAB
  0
TABLE
  2
UCS
  5
10EE
330
0
100
AcDbSymbolTable
 70
     0
  0
ENDTAB
  0
TABLE
  2
APPID
  5
10F0
330
0
100
AcDbSymbolTable
 70
     4
  0
APPID
  5
10F9
330
10F0
100
AcDbSymbolTableRecord
100
AcDbRegAppTableRecord
  2
ACAD
 70
     0
  0
APPID
  5
1122
330
10F0
100
AcDbSymbolTableRecord
100
AcDbRegAppTableRecord
  2
ACAD_DSTYLE_DIMTEXT_FILL
 70
     0
  0
APPID
  5
1123
330
10F0
100
AcDbSymbolTableRecord
100
AcDbRegAppTableRecord
  2
ACAD_PSEXT
 70
     0
  0
APPID
  5
1124
330
10F0
100
AcDbSymbolTableRecord
100
AcDbRegAppTableRecord
  2
CONTENTBLOCKICON
 70
     0
  0
ENDTAB
  0
TABLE
  2
DIMSTYLE
  5
10F1
330
0
100
AcDbSymbolTable
 70
     9
  0
DIMSTYLE
105
1125
102
{ACAD_REACTORS
330
1435
330
1443
330
1446
330
1448
330
1449
330
144E
330
144F
330
1472
330
1473
330
147C
330
147D
102
}
330
10F1
100
AcDbSymbolTableRecord
100
AcDbDimStyleTableRecord
  2
ISO-25
 70
     0
  3

  4

  5

  6

  7

 40
1.0
 41
2.5
 42
0.625
 43
3.75
 44
1.25
 45
0.0
 46
0.0
 47
0.0
 48
0.0
140
2.5
141
2.5
142
0.0
143
0.03937007874016
144
1.0
145
0.0
146
1.0
147
0.625
 71
     0
 72
     0
 73
     0
 74
     0
 75
     0
 76
     0
 77
     1
 78
     8
170
     0
171
     3
172
     1
173
     0
174
     0
175
     0
176
     0
177
     0
178
     0
270
     2
271
     4
272
     4
273
     2
274
     3
340
1109
275
     0
280
     0
281
     0
282
     0
283
     1
284
     8
285
     8
286
     8
287
     3
288
     0
  0
DIMSTYLE
105
1126
102
{ACAD_REACTORS
330
127D
330
12B3
330
12B4
330
12B5
330
12B6
330
12B7
330
12BF
330
12C0
330
12C7
330
12D1
330
12D2
330
12D3
330
12D4
330
12D5
330
12D6
330
12D7
330
12D8
102
}
330
10F1
100
AcDbSymbolTableRecord
100
AcDbDimStyleTableRecord
  2
VESSEL_ENGINEERING_ORIGINA
 70
     0
  3

  4

  5

  6

  7

 40
1.0
 41
1.0
 42
0.0
 43
1.5
 44
1.5
 45
0.0
 46
0.0
 47
0.0
 48
0.0
140
1.5
141
0.0
142
0.0
143
0.03937007874016
144
1.0
145
0.0
146
1.0
147
0.5
 71
     0
 72
     0
 73
     0
 74
     0
 75
     0
 76
     0
 77
     1
 78
     8
170
     0
171
     3
172
     1
173
     0
174
     0
175
     0
176
   256
177
   256
178
   256
270
     2
271
     4
272
     4
273
     2
274
     3
340
1109
275
     0
280
     0
281
     0
282
     0
283
     1
284
     8
285
     8
286
     8
287
     3
288
     0
  0
DIMSTYLE
105
1127
330
10F1
100
AcDbSymbolTableRecord
100
AcDbDimStyleTableRecord
  2
VESSEL_ENGINEERING_ORIGIN0
 70
     0
  3

  4

  5

  6

  7

 40
1.0
 41
1.0
 42
0.0
 43
1.5
 44
1.5
 45
0.0
 46
0.0
 47
0.0
 48
0.0
140
1.5
141
0.0
142
0.0
143
0.03937007874016
144
1.0
145
0.0
146
1.0
147
0.5
 71
     0
 72
     0
 73
     0
 74
     0
 75
     0
 76
     0
 77
     1
 78
     8
170
     0
171
     3
172
     1
173
     0
174
     0
175
     0
176
   256
177
   256
178
   256
270
     2
271
     4
272
     4
273
     2
274
     3
340
1109
275
     0
280
     0
281
     0
282
     0
283
     1
284
     8
285
     8
286
     8
287
     3
288
     0
  0
DIMSTYLE
105
1128
330
10F1
100
AcDbSymbolTableRecord
100
AcDbDimStyleTableRecord
  2
VESSEL_ENGINEERING_ORIGIN1
 70
     0
  3

  4

  5

  6

  7

 40
1.0
 41
1.0
 42
0.0
 43
1.5
 44
1.5
 45
0.0
 46
0.0
 47
0.0
 48
0.0
140
1.5
141
0.0
142
0.0
143
0.03937007874016
144
1.0
145
0.0
146
1.0
147
0.5
 71
     0
 72
     0
 73
     0
 74
     1
 75
     0
 76
     0
 77
     1
 78
     8
170
     0
171
     3
172
     1
173
     0
174
     0
175
     0
176
   256
177
   256
178
   256
270
     2
271
     4
272
     4
273
     2
274
     3
340
1109
275
     0
280
     0
281
     0
282
     0
283
     1
284
     8
285
     8
286
     8
287
     3
288
     0
  0
DIMSTYLE
105
1129
330
10F1
100
AcDbSymbolTableRecord
100
AcDbDimStyleTableRecord
  2
VESSEL_ENGINEERING_ORIGIN2
 70
     0
  3

  4

  5

  6

  7

 40
1.0
 41
1.0
 42
0.0
 43
1.5
 44
1.5
 45
0.0
 46
0.0
 47
0.0
 48
0.0
140
1.5
141
0.0
142
0.0
143
0.03937007874016
144
1.0
145
0.0
146
1.0
147
0.5
 71
     0
 72
     0
 73
     0
 74
     1
 75
     0
 76
     0
 77
     1
 78
     8
170
     0
171
     3
172
     1
173
     0
174
     0
175
     0
176
   256
177
   256
178
   256
270
     2
271
     4
272
     4
273
     2
274
     3
340
1109
275
     0
280
     0
281
     0
282
     0
283
     1
284
     8
285
     8
286
     8
287
     3
288
     0
  0
DIMSTYLE
105
112A
102
{ACAD_REACTORS
330
12C6
330
12E5
102
}
330
10F1
100
AcDbSymbolTableRecord
100
AcDbDimStyleTableRecord
  2
VESSEL_ENGINEERING_ORIGIN3
 70
     0
  3

  4

  5

  6

  7

 40
1.0
 41
1.0
 42
0.0
 43
1.5
 44
1.5
 45
0.0
 46
0.0
 47
0.0
 48
0.0
140
1.5
141
0.0
142
0.0
143
0.03937007874016
144
1.0
145
0.0
146
1.0
147
0.5
 71
     0
 72
     0
 73
     0
 74
     1
 75
     0
 76
     0
 77
     1
 78
     8
170
     0
171
     3
172
     1
173
     0
174
     0
175
     0
176
   256
177
   256
178
   256
270
     2
271
     4
272
     4
273
     2
274
     3
340
1109
275
     0
280
     0
281
     0
282
     0
283
     1
284
     8
285
     8
286
     8
287
     3
288
     0
  0
DIMSTYLE
105
112B
330
10F1
100
AcDbSymbolTableRecord
100
AcDbDimStyleTableRecord
  2
VESSEL_ENGINEERING_ORIGIN4
 70
     0
  3

  4

  5

  6

  7

 40
1.0
 41
1.0
 42
0.0
 43
1.5
 44
1.5
 45
0.0
 46
0.0
 47
0.0
 48
0.0
140
1.5
141
0.0
142
0.0
143
0.03937007874016
144
1.0
145
0.0
146
1.0
147
0.5
 71
     0
 72
     0
 73
     0
 74
     0
 75
     0
 76
     0
 77
     1
 78
     8
170
     0
171
     3
172
     1
173
     0
174
     0
175
     0
176
   256
177
   256
178
   256
270
     2
271
     4
272
     4
273
     2
274
     3
340
1109
275
     0
280
     0
281
     0
282
     0
283
     1
284
     8
285
     8
286
     8
287
     3
288
     0
  0
DIMSTYLE
105
112C
330
10F1
100
AcDbSymbolTableRecord
100
AcDbDimStyleTableRecord
  2
VESSEL_ENGINEERING_ORIGIN5
 70
     0
  3

  4

  5

  6

  7

 40
1.0
 41
1.0
 42
0.0
 43
1.5
 44
1.5
 45
0.0
 46
0.0
 47
0.0
 48
0.0
140
1.5
141
0.0
142
0.0
143
0.03937007874016
144
1.0
145
0.0
146
1.0
147
0.5
 71
     0
 72
     0
 73
     0
 74
     0
 75
     0
 76
     0
 77
     1
 78
     8
170
     0
171
     3
172
     1
173
     0
174
     0
175
     0
176
   256
177
   256
178
   256
270
     2
271
     4
272
     4
273
     2
274
     3
340
1109
275
     0
280
     0
281
     0
282
     0
283
     1
284
     8
285
     8
286
     8
287
     3
288
     0
  0
DIMSTYLE
105
112D
330
10F1
100
AcDbSymbolTableRecord
100
AcDbDimStyleTableRecord
  2
STANDARD
 70
     0
  3

  4

  5

  6

  7

 40
1.0
 41
0.18
 42
0.0625
 43
0.38
 44
0.18
 45
0.0
 46
0.0
 47
0.0
 48
0.0
140
0.18
141
0.09
142
0.0
143
25.4
144
1.0
145
0.0
146
1.0
147
0.09
 71
     0
 72
     0
 73
     1
 74
     1
 75
     0
 76
     0
 77
     0
 78
     0
170
     0
171
     2
172
     0
173
     0
174
     0
175
     0
176
     0
177
     0
178
     0
270
     2
271
     4
272
     4
273
     2
274
     3
340
1109
275
     0
280
     0
281
     0
282
     0
283
     1
284
     8
285
     8
286
     8
287
     3
288
     0
  0
ENDTAB
  0
TABLE
  2
BLOCK_RECORD
  5
10E8
330
0
100
AcDbSymbolTable
 70
    69
  0
BLOCK_RECORD
  5
1105
102
{ACAD_XDICTIONARY
360
1485
102
}
330
10E8
100
AcDbSymbolTableRecord
100
AcDbBlockTableRecord
  2
*MODEL_SPACE
  0
BLOCK_RECORD
  5
1101
102
{ACAD_XDICTIONARY
360
1483
102
}
330
10E8
100
AcDbSymbolTableRecord
100
AcDbBlockTableRecord
  2
*PAPER_SPACE
  0
BLOCK_RECORD
  5
1133
330
10E8
100
AcDbSymbolTableRecord
100
AcDbBlockTableRecord
  2
$MODEL_SPACE
  0
BLOCK_RECORD
  5
1136
330
10E8
100
AcDbSymbolTableRecord
100
AcDbBlockTableRecord
  2
$PAPER_SPACE
  0
BLOCK_RECORD
  5
1139
330
10E8
100
AcDbSymbolTableRecord
100
AcDbBlockTableRecord
  2
_OPEN30
  0
BLOCK_RECORD
  5
113F
330
10E8
100
AcDbSymbolTableRecord
100
AcDbBlockTableRecord
  2
FORMAT
  0
BLOCK_RECORD
  5
1179
330
10E8
100
AcDbSymbolTableRecord
100
AcDbBlockTableRecord
  2
*D4
  0
BLOCK_RECORD
  5
1180
330
10E8
100
AcDbSymbolTableRecord
100
AcDbBlockTableRecord
  2
*U5
  0
BLOCK_RECORD
  5
1186
330
10E8
100
AcDbSymbolTableRecord
100
AcDbBlockTableRecord
  2
*D6
  0
BLOCK_RECORD
  5
118D
330
10E8
100
AcDbSymbolTableRecord
100
AcDbBlockTableRecord
  2
*U7
  0
BLOCK_RECORD
  5
1193
330
10E8
100
AcDbSymbolTableRecord
100
AcDbBlockTableRecord
  2
*D8
  0
BLOCK_RECORD
  5
119C
330
10E8
100
AcDbSymbolTableRecord
100
AcDbBlockTableRecord
  2
*U9
  0
BLOCK_RECORD
  5
11A2
330
10E8
100
AcDbSymbolTableRecord
100
AcDbBlockTableRecord
  2
*D10
  0
BLOCK_RECORD
  5
11A9
330
10E8
100
AcDbSymbolTableRecord
100
AcDbBlockTableRecord
  2
*U11
  0
BLOCK_RECORD
  5
11AF
330
10E8
100
AcDbSymbolTableRecord
100
AcDbBlockTableRecord
  2
*D12
  0
BLOCK_RECORD
  5
11B3
330
10E8
100
AcDbSymbolTableRecord
100
AcDbBlockTableRecord
  2
*U13
  0
BLOCK_RECORD
  5
11BC
330
10E8
100
AcDbSymbolTableRecord
100
AcDbBlockTableRecord
  2
*D14
  0
BLOCK_RECORD
  5
11C5
330
10E8
100
AcDbSymbolTableRecord
100
AcDbBlockTableRecord
  2
*U15
  0
BLOCK_RECORD
  5
11CB
330
10E8
100
AcDbSymbolTableRecord
100
AcDbBlockTableRecord
  2
*D16
  0
BLOCK_RECORD
  5
11D2
330
10E8
100
AcDbSymbolTableRecord
100
AcDbBlockTableRecord
  2
*U17
  0
BLOCK_RECORD
  5
11D8
330
10E8
100
AcDbSymbolTableRecord
100
AcDbBlockTableRecord
  2
*D18
  0
BLOCK_RECORD
  5
11E1
330
10E8
100
AcDbSymbolTableRecord
100
AcDbBlockTableRecord
  2
*U19
  0
BLOCK_RECORD
  5
11E7
330
10E8
100
AcDbSymbolTableRecord
100
AcDbBlockTableRecord
  2
*D20
  0
BLOCK_RECORD
  5
11EB
330
10E8
100
AcDbSymbolTableRecord
100
AcDbBlockTableRecord
  2
*U21
  0
BLOCK_RECORD
  5
11F0
330
10E8
100
AcDbSymbolTableRecord
100
AcDbBlockTableRecord
  2
*D22
  0
BLOCK_RECORD
  5
11F4
330
10E8
100
AcDbSymbolTableRecord
100
AcDbBlockTableRecord
  2
*U23
  0
BLOCK_RECORD
  5
11FC
330
10E8
100
AcDbSymbolTableRecord
100
AcDbBlockTableRecord
  2
*D24
  0
BLOCK_RECORD
  5
1203
330
10E8
100
AcDbSymbolTableRecord
100
AcDbBlockTableRecord
  2
*U25
  0
BLOCK_RECORD
  5
1209
330
10E8
100
AcDbSymbolTableRecord
100
AcDbBlockTableRecord
  2
*D26
  0
BLOCK_RECORD
  5
120F
330
10E8
100
AcDbSymbolTableRecord
100
AcDbBlockTableRecord
  2
*U27
  0
BLOCK_RECORD
  5
1215
330
10E8
100
AcDbSymbolTableRecord
100
AcDbBlockTableRecord
  2
*D28
  0
BLOCK_RECORD
  5
121B
330
10E8
100
AcDbSymbolTableRecord
100
AcDbBlockTableRecord
  2
*U29
  0
BLOCK_RECORD
  5
1221
330
10E8
100
AcDbSymbolTableRecord
100
AcDbBlockTableRecord
  2
*D30
  0
BLOCK_RECORD
  5
1227
330
10E8
100
AcDbSymbolTableRecord
100
AcDbBlockTableRecord
  2
*U31
  0
BLOCK_RECORD
  5
122D
330
10E8
100
AcDbSymbolTableRecord
100
AcDbBlockTableRecord
  2
*D32
  0
BLOCK_RECORD
  5
1234
330
10E8
100
AcDbSymbolTableRecord
100
AcDbBlockTableRecord
  2
*U33
  0
BLOCK_RECORD
  5
123A
330
10E8
100
AcDbSymbolTableRecord
100
AcDbBlockTableRecord
  2
*D34
  0
BLOCK_RECORD
  5
123E
330
10E8
100
AcDbSymbolTableRecord
100
AcDbBlockTableRecord
  2
*U35
  0
BLOCK_RECORD
  5
1246
330
10E8
100
AcDbSymbolTableRecord
100
AcDbBlockTableRecord
  2
*D36
  0
BLOCK_RECORD
  5
124C
330
10E8
100
AcDbSymbolTableRecord
100
AcDbBlockTableRecord
  2
*U37
  0
BLOCK_RECORD
  5
1252
330
10E8
100
AcDbSymbolTableRecord
100
AcDbBlockTableRecord
  2
*D38
  0
BLOCK_RECORD
  5
1257
330
10E8
100
AcDbSymbolTableRecord
100
AcDbBlockTableRecord
  2
*U39
  0
BLOCK_RECORD
  5
125D
330
10E8
100
AcDbSymbolTableRecord
100
AcDbBlockTableRecord
  2
*D40
  0
BLOCK_RECORD
  5
1263
330
10E8
100
AcDbSymbolTableRecord
100
AcDbBlockTableRecord
  2
*U41
  0
BLOCK_RECORD
  5
1268
330
10E8
100
AcDbSymbolTableRecord
100
AcDbBlockTableRecord
  2
A$C3D9D1D5D
  0
BLOCK_RECORD
  5
12BD
330
10E8
100
AcDbSymbolTableRecord
100
AcDbBlockTableRecord
  2
*U43
  0
BLOCK_RECORD
  5
12C1
330
10E8
100
AcDbSymbolTableRecord
100
AcDbBlockTableRecord
  2
*U44
  0
BLOCK_RECORD
  5
12E7
330
10E8
100
AcDbSymbolTableRecord
100
AcDbBlockTableRecord
  2
*D45
  0
BLOCK_RECORD
  5
12F0
330
10E8
100
AcDbSymbolTableRecord
100
AcDbBlockTableRecord
  2
*U46
  0
BLOCK_RECORD
  5
12F6
330
10E8
100
AcDbSymbolTableRecord
100
AcDbBlockTableRecord
  2
*D47
  0
BLOCK_RECORD
  5
12FD
330
10E8
100
AcDbSymbolTableRecord
100
AcDbBlockTableRecord
  2
*U48
  0
BLOCK_RECORD
  5
1303
330
10E8
100
AcDbSymbolTableRecord
100
AcDbBlockTableRecord
  2
*D49
  0
BLOCK_RECORD
  5
130A
330
10E8
100
AcDbSymbolTableRecord
100
AcDbBlockTableRecord
  2
*U50
  0
BLOCK_RECORD
  5
1310
330
10E8
100
AcDbSymbolTableRecord
100
AcDbBlockTableRecord
  2
*D51
  0
BLOCK_RECORD
  5
1316
330
10E8
100
AcDbSymbolTableRecord
100
AcDbBlockTableRecord
  2
*U52
  0
BLOCK_RECORD
  5
131C
330
10E8
100
AcDbSymbolTableRecord
100
AcDbBlockTableRecord
  2
*D53
  0
BLOCK_RECORD
  5
1321
330
10E8
100
AcDbSymbolTableRecord
100
AcDbBlockTableRecord
  2
*U54
  0
BLOCK_RECORD
  5
1327
330
10E8
100
AcDbSymbolTableRecord
100
AcDbBlockTableRecord
  2
*D55
  0
BLOCK_RECORD
  5
132E
330
10E8
100
AcDbSymbolTableRecord
100
AcDbBlockTableRecord
  2
*U56
  0
BLOCK_RECORD
  5
1338
330
10E8
100
AcDbSymbolTableRecord
100
AcDbBlockTableRecord
  2
*D57
  0
BLOCK_RECORD
  5
1341
330
10E8
100
AcDbSymbolTableRecord
100
AcDbBlockTableRecord
  2
*U58
  0
BLOCK_RECORD
  5
1349
330
10E8
100
AcDbSymbolTableRecord
100
AcDbBlockTableRecord
  2
*D59
  0
BLOCK_RECORD
  5
1350
330
10E8
100
AcDbSymbolTableRecord
100
AcDbBlockTableRecord
  2
*U60
  0
BLOCK_RECORD
  5
1356
330
10E8
100
AcDbSymbolTableRecord
100
AcDbBlockTableRecord
  2
*D61
  0
BLOCK_RECORD
  5
135D
330
10E8
100
AcDbSymbolTableRecord
100
AcDbBlockTableRecord
  2
*U62
  0
BLOCK_RECORD
  5
1363
330
10E8
100
AcDbSymbolTableRecord
100
AcDbBlockTableRecord
  2
*D63
  0
BLOCK_RECORD
  5
136A
330
10E8
100
AcDbSymbolTableRecord
100
AcDbBlockTableRecord
  2
*U64
  0
BLOCK_RECORD
  5
1374
330
10E8
100
AcDbSymbolTableRecord
100
AcDbBlockTableRecord
  2
*D65
  0
BLOCK_RECORD
  5
137B
330
10E8
100
AcDbSymbolTableRecord
100
AcDbBlockTableRecord
  2
*U66
  0
BLOCK_RECORD
  5
13BF
330
10E8
100
AcDbSymbolTableRecord
100
AcDbBlockTableRecord
  2
*U67
  0
BLOCK_RECORD
  5
1487
330
10E8
100
AcDbSymbolTableRecord
100
AcDbBlockTableRecord
  2
*D68
  0
ENDTAB
  0
ENDSEC
  0
SECTION
  2
BLOCKS
  0
BLOCK
  5
1106
330
1105
100
AcDbEntity
  8
0
100
AcDbBlockBegin
  2
*MODEL_SPACE
 70
     0
 10
0.0
 20
0.0
 30
0.0
  3
*MODEL_SPACE
  1

  0
ENDBLK
  5
1107
330
1105
100
AcDbEntity
  8
0
100
AcDbBlockEnd
  0
BLOCK
  5
1102
330
1101
100
AcDbEntity
 67
     1
  8
0
100
AcDbBlockBegin
  2
*PAPER_SPACE
 70
     0
 10
0.0
 20
0.0
 30
0.0
  3
*PAPER_SPACE
  1

  0
ENDBLK
  5
1103
330
1101
100
AcDbEntity
 67
     1
  8
0
100
AcDbBlockEnd
  0
BLOCK
  5
1134
330
1133
100
AcDbEntity
  8
0
100
AcDbBlockBegin
  2
$MODEL_SPACE
 70
     0
 10
0.0
 20
0.0
 30
0.0
  3
$MODEL_SPACE
  1

  0
ENDBLK
  5
1135
330
1133
100
AcDbEntity
  8
0
100
AcDbBlockEnd
  0
BLOCK
  5
1137
330
1136
100
AcDbEntity
  8
0
100
AcDbBlockBegin
  2
$PAPER_SPACE
 70
     0
 10
0.0
 20
0.0
 30
0.0
  3
$PAPER_SPACE
  1

  0
ENDBLK
  5
1138
330
1136
100
AcDbEntity
  8
0
100
AcDbBlockEnd
  0
BLOCK
  5
113A
330
1139
100
AcDbEntity
  8
0
100
AcDbBlockBegin
  2
_OPEN30
 70
     0
 10
0.0
 20
0.0
 30
0.0
  3
_OPEN30
  1

  0
LINE
  5
113B
330
1139
100
AcDbEntity
  8
0
  6
BYBLOCK
 62
     0
100
AcDbLine
 10
-1.0
 20
0.26794919
 30
0.0
 11
0.0
 21
0.0
 31
0.0
  0
LINE
  5
113C
330
1139
100
AcDbEntity
  8
0
  6
BYBLOCK
 62
     0
100
AcDbLine
 10
0.0
 20
0.0
 30
0.0
 11
-1.0
 21
-0.26794919
 31
0.0
  0
LINE
  5
113D
330
1139
100
AcDbEntity
  8
0
  6
BYBLOCK
 62
     0
100
AcDbLine
 10
0.0
 20
0.0
 30
0.0
 11
-1.0
 21
0.0
 31
0.0
  0
ENDBLK
  5
113E
330
1139
100
AcDbEntity
  8
0
100
AcDbBlockEnd
  0
BLOCK
  5
1140
330
113F
100
AcDbEntity
  8
0
100
AcDbBlockBegin
  2
FORMAT
 70
     0
 10
0.0
 20
0.0
 30
0.0
  3
FORMAT
  1

  0
LINE
  5
1141
330
113F
100
AcDbEntity
  8
0
  6
CONTINUOUS
 62
     2
100
AcDbLine
 10
10.00001
 20
200.0000149999999
 30
0.0
 11
287.0
 21
200.0000149999999
 31
0.0
  0
LINE
  5
1142
330
113F
100
AcDbEntity
  8
0
  6
CONTINUOUS
 62
     2
100
AcDbLine
 10
287.0
 20
200.0
 30
0.0
 11
287.0
 21
10.00001
 31
0.0
  0
LINE
  5
1143
330
113F
100
AcDbEntity
  8
0
  6
CONTINUOUS
 62
     2
100
AcDbLine
 10
287.0
 20
10.00001
 30
0.0
 11
10.00001
 21
10.00001
 31
0.0
  0
LINE
  5
1144
330
113F
100
AcDbEntity
  8
0
  6
CONTINUOUS
 62
     2
100
AcDbLine
 10
10.00001
 20
10.00001
 30
0.0
 11
10.00001
 21
200.0000149999999
 31
0.0
  0
LINE
  5
1145
330
113F
100
AcDbEntity
  8
0
  6
CONTINUOUS
 62
     4
100
AcDbLine
 10
237.000015
 20
42.00000099999999
 30
0.0
 11
287.0
 21
42.00000099999999
 31
0.0
  0
LINE
  5
1146
330
113F
100
AcDbEntity
  8
0
  6
CONTINUOUS
 62
     4
100
AcDbLine
 10
10.00001
 20
34.00000999999999
 30
0.0
 11
287.0
 21
34.00000999999999
 31
0.0
  0
LINE
  5
1147
330
113F
100
AcDbEntity
  8
0
  6
CONTINUOUS
 62
     4
100
AcDbLine
 10
18.00000999999999
 20
26.00001
 30
0.0
 11
114.0000079999999
 21
26.00001
 31
0.0
  0
LINE
  5
1148
330
113F
100
AcDbEntity
  8
0
  6
CONTINUOUS
 62
     4
100
AcDbLine
 10
18.00000999999999
 20
18.00000999999999
 30
0.0
 11
114.0000079999999
 21
18.00000999999999
 31
0.0
  0
LINE
  5
1149
330
113F
100
AcDbEntity
  8
0
  6
CONTINUOUS
 62
     4
100
AcDbLine
 10
114.0000079999999
 20
22.0
 30
0.0
 11
237.000015
 21
22.0
 31
0.0
  0
LINE
  5
114A
330
113F
100
AcDbEntity
  8
0
  6
CONTINUOUS
 62
     4
100
AcDbLine
 10
237.000015
 20
18.0
 30
0.0
 11
287.0
 21
18.0
 31
0.0
  0
LINE
  5
114B
330
113F
100
AcDbEntity
  8
0
  6
CONTINUOUS
 62
     4
100
AcDbLine
 10
257.000015
 20
26.0
 30
0.0
 11
287.0
 21
26.0
 31
0.0
  0
LINE
  5
114C
330
113F
100
AcDbEntity
  8
0
  6
CONTINUOUS
 62
     4
100
AcDbLine
 10
18.00000999999999
 20
34.00000999999999
 30
0.0
 11
18.00000999999999
 21
10.00001
 31
0.0
  0
LINE
  5
114D
330
113F
100
AcDbEntity
  8
0
  6
CONTINUOUS
 62
     4
100
AcDbLine
 10
82.00000799999996
 20
34.0
 30
0.0
 11
82.00000799999996
 21
10.0
 31
0.0
  0
LINE
  5
114E
330
113F
100
AcDbEntity
  8
0
  6
CONTINUOUS
 62
     4
100
AcDbLine
 10
94.00000799999999
 20
34.0
 30
0.0
 11
94.00000799999999
 21
10.0
 31
0.0
  0
LINE
  5
114F
330
113F
100
AcDbEntity
  8
0
  6
CONTINUOUS
 62
     4
100
AcDbLine
 10
114.0000079999999
 20
34.0
 30
0.0
 11
114.0000079999999
 21
10.0
 31
0.0
  0
LINE
  5
1150
330
113F
100
AcDbEntity
  8
0
  6
CONTINUOUS
 62
     4
100
AcDbLine
 10
122.0000079999999
 20
34.0
 30
0.0
 11
122.0000079999999
 21
10.0
 31
0.0
  0
LINE
  5
1151
330
113F
100
AcDbEntity
  8
0
  6
CONTINUOUS
 62
     4
100
AcDbLine
 10
137.0000149999998
 20
34.0
 30
0.0
 11
137.0000149999998
 21
10.0
 31
0.0
  0
LINE
  5
1152
330
113F
100
AcDbEntity
  8
0
  6
CONTINUOUS
 62
     4
100
AcDbLine
 10
145.0000149999999
 20
34.0
 30
0.0
 11
145.0000149999999
 21
10.0
 31
0.0
  0
LINE
  5
1153
330
113F
100
AcDbEntity
  8
0
  6
CONTINUOUS
 62
     4
100
AcDbLine
 10
160.0000149999999
 20
34.0
 30
0.0
 11
160.0000149999999
 21
10.0
 31
0.0
  0
LINE
  5
1154
330
113F
100
AcDbEntity
  8
0
  6
CONTINUOUS
 62
     4
100
AcDbLine
 10
172.0000149999999
 20
34.0
 30
0.0
 11
172.0000149999999
 21
10.0
 31
0.0
  0
LINE
  5
1155
330
113F
100
AcDbEntity
  8
0
  6
CONTINUOUS
 62
     4
100
AcDbLine
 10
237.000015
 20
42.00000099999999
 30
0.0
 11
237.000015
 21
10.0
 31
0.0
  0
LINE
  5
1156
330
113F
100
AcDbEntity
  8
0
  6
CONTINUOUS
 62
     4
100
AcDbLine
 10
245.000015
 20
34.0
 30
0.0
 11
245.000015
 21
18.0
 31
0.0
  0
LINE
  5
1157
330
113F
100
AcDbEntity
  8
0
  6
CONTINUOUS
 62
     4
100
AcDbLine
 10
247.000015
 20
42.00000099999999
 30
0.0
 11
247.000015
 21
34.0
 31
0.0
  0
LINE
  5
1158
330
113F
100
AcDbEntity
  8
0
  6
CONTINUOUS
 62
     4
100
AcDbLine
 10
257.000015
 20
34.0
 30
0.0
 11
257.000015
 21
18.0
 31
0.0
  0
TEXT
  5
1159
330
113F
100
AcDbEntity
  8
0
 62
     4
100
AcDbText
 10
12.50001
 20
24.50001
 30
0.0
 40
3.0
  1
摘
  7
KANJI1
100
AcDbText
  0
TEXT
  5
115A
330
113F
100
AcDbEntity
  8
0
 62
     4
100
AcDbText
 10
12.50001
 20
16.50001
 30
0.0
 40
3.0
  1
要
  7
KANJI1
100
AcDbText
  0
TEXT
  5
115B
330
113F
100
AcDbEntity
  8
0
 62
     4
100
AcDbText
 10
83.50000799999998
 20
28.5
 30
0.0
 40
3.0
  1
材
  7
KANJI1
100
AcDbText
  0
TEXT
  5
115C
330
113F
100
AcDbEntity
  8
0
 62
     4
100
AcDbText
 10
89.50000799999996
 20
28.5
 30
0.0
 40
3.0
  1
質
  7
KANJI1
100
AcDbText
  0
TEXT
  5
115D
330
113F
100
AcDbEntity
  8
0
 62
     4
100
AcDbText
 10
83.50000799999998
 20
20.5
 30
0.0
 40
3.0
  1
硬
  7
KANJI1
100
AcDbText
  0
TEXT
  5
115E
330
113F
100
AcDbEntity
  8
0
 62
     4
100
AcDbText
 10
89.50000799999996
 20
20.5
 30
0.0
 40
3.0
  1
度
  7
KANJI1
100
AcDbText
  0
TEXT
  5
115F
330
113F
100
AcDbEntity
  8
0
 62
     4
100
AcDbText
 10
83.50000799999998
 20
12.5
 30
0.0
 40
3.0
  1
個
  7
KANJI1
100
AcDbText
  0
TEXT
  5
1160
330
113F
100
AcDbEntity
  8
0
 62
     4
100
AcDbText
 10
89.50000799999996
 20
12.5
 30
0.0
 40
3.0
  1
数
  7
KANJI1
100
AcDbText
  0
TEXT
  5
1161
330
113F
100
AcDbEntity
  8
0
 62
     4
100
AcDbText
 10
116.5000079999999
 20
28.5
 30
0.0
 40
3.0
  1
設
  7
KANJI1
100
AcDbText
  0
TEXT
  5
1162
330
113F
100
AcDbEntity
  8
0
 62
     4
100
AcDbText
 10
116.5000079999999
 20
24.5
 30
0.0
 40
3.0
  1
計
  7
KANJI1
100
AcDbText
  0
TEXT
  5
1163
330
113F
100
AcDbEntity
  8
0
 62
     4
100
AcDbText
 10
116.5000079999999
 20
16.5
 30
0.0
 40
3.0
  1
検
  7
KANJI1
100
AcDbText
  0
TEXT
  5
1164
330
113F
100
AcDbEntity
  8
0
 62
     4
100
AcDbText
 10
116.5000079999999
 20
12.5
 30
0.0
 40
3.0
  1
図
  7
KANJI1
100
AcDbText
  0
TEXT
  5
1165
330
113F
100
AcDbEntity
  8
0
 62
     4
100
AcDbText
 10
139.5000149999999
 20
28.5
 30
0.0
 40
3.0
  1
製
  7
KANJI1
100
AcDbText
  0
TEXT
  5
1166
330
113F
100
AcDbEntity
  8
0
 62
     4
100
AcDbText
 10
139.5000149999999
 20
24.5
 30
0.0
 40
3.0
  1
図
  7
KANJI1
100
AcDbText
  0
TEXT
  5
1167
330
113F
100
AcDbEntity
  8
0
 62
     4
100
AcDbText
 10
139.5000149999999
 20
16.5
 30
0.0
 40
3.0
  1
承
  7
KANJI1
100
AcDbText
  0
TEXT
  5
1168
330
113F
100
AcDbEntity
  8
0
 62
     4
100
AcDbText
 10
139.5000149999999
 20
12.5
 30
0.0
 40
3.0
  1
認
  7
KANJI1
100
AcDbText
  0
TEXT
  5
1169
330
113F
100
AcDbEntity
  8
0
 62
     4
100
AcDbText
 10
164.011765
 20
28.5
 30
0.0
 40
3.0
  1
機
  7
KANJI1
100
AcDbText
  0
TEXT
  5
116A
330
113F
100
AcDbEntity
  8
0
 62
     4
100
AcDbText
 10
164.011765
 20
24.5
 30
0.0
 40
3.0
  1
種
  7
KANJI1
100
AcDbText
  0
TEXT
  5
116B
330
113F
100
AcDbEntity
  8
0
 62
     4
100
AcDbText
 10
164.011765
 20
16.5
 30
0.0
 40
3.0
  1
品
  7
KANJI1
100
AcDbText
  0
TEXT
  5
116C
330
113F
100
AcDbEntity
  8
0
 62
     4
100
AcDbText
 10
164.011765
 20
12.5
 30
0.0
 40
3.0
  1
名
  7
KANJI1
100
AcDbText
  0
TEXT
  5
116D
330
113F
100
AcDbEntity
  8
0
 62
     4
100
AcDbText
 10
238.0
 20
12.5
 30
0.0
 40
3.0
  1
ベツセル技研工業株式会社
 41
1.149999999999999
  7
KANJI1
100
AcDbText
  0
TEXT
  5
116E
330
113F
100
AcDbEntity
  8
0
 62
     4
100
AcDbText
 10
238.5000149999999
 20
36.50000099999999
 30
0.0
 40
3.0
  1
図
  7
KANJI1
100
AcDbText
  0
TEXT
  5
116F
330
113F
100
AcDbEntity
  8
0
 62
     4
100
AcDbText
 10
242.5000149999999
 20
36.50000099999999
 30
0.0
 40
3.0
  1
番
  7
KANJI1
100
AcDbText
  0
TEXT
  5
1170
330
113F
100
AcDbEntity
  8
0
 62
     4
100
AcDbText
 10
239.011765
 20
28.5
 30
0.0
 40
3.0
  1
尺
  7
KANJI1
100
AcDbText
  0
TEXT
  5
1171
330
113F
100
AcDbEntity
  8
0
 62
     4
100
AcDbText
 10
239.011765
 20
20.5
 30
0.0
 40
3.0
  1
度
  7
KANJI1
100
AcDbText
  0
TEXT
  5
1172
330
113F
100
AcDbEntity
  8
0
 62
     4
100
AcDbText
 10
249.0
 20
23.5
 30
0.0
 40
5.0
  1
／
  7
KANJI1
100
AcDbText
  0
TEXT
  5
1173
330
113F
100
AcDbEntity
  8
0
 62
     4
100
AcDbText
 10
263.5
 20
27.5
 30
0.0
 40
5.0
  1
３角法
  7
KANJI1
100
AcDbText
  0
TEXT
  5
1174
330
113F
100
AcDbEntity
  8
0
 62
     4
100
AcDbText
 10
251.0
 20
19.99999
 30
0.0
 40
4.0
  1
１
  7
KANJI1
100
AcDbText
  0
TEXT
  5
1175
330
113F
100
AcDbEntity
  8
0
  6
CONTINUOUS
 62
     4
100
AcDbText
 10
247.0
 20
28.0
 30
0.0
 40
4.0
  1
５
  7
KANJI
100
AcDbText
  0
TEXT
  5
1176
330
113F
100
AcDbEntity
  8
0
  6
CONTINUOUS
 62
     4
100
AcDbText
 10
248.0
 20
36.0
 30
0.0
 40
4.0
  1
０６４１３－０２２
 41
0.9
  7
KANJI
100
AcDbText
  0
TEXT
  5
1177
330
113F
100
AcDbEntity
  8
0
  6
CONTINUOUS
 62
     4
100
AcDbText
 10
258.0
 20
20.5
 30
0.0
 40
3.0
  1
”００／０７／０１
 41
0.9
  7
KANJI
100
AcDbText
  0
ENDBLK
  5
1178
330
113F
100
AcDbEntity
  8
0
100
AcDbBlockEnd
  0
BLOCK
  5
117A
330
1179
100
AcDbEntity
  8
0
100
AcDbBlockBegin
  2
*D4
 70
     1
 10
0.0
 20
0.0
 30
0.0
  3
*D4
  1

  0
LINE
  5
117B
330
1179
100
AcDbEntity
  8
DIMENSION
 62
     3
100
AcDbLine
 10
97.20577136594005
 20
118.2876433184959
 30
0.0
 11
87.73830926906766
 21
101.8895179479806
 31
0.0
  0
LINE
  5
117C
330
1179
100
AcDbEntity
  8
DIMENSION
 62
     3
100
AcDbLine
 10
112.7942286340599
 20
109.287643318496
 30
0.0
 11
103.3267665371874
 21
92.88951794798055
 31
0.0
  0
LINE
  5
117D
330
1179
100
AcDbEntity
  8
DIMENSION
 62
     3
100
AcDbLine
 10
89.35433467285204
 20
102.6885560536572
 30
0.0
 11
103.2107411334029
 21
94.68855605365723
 31
0.0
  0
INSERT
  5
117E
330
1179
100
AcDbEntity
  8
DIMENSION
 62
     3
100
AcDbBlockReference
  2
_OPEN30
 10
88.48830926906765
 20
103.1885560536572
 30
0.0
 50
149.9999999999998
  0
INSERT
  5
117F
330
1179
100
AcDbEntity
  8
DIMENSION
 62
     3
100
AcDbBlockReference
  2
_OPEN30
 10
104.0767665371874
 20
94.1885560536572
 30
0.0
 50
329.9999999999997
  0
INSERT
  5
1181
330
1179
100
AcDbEntity
  8
0
100
AcDbBlockReference
  2
*U5
 10
0.0
 20
0.0
 30
0.0
  0
POINT
  5
1182
330
1179
100
AcDbEntity
  8
DEFPOINTS
 62
     0
100
AcDbPoint
 10
97.20577136594005
 20
118.2876433184959
 30
0.0
  0
POINT
  5
1183
330
1179
100
AcDbEntity
  8
DEFPOINTS
 62
     0
100
AcDbPoint
 10
112.7942286340599
 20
109.287643318496
 30
0.0
  0
POINT
  5
1184
330
1179
100
AcDbEntity
  8
DEFPOINTS
 62
     0
100
AcDbPoint
 10
104.0767665371874
 20
94.1885560536572
 30
0.0
  0
ENDBLK
  5
1185
330
1179
100
AcDbEntity
  8
0
100
AcDbBlockEnd
  0
BLOCK
  5
1380
330
1180
100
AcDbEntity
  8
0
100
AcDbBlockBegin
  2
*U5
 70
     1
 10
0.0
 20
0.0
 30
0.0
  3
*U5
  1

  0
TEXT
  5
1381
330
1180
100
AcDbEntity
  8
DIMENSION
 62
     3
100
AcDbText
 10
94.83769019696557
 20
100.3814378894664
 30
0.0
 40
1.5
  1
φ18
 50
329.9999999999997
  7
GOTHIC
100
AcDbText
  0
ENDBLK
  5
1382
330
1180
100
AcDbEntity
  8
0
100
AcDbBlockEnd
  0
BLOCK
  5
1187
330
1186
100
AcDbEntity
  8
0
100
AcDbBlockBegin
  2
*D6
 70
     1
 10
0.0
 20
0.0
 30
0.0
  3
*D6
  1

  0
LINE
  5
1188
330
1186
100
AcDbEntity
  8
DIMENSION
 62
     3
100
AcDbLine
 10
81.0
 20
114.787643318496
 30
0.0
 11
81.0
 21
133.4999999999999
 31
0.0
  0
LINE
  5
1189
330
1186
100
AcDbEntity
  8
DIMENSION
 62
     3
100
AcDbLine
 10
140.0
 20
114.787643318496
 30
0.0
 11
140.0
 21
133.4999999999999
 31
0.0
  0
LINE
  5
118A
330
1186
100
AcDbEntity
  8
DIMENSION
 62
     3
100
AcDbLine
 10
82.0
 20
132.0
 30
0.0
 11
139.0
 21
132.0
 31
0.0
  0
INSERT
  5
118B
330
1186
100
AcDbEntity
  8
DIMENSION
 62
     3
100
AcDbBlockReference
  2
_OPEN30
 10
81.0
 20
132.0
 30
0.0
 50
180.0
  0
INSERT
  5
118C
330
1186
100
AcDbEntity
  8
DIMENSION
 62
     3
100
AcDbBlockReference
  2
_OPEN30
 10
140.0
 20
132.0
 30
0.0
  0
INSERT
  5
118E
330
1186
100
AcDbEntity
  8
0
100
AcDbBlockReference
  2
*U7
 10
0.0
 20
0.0
 30
0.0
  0
POINT
  5
118F
330
1186
100
AcDbEntity
  8
DEFPOINTS
 62
     0
100
AcDbPoint
 10
81.0
 20
114.787643318496
 30
0.0
  0
POINT
  5
1190
330
1186
100
AcDbEntity
  8
DEFPOINTS
 62
     0
100
AcDbPoint
 10
140.0
 20
114.787643318496
 30
0.0
  0
POINT
  5
1191
330
1186
100
AcDbEntity
  8
DEFPOINTS
 62
     0
100
AcDbPoint
 10
140.0
 20
132.0
 30
0.0
  0
ENDBLK
  5
1192
330
1186
100
AcDbEntity
  8
0
100
AcDbBlockEnd
  0
BLOCK
  5
1383
330
118D
100
AcDbEntity
  8
0
100
AcDbBlockBegin
  2
*U7
 70
     1
 10
0.0
 20
0.0
 30
0.0
  3
*U7
  1

  0
TEXT
  5
1384
330
118D
100
AcDbEntity
  8
DIMENSION
 62
     3
100
AcDbText
 10
109.5406091370557
 20
132.4999999999999
 30
0.0
 40
1.5
  1
59
  7
GOTHIC
100
AcDbText
  0
ENDBLK
  5
1385
330
118D
100
AcDbEntity
  8
0
100
AcDbBlockEnd
  0
BLOCK
  5
1194
330
1193
100
AcDbEntity
  8
0
100
AcDbBlockBegin
  2
*D8
 70
     1
 10
0.0
 20
0.0
 30
0.0
  3
*D8
  1

  0
LINE
  5
1195
330
1193
100
AcDbEntity
  8
DIMENSION
 62
     3
100
AcDbLine
 10
140.0
 20
114.787643318496
 30
0.0
 11
145.5
 21
114.787643318496
 31
0.0
  0
LINE
  5
1196
330
1193
100
AcDbEntity
  8
DIMENSION
 62
     3
100
AcDbLine
 10
140.0
 20
112.787643318496
 30
0.0
 11
145.5
 21
112.787643318496
 31
0.0
  0
LINE
  5
1197
330
1193
100
AcDbEntity
  8
DIMENSION
 62
     3
100
AcDbLine
 10
144.0
 20
115.787643318496
 30
0.0
 11
144.0
 21
116.787643318496
 31
0.0
  0
LINE
  5
1198
330
1193
100
AcDbEntity
  8
DIMENSION
 62
     3
100
AcDbLine
 10
144.0
 20
111.7876433184959
 30
0.0
 11
144.0
 21
110.7876433184959
 31
0.0
  0
LINE
  5
1199
330
1193
100
AcDbEntity
  8
DIMENSION
 62
     3
100
AcDbLine
 10
144.0
 20
114.787643318496
 30
0.0
 11
144.0
 21
112.787643318496
 31
0.0
  0
INSERT
  5
119A
330
1193
100
AcDbEntity
  8
DIMENSION
 62
     3
100
AcDbBlockReference
  2
_OPEN30
 10
144.0
 20
114.787643318496
 30
0.0
 50
270.0
  0
INSERT
  5
119B
330
1193
100
AcDbEntity
  8
DIMENSION
 62
     3
100
AcDbBlockReference
  2
_OPEN30
 10
144.0
 20
112.787643318496
 30
0.0
 50
90.0
  0
INSERT
  5
119D
330
1193
100
AcDbEntity
  8
0
100
AcDbBlockReference
  2
*U9
 10
0.0
 20
0.0
 30
0.0
  0
POINT
  5
119E
330
1193
100
AcDbEntity
  8
DEFPOINTS
 62
     0
100
AcDbPoint
 10
140.0
 20
114.787643318496
 30
0.0
  0
POINT
  5
119F
330
1193
100
AcDbEntity
  8
DEFPOINTS
 62
     0
100
AcDbPoint
 10
140.0
 20
112.787643318496
 30
0.0
  0
POINT
  5
11A0
330
1193
100
AcDbEntity
  8
DEFPOINTS
 62
     0
100
AcDbPoint
 10
144.0
 20
112.787643318496
 30
0.0
  0
ENDBLK
  5
11A1
330
1193
100
AcDbEntity
  8
0
100
AcDbBlockEnd
  0
BLOCK
  5
1386
330
119C
100
AcDbEntity
  8
0
100
AcDbBlockBegin
  2
*U9
 70
     1
 10
0.0
 20
0.0
 30
0.0
  3
*U9
  1

  0
TEXT
  5
1387
330
119C
100
AcDbEntity
  8
DIMENSION
 62
     3
100
AcDbText
 10
143.5
 20
113.307947887024
 30
0.0
 40
1.5
  1
2
 50
90.0
  7
GOTHIC
100
AcDbText
  0
ENDBLK
  5
1388
330
119C
100
AcDbEntity
  8
0
100
AcDbBlockEnd
  0
BLOCK
  5
11A3
330
11A2
100
AcDbEntity
  8
0
100
AcDbBlockBegin
  2
*D10
 70
     1
 10
0.0
 20
0.0
 30
0.0
  3
*D10
  1

  0
LINE
  5
11A4
330
11A2
100
AcDbEntity
  8
DIMENSION
 62
     3
100
AcDbLine
 10
136.4999999999999
 20
117.2876433184959
 30
0.0
 11
150.0
 21
117.2876433184959
 31
0.0
  0
LINE
  5
11A5
330
11A2
100
AcDbEntity
  8
DIMENSION
 62
     3
100
AcDbLine
 10
136.4999999999999
 20
110.2876433184959
 30
0.0
 11
150.0
 21
110.2876433184959
 31
0.0
  0
LINE
  5
11A6
330
11A2
100
AcDbEntity
  8
DIMENSION
 62
     3
100
AcDbLine
 10
148.5
 20
116.2876433184959
 30
0.0
 11
148.5
 21
111.2876433184959
 31
0.0
  0
INSERT
  5
11A7
330
11A2
100
AcDbEntity
  8
DIMENSION
 62
     3
100
AcDbBlockReference
  2
_OPEN30
 10
148.5
 20
117.2876433184959
 30
0.0
 50
90.0
  0
INSERT
  5
11A8
330
11A2
100
AcDbEntity
  8
DIMENSION
 62
     3
100
AcDbBlockReference
  2
_OPEN30
 10
148.5
 20
110.2876433184959
 30
0.0
 50
270.0
  0
INSERT
  5
11AA
330
11A2
100
AcDbEntity
  8
0
100
AcDbBlockReference
  2
*U11
 10
0.0
 20
0.0
 30
0.0
  0
POINT
  5
11AB
330
11A2
100
AcDbEntity
  8
DEFPOINTS
 62
     0
100
AcDbPoint
 10
136.4999999999999
 20
117.2876433184959
 30
0.0
  0
POINT
  5
11AC
330
11A2
100
AcDbEntity
  8
DEFPOINTS
 62
     0
100
AcDbPoint
 10
136.4999999999999
 20
110.2876433184959
 30
0.0
  0
POINT
  5
11AD
330
11A2
100
AcDbEntity
  8
DEFPOINTS
 62
     0
100
AcDbPoint
 10
148.5
 20
110.2876433184959
 30
0.0
  0
ENDBLK
  5
11AE
330
11A2
100
AcDbEntity
  8
0
100
AcDbBlockEnd
  0
BLOCK
  5
1389
330
11A9
100
AcDbEntity
  8
0
100
AcDbBlockBegin
  2
*U11
 70
     1
 10
0.0
 20
0.0
 30
0.0
  3
*U11
  1

  0
TEXT
  5
138A
330
11A9
100
AcDbEntity
  8
DIMENSION
 62
     3
100
AcDbText
 10
147.9999999999997
 20
113.304140780425
 30
0.0
 40
1.5
  1
7
 50
90.0
  7
GOTHIC
100
AcDbText
  0
ENDBLK
  5
138B
330
11A9
100
AcDbEntity
  8
0
100
AcDbBlockEnd
  0
BLOCK
  5
11B0
330
11AF
100
AcDbEntity
  8
0
100
AcDbBlockBegin
  2
*D12
 70
     1
 10
0.0
 20
0.0
 30
0.0
  3
*D12
  1

  0
LINE
  5
11B1
330
11AF
100
AcDbEntity
  8
DIMENSION
 62
     3
100
AcDbLine
 10
124.5
 20
115.537643318496
 30
0.0
 11
124.5
 21
116.5376433184959
 31
0.0
  0
LINE
  5
11B2
330
11AF
100
AcDbEntity
  8
DIMENSION
 62
     3
100
AcDbLine
 10
124.5
 20
112.0376433184959
 30
0.0
 11
124.5
 21
111.0376433184959
 31
0.0
  0
INSERT
  5
11B4
330
11AF
100
AcDbEntity
  8
0
100
AcDbBlockReference
  2
*U13
 10
0.0
 20
0.0
 30
0.0
  0
LINE
  5
11B5
330
11AF
100
AcDbEntity
  8
DIMENSION
 62
     3
100
AcDbLine
 10
124.5
 20
114.537643318496
 30
0.0
 11
124.5
 21
113.0376433184959
 31
0.0
  0
INSERT
  5
11B6
330
11AF
100
AcDbEntity
  8
DIMENSION
 62
     3
100
AcDbBlockReference
  2
_OPEN30
 10
124.5
 20
114.537643318496
 30
0.0
 50
270.0
  0
INSERT
  5
11B7
330
11AF
100
AcDbEntity
  8
DIMENSION
 62
     3
100
AcDbBlockReference
  2
_OPEN30
 10
124.5
 20
113.0376433184959
 30
0.0
 50
90.0
  0
POINT
  5
11B8
330
11AF
100
AcDbEntity
  8
DEFPOINTS
 62
     0
100
AcDbPoint
 10
120.0
 20
114.537643318496
 30
0.0
  0
POINT
  5
11B9
330
11AF
100
AcDbEntity
  8
DEFPOINTS
 62
     0
100
AcDbPoint
 10
120.0
 20
113.0376433184959
 30
0.0
  0
POINT
  5
11BA
330
11AF
100
AcDbEntity
  8
DEFPOINTS
 62
     0
100
AcDbPoint
 10
124.5
 20
113.0376433184959
 30
0.0
  0
ENDBLK
  5
11BB
330
11AF
100
AcDbEntity
  8
0
100
AcDbBlockEnd
  0
BLOCK
  5
138C
330
11B3
100
AcDbEntity
  8
0
100
AcDbBlockBegin
  2
*U13
 70
     1
 10
0.0
 20
0.0
 30
0.0
  3
*U13
  1

  0
TEXT
  5
138D
330
11B3
100
AcDbEntity
  8
DIMENSION
 62
     3
100
AcDbText
 10
123.9599410972113
 20
115.319645111287
 30
0.0
 40
1.5
  1
1.5
 50
90.0
  7
GOTHIC
100
AcDbText
  0
ENDBLK
  5
138E
330
11B3
100
AcDbEntity
  8
0
100
AcDbBlockEnd
  0
BLOCK
  5
11BD
330
11BC
100
AcDbEntity
  8
0
100
AcDbBlockBegin
  2
*D14
 70
     1
 10
0.0
 20
0.0
 30
0.0
  3
*D14
  1

  0
LINE
  5
11BE
330
11BC
100
AcDbEntity
  8
DIMENSION
 62
     3
100
AcDbLine
 10
81.0
 20
114.787643318496
 30
0.0
 11
75.0
 21
114.787643318496
 31
0.0
  0
LINE
  5
11BF
330
11BC
100
AcDbEntity
  8
DIMENSION
 62
     3
100
AcDbLine
 10
81.0
 20
112.787643318496
 30
0.0
 11
75.0
 21
112.787643318496
 31
0.0
  0
LINE
  5
11C0
330
11BC
100
AcDbEntity
  8
DIMENSION
 62
     3
100
AcDbLine
 10
76.5
 20
115.787643318496
 30
0.0
 11
76.5
 21
116.787643318496
 31
0.0
  0
LINE
  5
11C1
330
11BC
100
AcDbEntity
  8
DIMENSION
 62
     3
100
AcDbLine
 10
76.5
 20
111.7876433184959
 30
0.0
 11
76.5
 21
110.7876433184959
 31
0.0
  0
LINE
  5
11C2
330
11BC
100
AcDbEntity
  8
DIMENSION
 62
     3
100
AcDbLine
 10
76.5
 20
114.787643318496
 30
0.0
 11
76.5
 21
112.787643318496
 31
0.0
  0
INSERT
  5
11C3
330
11BC
100
AcDbEntity
  8
DIMENSION
 62
     3
100
AcDbBlockReference
  2
_OPEN30
 10
76.5
 20
114.787643318496
 30
0.0
 50
270.0
  0
INSERT
  5
11C4
330
11BC
100
AcDbEntity
  8
DIMENSION
 62
     3
100
AcDbBlockReference
  2
_OPEN30
 10
76.5
 20
112.787643318496
 30
0.0
 50
90.0
  0
INSERT
  5
11C6
330
11BC
100
AcDbEntity
  8
0
100
AcDbBlockReference
  2
*U15
 10
0.0
 20
0.0
 30
0.0
  0
POINT
  5
11C7
330
11BC
100
AcDbEntity
  8
DEFPOINTS
 62
     0
100
AcDbPoint
 10
81.0
 20
114.787643318496
 30
0.0
  0
POINT
  5
11C8
330
11BC
100
AcDbEntity
  8
DEFPOINTS
 62
     0
100
AcDbPoint
 10
81.0
 20
112.787643318496
 30
0.0
  0
POINT
  5
11C9
330
11BC
100
AcDbEntity
  8
DEFPOINTS
 62
     0
100
AcDbPoint
 10
76.5
 20
112.787643318496
 30
0.0
  0
ENDBLK
  5
11CA
330
11BC
100
AcDbEntity
  8
0
100
AcDbBlockEnd
  0
BLOCK
  5
138F
330
11C5
100
AcDbEntity
  8
0
100
AcDbBlockBegin
  2
*U15
 70
     1
 10
0.0
 20
0.0
 30
0.0
  3
*U15
  1

  0
TEXT
  5
1390
330
11C5
100
AcDbEntity
  8
DIMENSION
 62
     3
100
AcDbText
 10
75.99999999999997
 20
113.307947887024
 30
0.0
 40
1.5
  1
2
 50
90.0
  7
GOTHIC
100
AcDbText
  0
ENDBLK
  5
1391
330
11C5
100
AcDbEntity
  8
0
100
AcDbBlockEnd
  0
BLOCK
  5
11CC
330
11CB
100
AcDbEntity
  8
0
100
AcDbBlockBegin
  2
*D16
 70
     1
 10
0.0
 20
0.0
 30
0.0
  3
*D16
  1

  0
LINE
  5
11CD
330
11CB
100
AcDbEntity
  8
DIMENSION
 62
     3
100
AcDbLine
 10
105.0
 20
106.4999999999999
 30
0.0
 11
105.0
 21
100.5
 31
0.0
  0
LINE
  5
11CE
330
11CB
100
AcDbEntity
  8
DIMENSION
 62
     3
100
AcDbLine
 10
118.0
 20
108.7876433184959
 30
0.0
 11
118.0
 21
100.5
 31
0.0
  0
LINE
  5
11CF
330
11CB
100
AcDbEntity
  8
DIMENSION
 62
     3
100
AcDbLine
 10
106.0
 20
102.0
 30
0.0
 11
117.0
 21
102.0
 31
0.0
  0
INSERT
  5
11D0
330
11CB
100
AcDbEntity
  8
DIMENSION
 62
     3
100
AcDbBlockReference
  2
_OPEN30
 10
105.0
 20
102.0
 30
0.0
 50
180.0
  0
INSERT
  5
11D1
330
11CB
100
AcDbEntity
  8
DIMENSION
 62
     3
100
AcDbBlockReference
  2
_OPEN30
 10
118.0
 20
102.0
 30
0.0
  0
INSERT
  5
11D3
330
11CB
100
AcDbEntity
  8
0
100
AcDbBlockReference
  2
*U17
 10
0.0
 20
0.0
 30
0.0
  0
POINT
  5
11D4
330
11CB
100
AcDbEntity
  8
DEFPOINTS
 62
     0
100
AcDbPoint
 10
105.0
 20
106.4999999999999
 30
0.0
  0
POINT
  5
11D5
330
11CB
100
AcDbEntity
  8
DEFPOINTS
 62
     0
100
AcDbPoint
 10
118.0
 20
108.7876433184959
 30
0.0
  0
POINT
  5
11D6
330
11CB
100
AcDbEntity
  8
DEFPOINTS
 62
     0
100
AcDbPoint
 10
118.0
 20
102.0
 30
0.0
  0
ENDBLK
  5
11D7
330
11CB
100
AcDbEntity
  8
0
100
AcDbBlockEnd
  0
BLOCK
  5
1392
330
11D2
100
AcDbEntity
  8
0
100
AcDbBlockBegin
  2
*U17
 70
     1
 10
0.0
 20
0.0
 30
0.0
  3
*U17
  1

  0
TEXT
  5
1393
330
11D2
100
AcDbEntity
  8
DIMENSION
 62
     3
100
AcDbText
 10
110.4873096446699
 20
102.4999999999999
 30
0.0
 40
1.5
  1
13
  7
GOTHIC
100
AcDbText
  0
ENDBLK
  5
1394
330
11D2
100
AcDbEntity
  8
0
100
AcDbBlockEnd
  0
BLOCK
  5
11D9
330
11D8
100
AcDbEntity
  8
0
100
AcDbBlockBegin
  2
*D18
 70
     1
 10
0.0
 20
0.0
 30
0.0
  3
*D18
  1

  0
LINE
  5
11DA
330
11D8
100
AcDbEntity
  8
DIMENSION
 62
     3
100
AcDbLine
 10
137.0
 20
113.787643318496
 30
0.0
 11
137.0
 21
100.5
 31
0.0
  0
LINE
  5
11DB
330
11D8
100
AcDbEntity
  8
DIMENSION
 62
     3
100
AcDbLine
 10
140.0
 20
112.787643318496
 30
0.0
 11
140.0
 21
100.5
 31
0.0
  0
LINE
  5
11DC
330
11D8
100
AcDbEntity
  8
DIMENSION
 62
     3
100
AcDbLine
 10
136.0
 20
102.0
 30
0.0
 11
135.0
 21
102.0
 31
0.0
  0
LINE
  5
11DD
330
11D8
100
AcDbEntity
  8
DIMENSION
 62
     3
100
AcDbLine
 10
141.0
 20
102.0
 30
0.0
 11
142.0
 21
102.0
 31
0.0
  0
LINE
  5
11DE
330
11D8
100
AcDbEntity
  8
DIMENSION
 62
     3
100
AcDbLine
 10
137.0
 20
102.0
 30
0.0
 11
140.0
 21
102.0
 31
0.0
  0
INSERT
  5
11DF
330
11D8
100
AcDbEntity
  8
DIMENSION
 62
     3
100
AcDbBlockReference
  2
_OPEN30
 10
137.0
 20
102.0
 30
0.0
  0
INSERT
  5
11E0
330
11D8
100
AcDbEntity
  8
DIMENSION
 62
     3
100
AcDbBlockReference
  2
_OPEN30
 10
140.0
 20
102.0
 30
0.0
 50
180.0
  0
INSERT
  5
11E2
330
11D8
100
AcDbEntity
  8
0
100
AcDbBlockReference
  2
*U19
 10
0.0
 20
0.0
 30
0.0
  0
POINT
  5
11E3
330
11D8
100
AcDbEntity
  8
DEFPOINTS
 62
     0
100
AcDbPoint
 10
137.0
 20
113.787643318496
 30
0.0
  0
POINT
  5
11E4
330
11D8
100
AcDbEntity
  8
DEFPOINTS
 62
     0
100
AcDbPoint
 10
140.0
 20
112.787643318496
 30
0.0
  0
POINT
  5
11E5
330
11D8
100
AcDbEntity
  8
DEFPOINTS
 62
     0
100
AcDbPoint
 10
140.0
 20
102.0
 30
0.0
  0
ENDBLK
  5
11E6
330
11D8
100
AcDbEntity
  8
0
100
AcDbBlockEnd
  0
BLOCK
  5
1395
330
11E1
100
AcDbEntity
  8
0
100
AcDbBlockBegin
  2
*U19
 70
     1
 10
0.0
 20
0.0
 30
0.0
  3
*U19
  1

  0
TEXT
  5
1396
330
11E1
100
AcDbEntity
  8
DIMENSION
 62
     3
100
AcDbText
 10
138.0279187817258
 20
102.4999999999999
 30
0.0
 40
1.5
  1
3
  7
GOTHIC
100
AcDbText
  0
ENDBLK
  5
1397
330
11E1
100
AcDbEntity
  8
0
100
AcDbBlockEnd
  0
BLOCK
  5
11E8
330
11E7
100
AcDbEntity
  8
0
100
AcDbBlockBegin
  2
*D20
 70
     1
 10
0.0
 20
0.0
 30
0.0
  3
*D20
  1

  0
LINE
  5
11E9
330
11E7
100
AcDbEntity
  8
DIMENSION
 62
     3
100
AcDbLine
 10
91.49999999999996
 20
118.2876433184959
 30
0.0
 11
92.60894904286164
 21
116.6232419184914
 31
0.0
  0
INSERT
  5
11EA
330
11E7
100
AcDbEntity
  8
DIMENSION
 62
     3
100
AcDbBlockReference
  2
_OPEN30
 10
93.16342356429244
 20
115.7910412184895
 30
0.0
 50
303.6745287482016
  0
INSERT
  5
11EC
330
11E7
100
AcDbEntity
  8
0
100
AcDbBlockReference
  2
*U21
 10
0.0
 20
0.0
 30
0.0
  0
POINT
  5
11ED
330
11E7
100
AcDbEntity
  8
DEFPOINTS
 62
     0
100
AcDbPoint
 10
93.16342356429244
 20
115.7910412184895
 30
0.0
  0
POINT
  5
11EE
330
11E7
100
AcDbEntity
  8
DEFPOINTS
 62
     0
100
AcDbPoint
 10
91.49999999999996
 20
118.2876433184959
 30
0.0
  0
ENDBLK
  5
11EF
330
11E7
100
AcDbEntity
  8
0
100
AcDbBlockEnd
  0
BLOCK
  5
1398
330
11EB
100
AcDbEntity
  8
0
100
AcDbBlockBegin
  2
*U21
 70
     1
 10
0.0
 20
0.0
 30
0.0
  3
*U21
  1

  0
TEXT
  5
1399
330
11EB
100
AcDbEntity
  8
DIMENSION
 62
     3
100
AcDbText
 10
91.99656674235262
 20
118.4441100379992
 30
0.0
 40
1.5
  1
R3
 50
303.6745287482016
  7
GOTHIC
100
AcDbText
  0
ENDBLK
  5
139A
330
11EB
100
AcDbEntity
  8
0
100
AcDbBlockEnd
  0
BLOCK
  5
11F1
330
11F0
100
AcDbEntity
  8
0
100
AcDbBlockBegin
  2
*D22
 70
     1
 10
0.0
 20
0.0
 30
0.0
  3
*D22
  1

  0
LINE
  5
11F2
330
11F0
100
AcDbEntity
  8
DIMENSION
 62
     3
100
AcDbLine
 10
90.00000000000005
 20
114.2876433184959
 30
0.0
 11
90.00000000000005
 21
113.2876433184959
 31
0.0
  0
LINE
  5
11F3
330
11F0
100
AcDbEntity
  8
DIMENSION
 62
     3
100
AcDbLine
 10
90.00000000000005
 20
118.1500591605533
 30
0.0
 11
90.00000000000005
 21
115.2876433184959
 31
0.0
  0
INSERT
  5
11F5
330
11F0
100
AcDbEntity
  8
0
100
AcDbBlockReference
  2
*U23
 10
0.0
 20
0.0
 30
0.0
  0
INSERT
  5
11F6
330
11F0
100
AcDbEntity
  8
DIMENSION
 62
     3
100
AcDbBlockReference
  2
_OPEN30
 10
90.00000000000005
 20
115.2876433184959
 30
0.0
 50
90.0
  0
INSERT
  5
11F7
330
11F0
100
AcDbEntity
  8
DIMENSION
 62
     3
100
AcDbBlockReference
  2
_OPEN30
 10
90.00000000000005
 20
112.2876433184959
 30
0.0
 50
270.0
  0
POINT
  5
11F8
330
11F0
100
AcDbEntity
  8
DEFPOINTS
 62
     0
100
AcDbPoint
 10
81.6134712589865
 20
115.2876433184959
 30
0.0
  0
POINT
  5
11F9
330
11F0
100
AcDbEntity
  8
DEFPOINTS
 62
     0
100
AcDbPoint
 10
81.61347125898648
 20
112.2876433184959
 30
0.0
  0
POINT
  5
11FA
330
11F0
100
AcDbEntity
  8
DEFPOINTS
 62
     0
100
AcDbPoint
 10
90.00000000000005
 20
112.2876433184959
 30
0.0
  0
ENDBLK
  5
11FB
330
11F0
100
AcDbEntity
  8
0
100
AcDbBlockEnd
  0
BLOCK
  5
139B
330
11F4
100
AcDbEntity
  8
0
100
AcDbBlockBegin
  2
*U23
 70
     1
 10
0.0
 20
0.0
 30
0.0
  3
*U23
  1

  0
TEXT
  5
139C
330
11F4
100
AcDbEntity
  8
DIMENSION
 62
     3
100
AcDbText
 10
89.50000000000001
 20
116.7896530691826
 30
0.0
 40
1.5
  1
3
 50
90.0
  7
GOTHIC
100
AcDbText
  0
ENDBLK
  5
139D
330
11F4
100
AcDbEntity
  8
0
100
AcDbBlockEnd
  0
BLOCK
  5
11FD
330
11FC
100
AcDbEntity
  8
0
100
AcDbBlockBegin
  2
*D24
 70
     1
 10
0.0
 20
0.0
 30
0.0
  3
*D24
  1

  0
LINE
  5
11FE
330
11FC
100
AcDbEntity
  8
DIMENSION
 62
     3
100
AcDbLine
 10
97.63878406783227
 20
118.0376433184959
 30
0.0
 11
90.01006573271018
 21
104.8243155654324
 31
0.0
  0
LINE
  5
11FF
330
11FC
100
AcDbEntity
  8
DIMENSION
 62
     3
100
AcDbLine
 10
112.3612159321677
 20
109.537643318496
 30
0.0
 11
104.7324975970455
 21
96.32431556543238
 31
0.0
  0
LINE
  5
1200
330
11FC
100
AcDbEntity
  8
DIMENSION
 62
     3
100
AcDbLine
 10
91.62609113649459
 20
105.623353671109
 30
0.0
 11
104.616472193261
 21
98.12335367110904
 31
0.0
  0
INSERT
  5
1201
330
11FC
100
AcDbEntity
  8
DIMENSION
 62
     3
100
AcDbBlockReference
  2
_OPEN30
 10
90.76006573271014
 20
106.123353671109
 30
0.0
 50
149.9999999999998
  0
INSERT
  5
1202
330
11FC
100
AcDbEntity
  8
DIMENSION
 62
     3
100
AcDbBlockReference
  2
_OPEN30
 10
105.4824975970454
 20
97.62335367110905
 30
0.0
 50
329.9999999999997
  0
INSERT
  5
1204
330
11FC
100
AcDbEntity
  8
0
100
AcDbBlockReference
  2
*U25
 10
0.0
 20
0.0
 30
0.0
  0
POINT
  5
1205
330
11FC
100
AcDbEntity
  8
DEFPOINTS
 62
     0
100
AcDbPoint
 10
97.63878406783227
 20
118.0376433184959
 30
0.0
  0
POINT
  5
1206
330
11FC
100
AcDbEntity
  8
DEFPOINTS
 62
     0
100
AcDbPoint
 10
112.3612159321677
 20
109.537643318496
 30
0.0
  0
POINT
  5
1207
330
11FC
100
AcDbEntity
  8
DEFPOINTS
 62
     0
100
AcDbPoint
 10
105.4824975970454
 20
97.62335367110905
 30
0.0
  0
ENDBLK
  5
1208
330
11FC
100
AcDbEntity
  8
0
100
AcDbBlockEnd
  0
BLOCK
  5
139E
330
1203
100
AcDbEntity
  8
0
100
AcDbBlockBegin
  2
*U25
 70
     1
 10
0.0
 20
0.0
 30
0.0
  3
*U25
  1

  0
TEXT
  5
139F
330
1203
100
AcDbEntity
  8
DIMENSION
 62
     3
100
AcDbText
 10
96.68962216283441
 20
103.5586212937201
 30
0.0
 40
1.5
  1
φ17
 50
329.9999999999997
  7
GOTHIC
100
AcDbText
  0
ENDBLK
  5
13A0
330
1203
100
AcDbEntity
  8
0
100
AcDbBlockEnd
  0
BLOCK
  5
120A
330
1209
100
AcDbEntity
  8
0
100
AcDbBlockBegin
  2
*D26
 70
     1
 10
0.0
 20
0.0
 30
0.0
  3
*D26
  1

  0
LINE
  5
120B
330
1209
100
AcDbEntity
  8
DIMENSION
 62
     3
100
AcDbLine
 10
94.50000000000001
 20
119.5376433184959
 30
0.0
 11
94.50000000000001
 21
124.5
 31
0.0
  0
LINE
  5
120C
330
1209
100
AcDbEntity
  8
DIMENSION
 62
     3
100
AcDbLine
 10
82.0
 20
123.0
 30
0.0
 11
93.49999999999999
 21
123.0
 31
0.0
  0
INSERT
  5
120D
330
1209
100
AcDbEntity
  8
DIMENSION
 62
     3
100
AcDbBlockReference
  2
_OPEN30
 10
81.0
 20
123.0
 30
0.0
 50
180.0
  0
INSERT
  5
120E
330
1209
100
AcDbEntity
  8
DIMENSION
 62
     3
100
AcDbBlockReference
  2
_OPEN30
 10
94.50000000000001
 20
123.0
 30
0.0
  0
INSERT
  5
1210
330
1209
100
AcDbEntity
  8
0
100
AcDbBlockReference
  2
*U27
 10
0.0
 20
0.0
 30
0.0
  0
POINT
  5
1211
330
1209
100
AcDbEntity
  8
DEFPOINTS
 62
     0
100
AcDbPoint
 10
81.0
 20
114.787643318496
 30
0.0
  0
POINT
  5
1212
330
1209
100
AcDbEntity
  8
DEFPOINTS
 62
     0
100
AcDbPoint
 10
94.50000000000001
 20
119.5376433184959
 30
0.0
  0
POINT
  5
1213
330
1209
100
AcDbEntity
  8
DEFPOINTS
 62
     0
100
AcDbPoint
 10
94.50000000000001
 20
123.0
 30
0.0
  0
ENDBLK
  5
1214
330
1209
100
AcDbEntity
  8
0
100
AcDbBlockEnd
  0
BLOCK
  5
13A1
330
120F
100
AcDbEntity
  8
0
100
AcDbBlockBegin
  2
*U27
 70
     1
 10
0.0
 20
0.0
 30
0.0
  3
*U27
  1

  0
TEXT
  5
13A2
330
120F
100
AcDbEntity
  8
DIMENSION
 62
     3
100
AcDbText
 10
85.76269035532995
 20
123.5
 30
0.0
 40
1.5
  1
13.5
  7
GOTHIC
100
AcDbText
  0
ENDBLK
  5
13A3
330
120F
100
AcDbEntity
  8
0
100
AcDbBlockEnd
  0
BLOCK
  5
1216
330
1215
100
AcDbEntity
  8
0
100
AcDbBlockBegin
  2
*D28
 70
     1
 10
0.0
 20
0.0
 30
0.0
  3
*D28
  1

  0
LINE
  5
1217
330
1215
100
AcDbEntity
  8
DIMENSION
 62
     3
100
AcDbLine
 10
94.50000000000001
 20
119.5376433184959
 30
0.0
 11
94.50000000000001
 21
124.5
 31
0.0
  0
LINE
  5
1218
330
1215
100
AcDbEntity
  8
DIMENSION
 62
     3
100
AcDbLine
 10
95.5
 20
123.0
 30
0.0
 11
104.0
 21
123.0
 31
0.0
  0
INSERT
  5
1219
330
1215
100
AcDbEntity
  8
DIMENSION
 62
     3
100
AcDbBlockReference
  2
_OPEN30
 10
94.50000000000001
 20
123.0
 30
0.0
 50
180.0
  0
INSERT
  5
121A
330
1215
100
AcDbEntity
  8
DIMENSION
 62
     3
100
AcDbBlockReference
  2
_OPEN30
 10
105.0
 20
123.0
 30
0.0
  0
INSERT
  5
121C
330
1215
100
AcDbEntity
  8
0
100
AcDbBlockReference
  2
*U29
 10
0.0
 20
0.0
 30
0.0
  0
POINT
  5
121D
330
1215
100
AcDbEntity
  8
DEFPOINTS
 62
     0
100
AcDbPoint
 10
94.50000000000001
 20
119.5376433184959
 30
0.0
  0
POINT
  5
121E
330
1215
100
AcDbEntity
  8
DEFPOINTS
 62
     0
100
AcDbPoint
 10
105.0
 20
121.232606342322
 30
0.0
  0
POINT
  5
121F
330
1215
100
AcDbEntity
  8
DEFPOINTS
 62
     0
100
AcDbPoint
 10
105.0
 20
123.0
 30
0.0
  0
ENDBLK
  5
1220
330
1215
100
AcDbEntity
  8
0
100
AcDbBlockEnd
  0
BLOCK
  5
13A4
330
121B
100
AcDbEntity
  8
0
100
AcDbBlockBegin
  2
*U29
 70
     1
 10
0.0
 20
0.0
 30
0.0
  3
*U29
  1

  0
TEXT
  5
13A5
330
121B
100
AcDbEntity
  8
DIMENSION
 62
     3
100
AcDbText
 10
97.76269035532996
 20
123.5
 30
0.0
 40
1.5
  1
10.5
  7
GOTHIC
100
AcDbText
  0
ENDBLK
  5
13A6
330
121B
100
AcDbEntity
  8
0
100
AcDbBlockEnd
  0
BLOCK
  5
1222
330
1221
100
AcDbEntity
  8
0
100
AcDbBlockBegin
  2
*D30
 70
     1
 10
0.0
 20
0.0
 30
0.0
  3
*D30
  1

  0
LINE
  5
1223
330
1221
100
AcDbEntity
  8
DIMENSION
 62
     3
100
AcDbLine
 10
113.0
 20
119.5376433184959
 30
0.0
 11
113.0
 21
124.5
 31
0.0
  0
LINE
  5
1224
330
1221
100
AcDbEntity
  8
DIMENSION
 62
     3
100
AcDbLine
 10
106.0
 20
123.0
 30
0.0
 11
112.0
 21
123.0
 31
0.0
  0
INSERT
  5
1225
330
1221
100
AcDbEntity
  8
DIMENSION
 62
     3
100
AcDbBlockReference
  2
_OPEN30
 10
105.0
 20
123.0
 30
0.0
 50
180.0
  0
INSERT
  5
1226
330
1221
100
AcDbEntity
  8
DIMENSION
 62
     3
100
AcDbBlockReference
  2
_OPEN30
 10
113.0
 20
123.0
 30
0.0
  0
INSERT
  5
1228
330
1221
100
AcDbEntity
  8
0
100
AcDbBlockReference
  2
*U31
 10
0.0
 20
0.0
 30
0.0
  0
POINT
  5
1229
330
1221
100
AcDbEntity
  8
DEFPOINTS
 62
     0
100
AcDbPoint
 10
105.0
 20
121.232606342322
 30
0.0
  0
POINT
  5
122A
330
1221
100
AcDbEntity
  8
DEFPOINTS
 62
     0
100
AcDbPoint
 10
113.0
 20
119.5376433184959
 30
0.0
  0
POINT
  5
122B
330
1221
100
AcDbEntity
  8
DEFPOINTS
 62
     0
100
AcDbPoint
 10
113.0
 20
123.0
 30
0.0
  0
ENDBLK
  5
122C
330
1221
100
AcDbEntity
  8
0
100
AcDbBlockEnd
  0
BLOCK
  5
13A7
330
1227
100
AcDbEntity
  8
0
100
AcDbBlockBegin
  2
*U31
 70
     1
 10
0.0
 20
0.0
 30
0.0
  3
*U31
  1

  0
TEXT
  5
13A8
330
1227
100
AcDbEntity
  8
DIMENSION
 62
     3
100
AcDbText
 10
108.5203045685279
 20
123.5
 30
0.0
 40
1.5
  1
8
  7
GOTHIC
100
AcDbText
  0
ENDBLK
  5
13A9
330
1227
100
AcDbEntity
  8
0
100
AcDbBlockEnd
  0
BLOCK
  5
122E
330
122D
100
AcDbEntity
  8
0
100
AcDbBlockBegin
  2
*D32
 70
     1
 10
0.0
 20
0.0
 30
0.0
  3
*D32
  1

  0
LINE
  5
122F
330
122D
100
AcDbEntity
  8
DIMENSION
 62
     3
100
AcDbLine
 10
113.0
 20
119.5376433184959
 30
0.0
 11
113.0
 21
124.5
 31
0.0
  0
LINE
  5
1230
330
122D
100
AcDbEntity
  8
DIMENSION
 62
     3
100
AcDbLine
 10
136.4999999999999
 20
117.2876433184959
 30
0.0
 11
136.4999999999999
 21
124.5
 31
0.0
  0
LINE
  5
1231
330
122D
100
AcDbEntity
  8
DIMENSION
 62
     3
100
AcDbLine
 10
114.0
 20
123.0
 30
0.0
 11
135.4999999999999
 21
123.0
 31
0.0
  0
INSERT
  5
1232
330
122D
100
AcDbEntity
  8
DIMENSION
 62
     3
100
AcDbBlockReference
  2
_OPEN30
 10
113.0
 20
123.0
 30
0.0
 50
180.0
  0
INSERT
  5
1233
330
122D
100
AcDbEntity
  8
DIMENSION
 62
     3
100
AcDbBlockReference
  2
_OPEN30
 10
136.4999999999999
 20
123.0
 30
0.0
  0
INSERT
  5
1235
330
122D
100
AcDbEntity
  8
0
100
AcDbBlockReference
  2
*U33
 10
0.0
 20
0.0
 30
0.0
  0
POINT
  5
1236
330
122D
100
AcDbEntity
  8
DEFPOINTS
 62
     0
100
AcDbPoint
 10
113.0
 20
119.5376433184959
 30
0.0
  0
POINT
  5
1237
330
122D
100
AcDbEntity
  8
DEFPOINTS
 62
     0
100
AcDbPoint
 10
136.4999999999999
 20
117.2876433184959
 30
0.0
  0
POINT
  5
1238
330
122D
100
AcDbEntity
  8
DEFPOINTS
 62
     0
100
AcDbPoint
 10
136.4999999999999
 20
123.0
 30
0.0
  0
ENDBLK
  5
1239
330
122D
100
AcDbEntity
  8
0
100
AcDbBlockEnd
  0
BLOCK
  5
13AA
330
1234
100
AcDbEntity
  8
0
100
AcDbBlockBegin
  2
*U33
 70
     1
 10
0.0
 20
0.0
 30
0.0
  3
*U33
  1

  0
TEXT
  5
13AB
330
1234
100
AcDbEntity
  8
DIMENSION
 62
     3
100
AcDbText
 10
122.8121827411166
 20
123.5
 30
0.0
 40
1.5
  1
23.5
  7
GOTHIC
100
AcDbText
  0
ENDBLK
  5
13AC
330
1234
100
AcDbEntity
  8
0
100
AcDbBlockEnd
  0
BLOCK
  5
123B
330
123A
100
AcDbEntity
  8
0
100
AcDbBlockBegin
  2
*D34
 70
     1
 10
0.0
 20
0.0
 30
0.0
  3
*D34
  1

  0
LINE
  5
123C
330
123A
100
AcDbEntity
  8
DIMENSION
 62
     3
100
AcDbLine
 10
136.4999999999999
 20
117.2876433184959
 30
0.0
 11
136.4999999999999
 21
124.5
 31
0.0
  0
LINE
  5
123D
330
123A
100
AcDbEntity
  8
DIMENSION
 62
     3
100
AcDbLine
 10
137.5
 20
123.0
 30
0.0
 11
139.0
 21
123.0
 31
0.0
  0
INSERT
  5
123F
330
123A
100
AcDbEntity
  8
0
100
AcDbBlockReference
  2
*U35
 10
0.0
 20
0.0
 30
0.0
  0
INSERT
  5
1240
330
123A
100
AcDbEntity
  8
DIMENSION
 62
     3
100
AcDbBlockReference
  2
_OPEN30
 10
136.4999999999999
 20
123.0
 30
0.0
 50
180.0
  0
INSERT
  5
1241
330
123A
100
AcDbEntity
  8
DIMENSION
 62
     3
100
AcDbBlockReference
  2
_OPEN30
 10
140.0
 20
123.0
 30
0.0
  0
POINT
  5
1242
330
123A
100
AcDbEntity
  8
DEFPOINTS
 62
     0
100
AcDbPoint
 10
136.4999999999999
 20
117.2876433184959
 30
0.0
  0
POINT
  5
1243
330
123A
100
AcDbEntity
  8
DEFPOINTS
 62
     0
100
AcDbPoint
 10
140.0
 20
114.787643318496
 30
0.0
  0
POINT
  5
1244
330
123A
100
AcDbEntity
  8
DEFPOINTS
 62
     0
100
AcDbPoint
 10
140.0
 20
123.0
 30
0.0
  0
ENDBLK
  5
1245
330
123A
100
AcDbEntity
  8
0
100
AcDbBlockEnd
  0
BLOCK
  5
13AD
330
123E
100
AcDbEntity
  8
0
100
AcDbBlockBegin
  2
*U35
 70
     1
 10
0.0
 20
0.0
 30
0.0
  3
*U35
  1

  0
TEXT
  5
13AE
330
123E
100
AcDbEntity
  8
DIMENSION
 62
     3
100
AcDbText
 10
136.8023226007426
 20
123.4998212334367
 30
0.0
 40
1.5
  1
3.5
  7
GOTHIC
100
AcDbText
  0
ENDBLK
  5
13AF
330
123E
100
AcDbEntity
  8
0
100
AcDbBlockEnd
  0
BLOCK
  5
1247
330
1246
100
AcDbEntity
  8
0
100
AcDbBlockBegin
  2
*D36
 70
     1
 10
0.0
 20
0.0
 30
0.0
  3
*D36
  1

  0
LINE
  5
1248
330
1246
100
AcDbEntity
  8
DIMENSION
 62
     3
100
AcDbLine
 10
105.0
 20
121.232606342322
 30
0.0
 11
105.0
 21
129.0
 31
0.0
  0
LINE
  5
1249
330
1246
100
AcDbEntity
  8
DIMENSION
 62
     3
100
AcDbLine
 10
82.0
 20
127.5
 30
0.0
 11
104.0
 21
127.5
 31
0.0
  0
INSERT
  5
124A
330
1246
100
AcDbEntity
  8
DIMENSION
 62
     3
100
AcDbBlockReference
  2
_OPEN30
 10
81.0
 20
127.5
 30
0.0
 50
180.0
  0
INSERT
  5
124B
330
1246
100
AcDbEntity
  8
DIMENSION
 62
     3
100
AcDbBlockReference
  2
_OPEN30
 10
105.0
 20
127.5
 30
0.0
  0
INSERT
  5
124D
330
1246
100
AcDbEntity
  8
0
100
AcDbBlockReference
  2
*U37
 10
0.0
 20
0.0
 30
0.0
  0
POINT
  5
124E
330
1246
100
AcDbEntity
  8
DEFPOINTS
 62
     0
100
AcDbPoint
 10
81.0
 20
114.787643318496
 30
0.0
  0
POINT
  5
124F
330
1246
100
AcDbEntity
  8
DEFPOINTS
 62
     0
100
AcDbPoint
 10
105.0
 20
121.232606342322
 30
0.0
  0
POINT
  5
1250
330
1246
100
AcDbEntity
  8
DEFPOINTS
 62
     0
100
AcDbPoint
 10
105.0
 20
127.5
 30
0.0
  0
ENDBLK
  5
1251
330
1246
100
AcDbEntity
  8
0
100
AcDbBlockEnd
  0
BLOCK
  5
13B0
330
124C
100
AcDbEntity
  8
0
100
AcDbBlockBegin
  2
*U37
 70
     1
 10
0.0
 20
0.0
 30
0.0
  3
*U37
  1

  0
TEXT
  5
13B1
330
124C
100
AcDbEntity
  8
DIMENSION
 62
     3
100
AcDbText
 10
92.01395939086292
 20
128.0
 30
0.0
 40
1.5
  1
24
  7
GOTHIC
100
AcDbText
  0
ENDBLK
  5
13B2
330
124C
100
AcDbEntity
  8
0
100
AcDbBlockEnd
  0
BLOCK
  5
1253
330
1252
100
AcDbEntity
  8
0
100
AcDbBlockBegin
  2
*D38
 70
     1
 10
0.0
 20
0.0
 30
0.0
  3
*D38
  1

  0
LINE
  5
1254
330
1252
100
AcDbEntity
  8
DIMENSION
 62
     3
100
AcDbLine
 10
106.0
 20
127.5
 30
0.0
 11
139.0
 21
127.5
 31
0.0
  0
INSERT
  5
1255
330
1252
100
AcDbEntity
  8
DIMENSION
 62
     3
100
AcDbBlockReference
  2
_OPEN30
 10
105.0
 20
127.5
 30
0.0
 50
180.0
  0
INSERT
  5
1256
330
1252
100
AcDbEntity
  8
DIMENSION
 62
     3
100
AcDbBlockReference
  2
_OPEN30
 10
140.0
 20
127.5
 30
0.0
  0
INSERT
  5
1258
330
1252
100
AcDbEntity
  8
0
100
AcDbBlockReference
  2
*U39
 10
0.0
 20
0.0
 30
0.0
  0
POINT
  5
1259
330
1252
100
AcDbEntity
  8
DEFPOINTS
 62
     0
100
AcDbPoint
 10
105.0
 20
121.232606342322
 30
0.0
  0
POINT
  5
125A
330
1252
100
AcDbEntity
  8
DEFPOINTS
 62
     0
100
AcDbPoint
 10
140.0
 20
114.787643318496
 30
0.0
  0
POINT
  5
125B
330
1252
100
AcDbEntity
  8
DEFPOINTS
 62
     0
100
AcDbPoint
 10
140.0
 20
127.5
 30
0.0
  0
ENDBLK
  5
125C
330
1252
100
AcDbEntity
  8
0
100
AcDbBlockEnd
  0
BLOCK
  5
13B3
330
1257
100
AcDbEntity
  8
0
100
AcDbBlockBegin
  2
*U39
 70
     1
 10
0.0
 20
0.0
 30
0.0
  3
*U39
  1

  0
TEXT
  5
13B4
330
1257
100
AcDbEntity
  8
DIMENSION
 62
     3
100
AcDbText
 10
121.5406091370556
 20
128.0
 30
0.0
 40
1.5
  1
35
  7
GOTHIC
100
AcDbText
  0
ENDBLK
  5
13B5
330
1257
100
AcDbEntity
  8
0
100
AcDbBlockEnd
  0
BLOCK
  5
125E
330
125D
100
AcDbEntity
  8
0
100
AcDbBlockBegin
  2
*D40
 70
     1
 10
0.0
 20
0.0
 30
0.0
  3
*D40
  1

  0
LINE
  5
125F
330
125D
100
AcDbEntity
  8
DIMENSION
 62
     3
100
AcDbLine
 10
135.411969302148
 20
113.1971893630485
 30
0.0
 11
136.3659882277401
 21
111.4393930467449
 31
0.0
  0
LINE
  5
1260
330
125D
100
AcDbEntity
  8
DIMENSION
 62
     3
100
AcDbLine
 10
136.842997690536
 20
110.5604948885929
 30
0.0
 11
140.6747859166461
 21
103.5003590275217
 31
0.0
  0
LINE
  5
1261
330
125D
100
AcDbEntity
  8
DIMENSION
 62
     3
100
AcDbLine
 10
140.6747859166461
 20
103.5003590275217
 30
0.0
 11
142.9184407389811
 21
103.5003590275217
 31
0.0
  0
INSERT
  5
1262
330
125D
100
AcDbEntity
  8
DIMENSION
 62
     3
100
AcDbBlockReference
  2
_OPEN30
 10
136.842997690536
 20
110.5604948885929
 30
0.0
 50
298.4902667802068
  0
INSERT
  5
1264
330
125D
100
AcDbEntity
  8
0
100
AcDbBlockReference
  2
*U41
 10
0.0
 20
0.0
 30
0.0
  0
POINT
  5
1265
330
125D
100
AcDbEntity
  8
DEFPOINTS
 62
     0
100
AcDbPoint
 10
136.842997690536
 20
110.5604948885929
 30
0.0
  0
POINT
  5
1266
330
125D
100
AcDbEntity
  8
DEFPOINTS
 62
     0
100
AcDbPoint
 10
135.411969302148
 20
113.1971893630485
 30
0.0
  0
ENDBLK
  5
1267
330
125D
100
AcDbEntity
  8
0
100
AcDbBlockEnd
  0
BLOCK
  5
13B6
330
1263
100
AcDbEntity
  8
0
100
AcDbBlockBegin
  2
*U41
 70
     1
 10
0.0
 20
0.0
 30
0.0
  3
*U41
  1

  0
TEXT
  5
13B7
330
1263
100
AcDbEntity
  8
DIMENSION
 62
     3
100
AcDbText
 10
141.0834153582706
 20
104.0003590275218
 30
0.0
 40
1.5
  1
R3
  7
GOTHIC
100
AcDbText
  0
ENDBLK
  5
13B8
330
1263
100
AcDbEntity
  8
0
100
AcDbBlockEnd
  0
BLOCK
  5
1269
330
1268
100
AcDbEntity
  8
0
100
AcDbBlockBegin
  2
A$C3D9D1D5D
 70
     0
 10
0.0
 20
0.0
 30
0.0
  3
A$C3D9D1D5D
  1

  0
LINE
  5
126A
330
1268
100
AcDbEntity
  8
CENTER
100
AcDbLine
 10
0.0
 20
7.366303171161005
 30
0.0
 11
0.0
 21
-7.366303171161005
 31
0.0
  0
ARC
  5
126B
330
1268
100
AcDbEntity
  8
LINE
  6
BYBLOCK
100
AcDbCircle
 10
0.0
 20
-0.0786598526649414
 30
0.0
 40
8.5
100
AcDbArc
 50
317.4315457967068
 51
0.0
  0
LINE
  5
126C
330
1268
100
AcDbEntity
  8
LINE
100
AcDbLine
 10
-11.0
 20
-0.0786598526649414
 30
0.0
 11
-11.0
 21
-0.0786598526649414
 31
0.0
  0
LINE
  5
126D
330
1268
100
AcDbEntity
  8
LINE
100
AcDbLine
 10
-10.5
 20
-0.5786598526649414
 30
0.0
 11
-9.0
 21
-0.5786598526649414
 31
0.0
  0
LINE
  5
126E
330
1268
100
AcDbEntity
  8
LINE
100
AcDbLine
 10
-8.5
 20
-0.0786598526649414
 30
0.0
 11
-8.5
 21
-0.0786598526649414
 31
0.0
  0
ARC
  5
126F
330
1268
100
AcDbEntity
  8
LINE
100
AcDbCircle
 10
-9.0
 20
-0.0786598526649414
 30
0.0
 40
0.5
100
AcDbArc
 50
270.0
 51
0.0
  0
ARC
  5
1270
330
1268
100
AcDbEntity
  8
LINE
100
AcDbCircle
 10
-10.5
 20
-0.0786598526649414
 30
0.0
 40
0.5
100
AcDbArc
 50
180.0
 51
270.0
  0
ARC
  5
1271
330
1268
100
AcDbEntity
  8
LINE
100
AcDbCircle
 10
-10.5
 20
-0.0786598526649414
 30
0.0
 40
0.5
100
AcDbArc
 50
90.0
 51
180.0
  0
ARC
  5
1272
330
1268
100
AcDbEntity
  8
LINE
100
AcDbCircle
 10
-9.0
 20
-0.0786598526649414
 30
0.0
 40
0.5
100
AcDbArc
 50
0.0
 51
90.0
  0
LINE
  5
1273
330
1268
100
AcDbEntity
  8
LINE
100
AcDbLine
 10
-8.5
 20
-0.0786598526649414
 30
0.0
 11
-8.5
 21
-0.0786598526649414
 31
0.0
  0
LINE
  5
1274
330
1268
100
AcDbEntity
  8
LINE
100
AcDbLine
 10
-10.5
 20
0.4213401473350589
 30
0.0
 11
-9.0
 21
0.4213401473350589
 31
0.0
  0
LINE
  5
1275
330
1268
100
AcDbEntity
  8
LINE
100
AcDbLine
 10
-11.0
 20
-0.0786598526649414
 30
0.0
 11
-11.0
 21
-0.0786598526649414
 31
0.0
  0
LINE
  5
1276
330
1268
100
AcDbEntity
  8
CENTER
100
AcDbLine
 10
13.0
 20
-0.0786598526649414
 30
0.0
 11
13.0
 21
4.921340147335056
 31
0.0
  0
ARC
  5
1277
330
1268
100
AcDbEntity
  8
LINE
  6
BYBLOCK
100
AcDbCircle
 10
0.0
 20
-0.0786598526649414
 30
0.0
 40
9.0
100
AcDbArc
 50
320.2909834469317
 51
354.6317953008377
  0
CIRCLE
  5
1278
330
1268
100
AcDbEntity
  8
LINE
  6
BYBLOCK
100
AcDbCircle
 10
0.0
 20
-0.0786598526649414
 30
0.0
 40
2.049999999999998
  0
ARC
  5
1279
330
1268
100
AcDbEntity
  8
LINE
  6
BYBLOCK
100
AcDbCircle
 10
0.0
 20
-0.0786598526649414
 30
0.0
 40
9.0
100
AcDbArc
 50
140.2909834469317
 51
176.816491646828
  0
ARC
  5
127A
330
1268
100
AcDbEntity
  8
LINE
  6
BYBLOCK
100
AcDbCircle
 10
0.0
 20
-0.0786598526649414
 30
0.0
 40
8.5
100
AcDbArc
 50
137.4315457967064
 51
180.0
  0
LINE
  5
127B
330
1268
100
AcDbEntity
  8
CENTER
100
AcDbLine
 10
-11.0
 20
-0.0786598526649129
 30
0.0
 11
32.0
 21
-0.078659852664984
 31
0.0
  0
LINE
  5
127C
330
1268
100
AcDbEntity
  8
LINE
100
AcDbLine
 10
-23.0
 20
-0.0786598526649272
 30
0.0
 11
-11.0
 21
-0.0786598526649414
 31
0.0
  0
DIMENSION
  5
127D
330
1268
100
AcDbEntity
  8
DIMENSION
100
AcDbDimension
  2
*D4
 10
-0.9232334628124904
 20
-19.67774711750378
 30
0.0
 11
-8.031548391288652
 21
-13.98970972982485
 31
0.0
 12
-105.0
 22
-113.866303171161
 32
0.0
 70
     1
  1
φ18
  3
VESSEL_ENGINEERING_ORIGINA
100
AcDbAlignedDimension
 13
-7.794228634059933
 23
4.421340147335087
 33
0.0
 14
7.794228634059933
 24
-4.578659852664967
 34
0.0
  0
LINE
  5
127E
330
1268
100
AcDbEntity
  8
HIDDEN
100
AcDbLine
 10
11.0
 20
0.6713401473351013
 30
0.0
 11
11.0
 21
3.421340147335057
 31
0.0
  0
LINE
  5
127F
330
1268
100
AcDbEntity
  8
HIDDEN
100
AcDbLine
 10
11.0
 20
3.421340147335057
 30
0.0
 11
13.0
 21
3.421340147335057
 31
0.0
  0
LINE
  5
1280
330
1268
100
AcDbEntity
  8
HIDDEN
100
AcDbLine
 10
13.0
 20
4.576040685714318
 30
0.0
 11
10.99999999999998
 21
3.421340147335057
 31
0.0
  0
LINE
  5
1281
330
1268
100
AcDbEntity
  8
HIDDEN
100
AcDbLine
 10
13.0
 20
4.576040685714318
 30
0.0
 11
15.0
 21
3.421340147335057
 31
0.0
  0
LINE
  5
1282
330
1268
100
AcDbEntity
  8
HIDDEN
100
AcDbLine
 10
15.0
 20
3.421340147335057
 30
0.0
 11
13.0
 21
3.421340147335057
 31
0.0
  0
LINE
  5
1283
330
1268
100
AcDbEntity
  8
HIDDEN
100
AcDbLine
 10
15.0
 20
0.6713401473351013
 30
0.0
 11
15.0
 21
3.421340147335057
 31
0.0
  0
TEXT
  5
1284
330
1268
100
AcDbEntity
  8
TEXT
100
AcDbText
 10
18.0
 20
-18.61630317116101
 30
0.0
 40
1.5
  1
柄部は各角C0.5の事
  7
GOTHIC
 11
18.0
 21
-17.86630317116101
 31
0.0
100
AcDbText
 73
     2
  0
LINE
  5
1285
330
1268
100
AcDbEntity
  8
TEXT
100
AcDbLine
 10
18.0
 20
-19.366303171161
 30
0.0
 11
36.0
 21
-19.366303171161
 31
0.0
  0
TEXT
  5
1286
330
1268
100
AcDbEntity
  8
TEXT
100
AcDbText
 10
-4.333987041441424
 20
-4.286575764921143
 30
0.0
 40
1.5
  1
Ｖ
 50
127.5000000000002
  7
GOTHIC
 72
     1
 11
-5.355135046965955
 21
-4.187799498473822
 31
0.0
100
AcDbText
 73
     2
  0
TEXT
  5
1287
330
1268
100
AcDbEntity
  8
TEXT
100
AcDbText
 10
-5.294532964030509
 20
-2.975282142987861
 30
0.0
 40
1.5
  1
Ｅ
 50
112.4999999999995
  7
GOTHIC
 72
     1
 11
-6.23618684445128
 21
-2.661773021129334
 31
0.0
100
AcDbText
 73
     2
  0
TEXT
  5
1288
330
1268
100
AcDbEntity
  8
TEXT
100
AcDbText
 10
-5.857300833688912
 20
-1.555828408946986
 30
0.0
 40
1.5
  1
Ｓ
 50
97.49999999999971
  7
GOTHIC
 72
     1
 11
-6.692252814273302
 21
-0.9597116501503537
 31
0.0
100
AcDbText
 73
     2
  0
TEXT
  5
1289
330
1268
100
AcDbEntity
  8
TEXT
100
AcDbText
 10
-6.040037502796977
 20
0.0104858976936549
 30
0.0
 40
1.5
  1
Ｓ
 50
82.5000000000003
  7
GOTHIC
 72
     1
 11
-6.692252814273302
 21
0.8023919448203571
 31
0.0
100
AcDbText
 73
     2
  0
TEXT
  5
128A
330
1268
100
AcDbEntity
  8
TEXT
100
AcDbText
 10
-5.792021426105089
 20
1.616919045393187
 30
0.0
 40
1.5
  1
Ｅ
 50
67.50000000000042
  7
GOTHIC
 72
     1
 11
-6.236186844451253
 21
2.504453315799338
 31
0.0
100
AcDbText
 73
     2
  0
TEXT
  5
128B
330
1268
100
AcDbEntity
  8
TEXT
100
AcDbText
 10
-5.186253042053578
 20
3.018561383183418
 30
0.0
 40
1.5
  1
Ｌ
 50
52.49999999999982
  7
GOTHIC
 72
     1
 11
-5.355135046965896
 21
4.030479793143824
 31
0.0
100
AcDbText
 73
     2
  0
TEXT
  5
128C
330
1268
100
AcDbEntity
  8
TEXT
100
AcDbText
 10
6.13643191659745
 20
3.810682897729094
 30
0.0
 40
1.5
  1
Ｊ
 50
127.5000000000002
  7
GOTHIC
 72
     1
 11
5.145721982523355
 21
3.869791497161853
 31
0.0
100
AcDbText
 73
     2
  0
TEXT
  5
128D
330
1268
100
AcDbEntity
  8
TEXT
100
AcDbText
 10
6.953108217857706
 20
2.04373733161486
 30
0.0
 40
1.5
  1
Ａ
 50
112.4999999999995
  7
GOTHIC
 72
     1
 11
5.992320165818681
 21
2.403440430098951
 31
0.0
100
AcDbText
 73
     2
  0
TEXT
  5
128E
330
1268
100
AcDbEntity
  8
TEXT
100
AcDbText
 10
7.325896193563335
 20
0.1797724058775361
 30
0.0
 40
1.5
  1
３
 50
97.49999999999971
  7
GOTHIC
 72
     1
 11
6.490944212978944
 21
0.7758891646741688
 31
0.0
100
AcDbText
 73
     2
  0
TEXT
  5
128F
330
1268
100
AcDbEntity
  8
TEXT
100
AcDbText
 10
7.1496858340663
 20
-1.675542674062177
 30
0.0
 40
1.5
  1
０
 50
82.5000000000003
  7
GOTHIC
 72
     1
 11
6.490944212978972
 21
-0.9332088700041651
 31
0.0
100
AcDbText
 73
     2
  0
TEXT
  5
1290
330
1268
100
AcDbEntity
  8
TEXT
100
AcDbText
 10
6.41735141254659
 20
-3.494488382460635
 30
0.0
 40
1.5
  1
Ｔ
 50
67.50000000000042
  7
GOTHIC
 72
     1
 11
5.992320165818681
 21
-2.560760135428919
 31
0.0
100
AcDbText
 73
     2
  0
TEXT
  5
1291
330
1268
100
AcDbEntity
  8
TEXT
100
AcDbText
 10
5.330712684700526
 20
-5.051390250604727
 30
0.0
 40
1.5
  1
Ｎ
 50
52.49999999999982
  7
GOTHIC
 72
     1
 11
5.161830679788208
 21
-4.039471840644322
 31
0.0
100
AcDbText
 73
     2
  0
CIRCLE
  5
1292
330
1268
100
AcDbEntity
  8
LINE
100
AcDbCircle
 10
0.0
 20
-0.0786598526649272
 30
0.0
 40
4.75
  0
LINE
  5
1293
330
1268
100
AcDbEntity
  8
LINE
100
AcDbLine
 10
-11.06023570539247
 20
5.671340147335072
 30
0.0
 11
8.0
 21
5.671340147335072
 31
0.0
  0
LINE
  5
1294
330
1268
100
AcDbEntity
  8
LINE
100
AcDbLine
 10
35.0
 20
0.9213401473350726
 30
0.0
 11
35.0
 21
-0.0786598526649272
 31
0.0
  0
ARC
  5
1295
330
1268
100
AcDbEntity
  8
LINE
100
AcDbCircle
 10
-11.06023570539247
 20
-14.32865985266493
 30
0.0
 40
20.0
100
AcDbArc
 50
90.0
 51
130.3149091747084
  0
LINE
  5
1296
330
1268
100
AcDbEntity
  8
LINE
100
AcDbLine
 10
-24.0
 20
0.9213401473350726
 30
0.0
 11
-23.0
 21
-0.0786598526649272
 31
0.0
  0
LINE
  5
1297
330
1268
100
AcDbEntity
  8
LINE
100
AcDbLine
 10
8.5
 20
-0.0786598526649129
 30
0.0
 11
8.5
 21
-0.0786598526648987
 31
0.0
  0
LINE
  5
1298
330
1268
100
AcDbEntity
  8
LINE
100
AcDbLine
 10
9.25
 20
0.6713401473351013
 30
0.0
 11
31.25
 21
0.6713401473351013
 31
0.0
  0
LINE
  5
1299
330
1268
100
AcDbEntity
  8
LINE
100
AcDbLine
 10
32.0
 20
-0.0786598526649129
 30
0.0
 11
32.0
 21
-0.0786598526649272
 31
0.0
  0
ARC
  5
129A
330
1268
100
AcDbEntity
  8
LINE
100
AcDbCircle
 10
9.25
 20
-0.0786598526648987
 30
0.0
 40
0.75
100
AcDbArc
 50
90.0
 51
180.0
  0
ARC
  5
129B
330
1268
100
AcDbEntity
  8
LINE
100
AcDbCircle
 10
31.25
 20
-0.0786598526649129
 30
0.0
 40
0.75
100
AcDbArc
 50
0.0
 51
90.0
  0
ARC
  5
129C
330
1268
100
AcDbEntity
  8
LINE
100
AcDbCircle
 10
31.25
 20
-0.0786598526649698
 30
0.0
 40
0.75
100
AcDbArc
 50
270.0
 51
0.0
  0
ARC
  5
129D
330
1268
100
AcDbEntity
  8
LINE
100
AcDbCircle
 10
9.250000000000012
 20
-0.0786598526649414
 30
0.0
 40
0.75
100
AcDbArc
 50
180.0
 51
270.0
  0
LINE
  5
129E
330
1268
100
AcDbEntity
  8
LINE
100
AcDbLine
 10
32.0
 20
-0.0786598526649698
 30
0.0
 11
32.0
 21
-0.0786598526649556
 31
0.0
  0
LINE
  5
129F
330
1268
100
AcDbEntity
  8
LINE
100
AcDbLine
 10
9.250000000000012
 20
-0.8286598526649413
 30
0.0
 11
31.25
 21
-0.8286598526649695
 31
0.0
  0
LINE
  5
12A0
330
1268
100
AcDbEntity
  8
LINE
100
AcDbLine
 10
8.500000000000012
 20
-0.0786598526649272
 30
0.0
 11
8.500000000000012
 21
-0.0786598526649414
 31
0.0
  0
LINE
  5
12A1
330
1268
100
AcDbEntity
  8
LINE
100
AcDbLine
 10
35.0
 20
-1.078659852664954
 30
0.0
 11
35.0
 21
-0.0786598526649556
 31
0.0
  0
LINE
  5
12A2
330
1268
100
AcDbEntity
  8
HIDDEN
100
AcDbLine
 10
15.0
 20
-0.8286598526649553
 30
0.0
 11
15.0
 21
-3.578659852664912
 31
0.0
  0
LINE
  5
12A3
330
1268
100
AcDbEntity
  8
HIDDEN
100
AcDbLine
 10
15.0
 20
-3.578659852664912
 30
0.0
 11
13.0
 21
-3.578659852664896
 31
0.0
  0
LINE
  5
12A4
330
1268
100
AcDbEntity
  8
HIDDEN
100
AcDbLine
 10
13.0
 20
-4.733360391044158
 30
0.0
 11
15.0
 21
-3.578659852664912
 31
0.0
  0
LINE
  5
12A5
330
1268
100
AcDbEntity
  8
HIDDEN
100
AcDbLine
 10
13.0
 20
-4.733360391044158
 30
0.0
 11
10.99999999999998
 21
-3.578659852664896
 31
0.0
  0
LINE
  5
12A6
330
1268
100
AcDbEntity
  8
HIDDEN
100
AcDbLine
 10
11.0
 20
-3.578659852664896
 30
0.0
 11
13.0
 21
-3.578659852664896
 31
0.0
  0
LINE
  5
12A7
330
1268
100
AcDbEntity
  8
HIDDEN
100
AcDbLine
 10
11.0
 20
-0.8286598526649413
 30
0.0
 11
11.0
 21
-3.578659852664896
 31
0.0
  0
LINE
  5
12A8
330
1268
100
AcDbEntity
  8
CENTER
100
AcDbLine
 10
13.0
 20
-0.0786598526648987
 30
0.0
 11
13.0
 21
-5.078659852664896
 31
0.0
  0
LINE
  5
12A9
330
1268
100
AcDbEntity
  8
LINE
100
AcDbLine
 10
-11.06023570539248
 20
-5.82865985266487
 30
0.0
 11
7.999999999999985
 21
-5.828659852664912
 31
0.0
  0
ARC
  5
12AA
330
1268
100
AcDbEntity
  8
LINE
100
AcDbCircle
 10
-11.06023570539244
 20
14.17134014733506
 30
0.0
 40
20.0
100
AcDbArc
 50
229.6850908252909
 51
270.0
  0
LINE
  5
12AB
330
1268
100
AcDbEntity
  8
LINE
100
AcDbLine
 10
-24.00000000000002
 20
-1.078659852664912
 30
0.0
 11
-23.0
 21
-0.0786598526649272
 31
0.0
  0
LINE
  5
12AC
330
1268
100
AcDbEntity
  8
CENTER
100
AcDbLine
 10
-24.43552195694337
 20
-0.0786598526649272
 30
0.0
 11
-23.0
 21
-0.0786598526649272
 31
0.0
  0
LINE
  5
12AD
330
1268
100
AcDbEntity
  8
LINE
100
AcDbLine
 10
-23.38652874101351
 20
1.421340147335087
 30
0.0
 11
-13.5
 21
1.42134014733507
 31
0.0
  0
LINE
  5
12AE
330
1268
100
AcDbEntity
  8
LINE
100
AcDbLine
 10
-10.5
 20
4.421340147335071
 30
0.0
 11
-10.49999999999998
 21
5.671340147335072
 31
0.0
  0
ARC
  5
12AF
330
1268
100
AcDbEntity
  8
LINE
100
AcDbCircle
 10
-13.5
 20
4.421340147335071
 30
0.0
 40
3.0
100
AcDbArc
 50
270.0
 51
0.0
  0
ARC
  5
12B0
330
1268
100
AcDbEntity
  8
LINE
100
AcDbCircle
 10
-13.5
 20
-4.57865985266494
 30
0.0
 40
3.0
100
AcDbArc
 50
0.0
 51
90.0
  0
LINE
  5
12B1
330
1268
100
AcDbEntity
  8
LINE
100
AcDbLine
 10
-10.5
 20
-4.578659852664953
 30
0.0
 11
-10.5
 21
-5.828659852664954
 31
0.0
  0
LINE
  5
12B2
330
1268
100
AcDbEntity
  8
LINE
100
AcDbLine
 10
-23.38652874101351
 20
-1.57865985266494
 30
0.0
 11
-13.5
 21
-1.57865985266494
 31
0.0
  0
DIMENSION
  5
12B3
330
1268
100
AcDbEntity
  8
DIMENSION
100
AcDbDimension
  2
*D6
 10
35.0
 20
18.13369682883898
 30
0.0
 11
5.5
 21
19.38369682883898
 31
0.0
 12
-105.0
 22
-113.866303171161
 32
0.0
  3
VESSEL_ENGINEERING_ORIGINA
100
AcDbAlignedDimension
 13
-24.0
 23
0.9213401473350726
 33
0.0
 14
35.0
 24
0.9213401473350726
 34
0.0
100
AcDbRotatedDimension
1001
ACAD
1000
DSTYLE
1002
{
1070
   287
1070
     3
1070
   287
1070
     3
1070
   279
1070
     0
1002
}
  0
DIMENSION
  5
12B4
330
1268
100
AcDbEntity
  8
DIMENSION
100
AcDbDimension
  2
*D8
 10
39.0
 20
-1.078659852664954
 30
0.0
 11
37.74999999999996
 21
-0.0786598526649272
 31
0.0
 12
-105.0
 22
-113.866303171161
 32
0.0
  3
VESSEL_ENGINEERING_ORIGINA
100
AcDbAlignedDimension
 13
35.0
 23
0.9213401473350726
 33
0.0
 14
35.0
 24
-1.078659852664954
 34
0.0
 50
90.0
100
AcDbRotatedDimension
  0
DIMENSION
  5
12B5
330
1268
100
AcDbEntity
  8
DIMENSION
100
AcDbDimension
  2
*D10
 10
43.5
 20
-3.578659852664841
 30
0.0
 11
42.24999999999996
 21
-0.0786598526648987
 31
0.0
 12
-105.0
 22
-113.866303171161
 32
0.0
  3
VESSEL_ENGINEERING_ORIGINA
100
AcDbAlignedDimension
 13
31.5
 23
3.421340147335016
 33
0.0
 14
31.5
 24
-3.578659852664841
 34
0.0
 50
90.0
100
AcDbRotatedDimension
  0
DIMENSION
  5
12B6
330
1268
100
AcDbEntity
  8
DIMENSION
100
AcDbDimension
  2
*D12
 10
19.50000000000001
 20
-0.8286598526649553
 30
0.0
 11
19.45994109721128
 21
2.953341940126108
 31
0.0
 12
-105.0
 22
-113.866303171161
 32
0.0
 70
   128
  3
VESSEL_ENGINEERING_ORIGINA
100
AcDbAlignedDimension
 13
15.0
 23
0.6713401473351013
 33
0.0
 14
15.0
 24
-0.8286598526649553
 34
0.0
 50
90.0
100
AcDbRotatedDimension
1001
ACAD
1000
DSTYLE
1002
{
1070
    76
1070
     1
1070
    75
1070
     1
1002
}
  0
DIMENSION
  5
12B7
330
1268
100
AcDbEntity
  8
DIMENSION
100
AcDbDimension
  2
*D14
 10
-28.5
 20
-1.078659852664912
 30
0.0
 11
-29.75000000000003
 21
-0.0786598526649129
 31
0.0
 12
-105.0
 22
-113.866303171161
 32
0.0
  3
VESSEL_ENGINEERING_ORIGINA
100
AcDbAlignedDimension
 13
-24.0
 23
0.9213401473350726
 33
0.0
 14
-24.0
 24
-1.078659852664912
 34
0.0
 50
90.0
100
AcDbRotatedDimension
  0
LINE
  5
12B8
330
1268
100
AcDbEntity
  8
DIMENSION
 62
     3
100
AcDbLine
 10
-24.0
 20
0.9213401473350726
 30
0.0
 11
-32.19377443878048
 21
9.115114586115552
 31
0.0
  0
LINE
  5
12B9
330
1268
100
AcDbEntity
  8
DIMENSION
 62
     3
100
AcDbLine
 10
-24.00000000000002
 20
-1.078659852664912
 30
0.0
 11
-32.19377443878064
 21
-9.272434291445263
 31
0.0
  0
ARC
  5
12BA
330
1268
100
AcDbEntity
  8
DIMENSION
 62
     3
100
AcDbCircle
 10
-23.0
 20
-0.0786598526649272
 30
0.0
 40
11.50196050072245
100
AcDbArc
 50
139.9829627148529
 51
220.0170372851458
  0
INSERT
  5
12BB
330
1268
100
AcDbEntity
  8
DIMENSION
 62
     3
100
AcDbBlockReference
  2
_OPEN30
 10
-31.13311426700067
 20
8.054454414335737
 30
0.0
 50
47.49148135742673
  0
INSERT
  5
12BC
330
1268
100
AcDbEntity
  8
DIMENSION
 62
     3
100
AcDbBlockReference
  2
_OPEN30
 10
-31.13311426700079
 20
-8.211774119665459
 30
0.0
 50
312.5085186425726
  0
INSERT
  5
12BE
330
1268
100
AcDbEntity
  8
0
100
AcDbBlockReference
  2
*U43
 10
0.0
 20
0.0
 30
0.0
  0
DIMENSION
  5
12BF
330
1268
100
AcDbEntity
  8
DIMENSION
100
AcDbDimension
  2
*D16
 10
13.0
 20
-11.866303171161
 30
0.0
 11
6.5
 21
-10.616303171161
 31
0.0
 12
-105.0
 22
-113.866303171161
 32
0.0
  3
VESSEL_ENGINEERING_ORIGINA
100
AcDbAlignedDimension
 13
0.0
 23
-7.366303171161005
 33
0.0
 14
13.0
 24
-5.078659852664896
 34
0.0
100
AcDbRotatedDimension
1001
ACAD
1000
DSTYLE
1002
{
1070
   287
1070
     3
1070
   287
1070
     3
1070
   279
1070
     0
1002
}
  0
DIMENSION
  5
12C0
330
1268
100
AcDbEntity
  8
DIMENSION
100
AcDbDimension
  2
*D18
 10
35.0
 20
-11.866303171161
 30
0.0
 11
33.5
 21
-10.616303171161
 31
0.0
 12
-105.0
 22
-113.866303171161
 32
0.0
  3
VESSEL_ENGINEERING_ORIGINA
100
AcDbAlignedDimension
 13
32.0
 23
-0.0786598526649129
 33
0.0
 14
35.0
 24
-1.078659852664954
 34
0.0
100
AcDbRotatedDimension
  0
INSERT
  5
12C2
330
1268
100
AcDbEntity
  8
0
100
AcDbBlockReference
  2
*U44
 10
0.0
 20
0.0
 30
0.0
  0
INSERT
  5
12C3
330
1268
100
AcDbEntity
  8
DIMENSION
100
AcDbBlockReference
  2
_OPEN30
 10
14.01862236971871
 20
-4.145258491684501
 30
0.0
 50
100.8609177355813
1001
ACAD
1000
DSTYLE
1002
{
1070
   147
1040
0.5
1070
    77
1070
     1
1002
}
  0
LINE
  5
12C4
330
1268
100
AcDbEntity
  8
DIMENSION
100
AcDbLine
 10
14.2070479607943
 20
-5.127345960613721
 30
0.0
 11
15.5
 21
-11.866303171161
 31
0.0
1001
ACAD
1000
DSTYLE
1002
{
1070
   147
1040
0.5
1070
    77
1070
     1
1002
}
  0
LINE
  5
12C5
330
1268
100
AcDbEntity
  8
DIMENSION
100
AcDbLine
 10
15.5
 20
-11.866303171161
 30
0.0
 11
25.35610575749581
 21
-11.866303171161
 31
0.0
1001
ACAD
1000
DSTYLE
1002
{
1070
   147
1040
0.5
1070
    77
1070
     1
1002
}
  0
DIMENSION
  5
12C6
330
1268
100
AcDbEntity
  8
DIMENSION
100
AcDbDimension
  2
*D20
 10
-13.50000000000002
 20
4.421340147335056
 30
0.0
 11
-12.88546487444292
 21
3.498995581628348
 31
0.0
 12
-105.0
 22
-113.866303171161
 32
0.0
 70
   132
  3
VESSEL_ENGINEERING_ORIGIN3
100
AcDbRadialDimension
 15
-11.83657643570755
 25
1.924738047328503
 35
0.0
 40
0.0
1001
ACAD
1000
DSTYLE
1002
{
1070
   288
1070
     1
1002
}
  0
DIMENSION
  5
12C7
330
1268
100
AcDbEntity
  8
DIMENSION
100
AcDbDimension
  2
*D22
 10
-14.99999999999997
 20
-1.578659852664926
 30
0.0
 11
-15.00144961426473
 21
3.395431116295879
 31
0.0
 12
-105.0
 22
-113.866303171161
 32
0.0
 70
   128
  3
VESSEL_ENGINEERING_ORIGINA
100
AcDbAlignedDimension
 13
-23.38652874101347
 23
1.421340147335087
 33
0.0
 14
-23.38652874101351
 24
-1.578659852664926
 34
0.0
 50
90.0
100
AcDbRotatedDimension
1001
ACAD
1000
DSTYLE
1002
{
1070
    76
1070
     1
1070
    75
1070
     1
1002
}
  0
INSERT
  5
12C8
330
1268
100
AcDbEntity
  8
DIMENSION
100
AcDbBlockReference
  2
_OPEN30
 10
-16.67345921667942
 20
-5.024798053155563
 30
0.0
 50
71.12175098793645
1001
ACAD
1000
DSTYLE
1002
{
1070
   147
1040
0.5
1070
    77
1070
     1
1002
}
  0
POLYLINE
  5
12C9
330
1268
100
AcDbEntity
  8
DIMENSION
100
AcDb2dPolyline
 66
     1
 10
0.0
 20
0.0
 30
0.0
1001
ACAD
1000
DSTYLE
1002
{
1070
   147
1040
0.5
1070
    77
1070
     1
1002
}
  0
VERTEX
  5
12CA
330
12C9
100
AcDbEntity
  8
DIMENSION
100
AcDbVertex
100
AcDb2dVertex
 10
-16.997017452609
 20
-5.971006311395866
 30
0.0
  0
VERTEX
  5
12CB
330
12C9
100
AcDbEntity
  8
DIMENSION
100
AcDbVertex
100
AcDb2dVertex
 10
-18.5
 20
-10.36630317116099
 30
0.0
  0
VERTEX
  5
12CC
330
12C9
100
AcDbEntity
  8
DIMENSION
100
AcDbVertex
100
AcDb2dVertex
 10
-23.22166397739628
 20
-10.36630317116099
 30
0.0
  0
SEQEND
  5
12CD
330
12C9
100
AcDbEntity
  8
DIMENSION
  0
TEXT
  5
12CE
330
1268
100
AcDbEntity
  8
DIMENSION
100
AcDbText
 10
-22.5
 20
-9.616303171161005
 30
0.0
 40
1.5
  1
R20
  7
GOTHIC
 11
-22.5
 21
-8.866303171161005
 31
0.0
100
AcDbText
 73
     2
  0
LINE
  5
12CF
330
1268
100
AcDbEntity
  8
CENTER
100
AcDbLine
 10
35.0
 20
-0.0786598526649414
 30
0.0
 11
36.54536040722496
 21
-0.0786598526649414
 31
0.0
  0
LINE
  5
12D0
330
1268
100
AcDbEntity
  8
LINE
100
AcDbLine
 10
32.0
 20
-0.0786598526649982
 30
0.0
 11
35.0
 21
-0.0786598526649556
 31
0.0
  0
DIMENSION
  5
12D1
330
1268
100
AcDbEntity
  8
DIMENSION
100
AcDbDimension
  2
*D24
 10
0.4824975970455938
 20
-16.24294950005196
 30
0.0
 11
-6.192804629538357
 21
-10.80491211237304
 31
0.0
 12
-105.0
 22
-113.866303171161
 32
0.0
 70
     1
  1
φ17
  3
VESSEL_ENGINEERING_ORIGINA
100
AcDbAlignedDimension
 13
-7.361215932167709
 23
4.1713401473351
 33
0.0
 14
7.361215932167723
 24
-4.328659852664953
 34
0.0
  0
DIMENSION
  5
12D2
330
1268
100
AcDbEntity
  8
DIMENSION
100
AcDbDimension
  2
*D26
 10
-10.5
 20
9.133696828838992
 30
0.0
 11
-17.25
 21
10.38369682883898
 31
0.0
 12
-105.0
 22
-113.866303171161
 32
0.0
  3
VESSEL_ENGINEERING_ORIGINA
100
AcDbAlignedDimension
 13
-24.0
 23
0.921340147335087
 33
0.0
 14
-10.5
 24
5.671340147335072
 34
0.0
100
AcDbRotatedDimension
1001
ACAD
1000
DSTYLE
1002
{
1070
    75
1070
     1
1002
}
  0
DIMENSION
  5
12D3
330
1268
100
AcDbEntity
  8
DIMENSION
100
AcDbDimension
  2
*D28
 10
0.0
 20
9.133696828838992
 30
0.0
 11
-5.25
 21
10.38369682883898
 31
0.0
 12
-105.0
 22
-113.866303171161
 32
0.0
  3
VESSEL_ENGINEERING_ORIGINA
100
AcDbAlignedDimension
 13
-10.49999999999998
 23
5.671340147335072
 33
0.0
 14
0.0
 24
7.366303171161005
 34
0.0
100
AcDbRotatedDimension
1001
ACAD
1000
DSTYLE
1002
{
1070
    76
1070
     1
1002
}
  0
DIMENSION
  5
12D4
330
1268
100
AcDbEntity
  8
DIMENSION
100
AcDbDimension
  2
*D30
 10
8.0
 20
9.133696828838992
 30
0.0
 11
4.0
 21
10.38369682883898
 31
0.0
 12
-105.0
 22
-113.866303171161
 32
0.0
  3
VESSEL_ENGINEERING_ORIGINA
100
AcDbAlignedDimension
 13
0.0
 23
7.366303171161005
 33
0.0
 14
8.0
 24
5.671340147335072
 34
0.0
100
AcDbRotatedDimension
1001
ACAD
1000
DSTYLE
1002
{
1070
    75
1070
     1
1002
}
  0
DIMENSION
  5
12D5
330
1268
100
AcDbEntity
  8
DIMENSION
100
AcDbDimension
  2
*D32
 10
31.5
 20
9.133696828838992
 30
0.0
 11
19.75
 21
10.38369682883898
 31
0.0
 12
-105.0
 22
-113.866303171161
 32
0.0
  3
VESSEL_ENGINEERING_ORIGINA
100
AcDbAlignedDimension
 13
8.0
 23
5.671340147335072
 33
0.0
 14
31.5
 24
3.421340147335087
 34
0.0
100
AcDbRotatedDimension
  0
DIMENSION
  5
12D6
330
1268
100
AcDbEntity
  8
DIMENSION
100
AcDbDimension
  2
*D34
 10
35.0
 20
9.133696828838992
 30
0.0
 11
33.24902310835681
 21
9.133518062275696
 31
0.0
 12
-105.0
 22
-113.866303171161
 32
0.0
 70
   128
  3
VESSEL_ENGINEERING_ORIGINA
100
AcDbAlignedDimension
 13
31.5
 23
3.421340147335016
 33
0.0
 14
35.0
 24
0.9213401473350726
 34
0.0
100
AcDbRotatedDimension
1001
ACAD
1000
DSTYLE
1002
{
1070
    76
1070
     1
1002
}
  0
DIMENSION
  5
12D7
330
1268
100
AcDbEntity
  8
DIMENSION
100
AcDbDimension
  2
*D36
 10
0.0
 20
13.63369682883899
 30
0.0
 11
-12.0
 21
14.88369682883899
 31
0.0
 12
-105.0
 22
-113.866303171161
 32
0.0
  3
VESSEL_ENGINEERING_ORIGINA
100
AcDbAlignedDimension
 13
-24.0
 23
0.9213401473350726
 33
0.0
 14
0.0
 24
7.366303171161005
 34
0.0
100
AcDbRotatedDimension
1001
ACAD
1000
DSTYLE
1002
{
1070
    75
1070
     1
1002
}
  0
DIMENSION
  5
12D8
330
1268
100
AcDbEntity
  8
DIMENSION
100
AcDbDimension
  2
*D38
 10
35.0
 20
13.63369682883899
 30
0.0
 11
17.5
 21
14.88369682883899
 31
0.0
 12
-105.0
 22
-113.866303171161
 32
0.0
  3
VESSEL_ENGINEERING_ORIGINA
100
AcDbAlignedDimension
 13
0.0
 23
7.366303171161005
 33
0.0
 14
35.0
 24
0.9213401473350726
 34
0.0
100
AcDbRotatedDimension
1001
ACAD
1000
DSTYLE
1002
{
1070
    76
1070
     1
1070
    75
1070
     1
1002
}
  0
LINE
  5
12D9
330
1268
100
AcDbEntity
  8
LINE
100
AcDbLine
 10
8.0
 20
5.671340147335072
 30
0.0
 11
30.69789578417371
 21
3.498137359488595
 31
0.0
  0
LINE
  5
12DA
330
1268
100
AcDbEntity
  8
LINE
100
AcDbLine
 10
32.15568388330587
 20
2.952994516402241
 30
0.0
 11
35.0
 21
0.9213401473350726
 31
0.0
  0
ARC
  5
12DB
330
1268
100
AcDbEntity
  8
LINE
100
AcDbCircle
 10
30.4119693021486
 20
0.5117941027820195
 30
0.0
 40
3.0
100
AcDbArc
 50
54.46232220802638
 51
84.53090502988819
  0
LINE
  5
12DC
330
1268
100
AcDbEntity
  8
DIMENSION
100
AcDbLine
 10
30.69789578417371
 20
3.498137359488595
 30
0.0
 11
31.5
 21
3.421340147335016
 31
0.0
  0
LINE
  5
12DD
330
1268
100
AcDbEntity
  8
DIMENSION
100
AcDbLine
 10
31.5
 20
3.421340147335016
 30
0.0
 11
32.15568388330587
 21
2.952994516402256
 31
0.0
  0
LINE
  5
12DE
330
1268
100
AcDbEntity
  8
LINE
100
AcDbLine
 10
8.0
 20
-5.828659852664927
 30
0.0
 11
30.69789578417371
 21
-3.655457064818421
 31
0.0
  0
LINE
  5
12DF
330
1268
100
AcDbEntity
  8
LINE
100
AcDbLine
 10
32.15568388330587
 20
-3.110314221732068
 30
0.0
 11
35.0
 21
-1.078659852664897
 31
0.0
  0
ARC
  5
12E0
330
1268
100
AcDbEntity
  8
LINE
100
AcDbCircle
 10
30.4119693021486
 20
-0.6691138081118453
 30
0.0
 40
3.0
100
AcDbArc
 50
275.4690949701118
 51
305.5376777919736
  0
LINE
  5
12E1
330
1268
100
AcDbEntity
  8
DIMENSION
100
AcDbLine
 10
30.69789578417371
 20
-3.655457064818421
 30
0.0
 11
31.5
 21
-3.578659852664841
 31
0.0
  0
LINE
  5
12E2
330
1268
100
AcDbEntity
  8
DIMENSION
100
AcDbLine
 10
31.5
 20
-3.578659852664841
 30
0.0
 11
32.15568388330587
 21
-3.110314221732081
 31
0.0
  0
LINE
  5
12E3
330
1268
100
AcDbEntity
  8
LINE
100
AcDbLine
 10
29.5
 20
3.61282950903714
 30
0.0
 11
33.57784194165295
 21
1.937167331868663
 31
0.0
  0
LINE
  5
12E4
330
1268
100
AcDbEntity
  8
LINE
100
AcDbLine
 10
29.5
 20
-3.770149214366964
 30
0.0
 11
33.57784194165295
 21
-2.09448703719849
 31
0.0
  0
DIMENSION
  5
12E5
330
1268
100
AcDbEntity
  8
DIMENSION
100
AcDbDimension
  2
*D40
 10
30.41196930214809
 20
-0.6691138081123711
 30
0.0
 11
37.04661332781378
 21
-10.36594414363919
 31
0.0
 12
-105.0
 22
-113.866303171161
 32
0.0
 70
   132
  3
VESSEL_ENGINEERING_ORIGIN3
100
AcDbRadialDimension
 15
31.84299769053613
 25
-3.305808282568106
 35
0.0
 40
0.0
1001
ACAD
1000
DSTYLE
1002
{
1070
   288
1070
     1
1002
}
  0
ENDBLK
  5
12E6
330
1268
100
AcDbEntity
  8
0
100
AcDbBlockEnd
  0
BLOCK
  5
13B9
330
12BD
100
AcDbEntity
  8
0
100
AcDbBlockBegin
  2
*U43
 70
     1
 10
0.0
 20
0.0
 30
0.0
  3
*U43
  1

  0
TEXT
  5
13BA
330
12BD
100
AcDbEntity
  8
DIMENSION
 62
     3
100
AcDbText
 10
-35.00196050072246
 20
-0.888832596554683
 30
0.0
 40
1.5
  1
90°
 50
90.0
  7
GOTHIC
100
AcDbText
  0
ENDBLK
  5
13BB
330
12BD
100
AcDbEntity
  8
0
100
AcDbBlockEnd
  0
BLOCK
  5
13BC
330
12C1
100
AcDbEntity
  8
0
100
AcDbBlockBegin
  2
*U44
 70
     1
 10
0.0
 20
0.0
 30
0.0
  3
*U44
  1

  0
TEXT
  5
13BD
330
12C1
100
AcDbEntity
  8
DIMENSION
 62
     3
100
AcDbText
 10
16.60406091370558
 20
-11.12264834882598
 30
0.0
 40
1.5
  1
φ4深2.5
  7
GOTHIC
100
AcDbText
  0
ENDBLK
  5
13BE
330
12C1
100
AcDbEntity
  8
0
100
AcDbBlockEnd
  0
BLOCK
  5
12E8
330
12E7
100
AcDbEntity
  8
0
100
AcDbBlockBegin
  2
*D45
 70
     1
 10
0.0
 20
0.0
 30
0.0
  3
*D45
  1

  0
LINE
  5
12E9
330
12E7
100
AcDbEntity
  8
DIMENSION
100
AcDbLine
 10
50.25000000000009
 20
74.5
 30
0.0
 11
44.25000000000006
 21
74.5
 31
0.0
  0
LINE
  5
12EA
330
12E7
100
AcDbEntity
  8
DIMENSION
100
AcDbLine
 10
50.25000000000009
 20
72.50000000000001
 30
0.0
 11
44.25000000000006
 21
72.50000000000001
 31
0.0
  0
LINE
  5
12EB
330
12E7
100
AcDbEntity
  8
DIMENSION
100
AcDbLine
 10
45.75000000000009
 20
75.5
 30
0.0
 11
45.75000000000009
 21
76.5
 31
0.0
  0
LINE
  5
12EC
330
12E7
100
AcDbEntity
  8
DIMENSION
100
AcDbLine
 10
45.75000000000009
 20
71.50000000000002
 30
0.0
 11
45.75000000000009
 21
70.50000000000001
 31
0.0
  0
LINE
  5
12ED
330
12E7
100
AcDbEntity
  8
DIMENSION
100
AcDbLine
 10
45.75000000000009
 20
74.5
 30
0.0
 11
45.75000000000009
 21
72.50000000000001
 31
0.0
  0
INSERT
  5
12EE
330
12E7
100
AcDbEntity
  8
DIMENSION
100
AcDbBlockReference
  2
_OPEN30
 10
45.75000000000009
 20
74.5
 30
0.0
 50
270.0
  0
INSERT
  5
12EF
330
12E7
100
AcDbEntity
  8
DIMENSION
100
AcDbBlockReference
  2
_OPEN30
 10
45.75000000000009
 20
72.50000000000001
 30
0.0
 50
90.0
  0
INSERT
  5
12F1
330
12E7
100
AcDbEntity
  8
0
100
AcDbBlockReference
  2
*U46
 10
0.0
 20
0.0
 30
0.0
  0
POINT
  5
12F2
330
12E7
100
AcDbEntity
  8
DEFPOINTS
 62
     0
100
AcDbPoint
 10
50.25000000000009
 20
74.5
 30
0.0
  0
POINT
  5
12F3
330
12E7
100
AcDbEntity
  8
DEFPOINTS
 62
     0
100
AcDbPoint
 10
50.25000000000009
 20
72.50000000000001
 30
0.0
  0
POINT
  5
12F4
330
12E7
100
AcDbEntity
  8
DEFPOINTS
 62
     0
100
AcDbPoint
 10
45.75000000000009
 20
72.50000000000001
 30
0.0
  0
ENDBLK
  5
12F5
330
12E7
100
AcDbEntity
  8
0
100
AcDbBlockEnd
  0
BLOCK
  5
13D7
330
12F0
100
AcDbEntity
  8
0
100
AcDbBlockBegin
  2
*U46
 70
     1
 10
0.0
 20
0.0
 30
0.0
  3
*U46
  1

  0
TEXT
  5
13D8
330
12F0
100
AcDbEntity
  8
DIMENSION
100
AcDbText
 10
45.25000000000008
 20
73.02030456852794
 30
0.0
 40
1.5
  1
2
 50
90.0
  7
GOTHIC
100
AcDbText
  0
ENDBLK
  5
13D9
330
12F0
100
AcDbEntity
  8
0
100
AcDbBlockEnd
  0
BLOCK
  5
12F7
330
12F6
100
AcDbEntity
  8
0
100
AcDbBlockBegin
  2
*D47
 70
     1
 10
0.0
 20
0.0
 30
0.0
  3
*D47
  1

  0
LINE
  5
12F8
330
12F6
100
AcDbEntity
  8
DIMENSION
100
AcDbLine
 10
17.10164880763443
 20
79.25000000000001
 30
0.0
 11
11.25
 21
79.25000000000001
 31
0.0
  0
LINE
  5
12F9
330
12F6
100
AcDbEntity
  8
DIMENSION
100
AcDbLine
 10
17.10164880763443
 20
67.75
 30
0.0
 11
11.25
 21
67.75
 31
0.0
  0
LINE
  5
12FA
330
12F6
100
AcDbEntity
  8
DIMENSION
100
AcDbLine
 10
12.75
 20
78.25000000000001
 30
0.0
 11
12.75
 21
68.75
 31
0.0
  0
INSERT
  5
12FB
330
12F6
100
AcDbEntity
  8
DIMENSION
100
AcDbBlockReference
  2
_OPEN30
 10
12.75
 20
79.25000000000001
 30
0.0
 50
90.0
  0
INSERT
  5
12FC
330
12F6
100
AcDbEntity
  8
DIMENSION
100
AcDbBlockReference
  2
_OPEN30
 10
12.75
 20
67.75
 30
0.0
 50
270.0
  0
INSERT
  5
12FE
330
12F6
100
AcDbEntity
  8
0
100
AcDbBlockReference
  2
*U48
 10
0.0
 20
0.0
 30
0.0
  0
POINT
  5
12FF
330
12F6
100
AcDbEntity
  8
DEFPOINTS
 62
     0
100
AcDbPoint
 10
17.10164880763443
 20
79.25000000000001
 30
0.0
  0
POINT
  5
1300
330
12F6
100
AcDbEntity
  8
DEFPOINTS
 62
     0
100
AcDbPoint
 10
17.10164880763443
 20
67.75
 30
0.0
  0
POINT
  5
1301
330
12F6
100
AcDbEntity
  8
DEFPOINTS
 62
     0
100
AcDbPoint
 10
12.75
 20
67.75
 30
0.0
  0
ENDBLK
  5
1302
330
12F6
100
AcDbEntity
  8
0
100
AcDbBlockEnd
  0
BLOCK
  5
13CE
330
12FD
100
AcDbEntity
  8
0
100
AcDbBlockBegin
  2
*U48
 70
     1
 10
0.0
 20
0.0
 30
0.0
  3
*U48
  1

  0
TEXT
  5
13CF
330
12FD
100
AcDbEntity
  8
DIMENSION
100
AcDbText
 10
12.24999999999998
 20
71.51269035532995
 30
0.0
 40
1.5
  1
11.5
 50
90.0
  7
GOTHIC
100
AcDbText
  0
ENDBLK
  5
13D0
330
12FD
100
AcDbEntity
  8
0
100
AcDbBlockEnd
  0
BLOCK
  5
1304
330
1303
100
AcDbEntity
  8
0
100
AcDbBlockBegin
  2
*D49
 70
     1
 10
0.0
 20
0.0
 30
0.0
  3
*D49
  1

  0
LINE
  5
1305
330
1303
100
AcDbEntity
  8
DIMENSION
100
AcDbLine
 10
50.25000000000009
 20
74.5
 30
0.0
 11
50.25000000000009
 21
88.49999999999999
 31
0.0
  0
LINE
  5
1306
330
1303
100
AcDbEntity
  8
DIMENSION
100
AcDbLine
 10
74.25000000000007
 20
80.94496302382593
 30
0.0
 11
74.25000000000007
 21
88.49999999999999
 31
0.0
  0
LINE
  5
1307
330
1303
100
AcDbEntity
  8
DIMENSION
100
AcDbLine
 10
51.25000000000007
 20
87.0
 30
0.0
 11
73.25000000000007
 21
87.0
 31
0.0
  0
INSERT
  5
1308
330
1303
100
AcDbEntity
  8
DIMENSION
100
AcDbBlockReference
  2
_OPEN30
 10
50.25000000000009
 20
87.0
 30
0.0
 50
180.0
  0
INSERT
  5
1309
330
1303
100
AcDbEntity
  8
DIMENSION
100
AcDbBlockReference
  2
_OPEN30
 10
74.25000000000007
 20
87.0
 30
0.0
  0
INSERT
  5
130B
330
1303
100
AcDbEntity
  8
0
100
AcDbBlockReference
  2
*U50
 10
0.0
 20
0.0
 30
0.0
  0
POINT
  5
130C
330
1303
100
AcDbEntity
  8
DEFPOINTS
 62
     0
100
AcDbPoint
 10
50.25000000000009
 20
74.5
 30
0.0
  0
POINT
  5
130D
330
1303
100
AcDbEntity
  8
DEFPOINTS
 62
     0
100
AcDbPoint
 10
74.25000000000007
 20
80.94496302382593
 30
0.0
  0
POINT
  5
130E
330
1303
100
AcDbEntity
  8
DEFPOINTS
 62
     0
100
AcDbPoint
 10
74.25000000000007
 20
87.0
 30
0.0
  0
ENDBLK
  5
130F
330
1303
100
AcDbEntity
  8
0
100
AcDbBlockEnd
  0
BLOCK
  5
13E0
330
130A
100
AcDbEntity
  8
0
100
AcDbBlockBegin
  2
*U50
 70
     1
 10
0.0
 20
0.0
 30
0.0
  3
*U50
  1

  0
TEXT
  5
13E1
330
130A
100
AcDbEntity
  8
DIMENSION
100
AcDbText
 10
61.26395939086303
 20
87.5
 30
0.0
 40
1.5
  1
24
  7
GOTHIC
100
AcDbText
  0
ENDBLK
  5
13E2
330
130A
100
AcDbEntity
  8
0
100
AcDbBlockEnd
  0
BLOCK
  5
1311
330
1310
100
AcDbEntity
  8
0
100
AcDbBlockBegin
  2
*D51
 70
     1
 10
0.0
 20
0.0
 30
0.0
  3
*D51
  1

  0
LINE
  5
1312
330
1310
100
AcDbEntity
  8
DIMENSION
100
AcDbLine
 10
63.25000000000009
 20
73.50000000000001
 30
0.0
 11
63.25000000000009
 21
84.0
 31
0.0
  0
LINE
  5
1313
330
1310
100
AcDbEntity
  8
DIMENSION
100
AcDbLine
 10
51.25000000000007
 20
82.5
 30
0.0
 11
62.25000000000008
 21
82.5
 31
0.0
  0
INSERT
  5
1314
330
1310
100
AcDbEntity
  8
DIMENSION
100
AcDbBlockReference
  2
_OPEN30
 10
50.25000000000009
 20
82.5
 30
0.0
 50
180.0
  0
INSERT
  5
1315
330
1310
100
AcDbEntity
  8
DIMENSION
100
AcDbBlockReference
  2
_OPEN30
 10
63.25000000000009
 20
82.5
 30
0.0
  0
INSERT
  5
1317
330
1310
100
AcDbEntity
  8
0
100
AcDbBlockReference
  2
*U52
 10
0.0
 20
0.0
 30
0.0
  0
POINT
  5
1318
330
1310
100
AcDbEntity
  8
DEFPOINTS
 62
     0
100
AcDbPoint
 10
50.25000000000009
 20
74.5
 30
0.0
  0
POINT
  5
1319
330
1310
100
AcDbEntity
  8
DEFPOINTS
 62
     0
100
AcDbPoint
 10
63.25000000000009
 20
73.50000000000001
 30
0.0
  0
POINT
  5
131A
330
1310
100
AcDbEntity
  8
DEFPOINTS
 62
     0
100
AcDbPoint
 10
63.25000000000009
 20
82.5
 30
0.0
  0
ENDBLK
  5
131B
330
1310
100
AcDbEntity
  8
0
100
AcDbBlockEnd
  0
BLOCK
  5
13DA
330
1316
100
AcDbEntity
  8
0
100
AcDbBlockBegin
  2
*U52
 70
     1
 10
0.0
 20
0.0
 30
0.0
  3
*U52
  1

  0
TEXT
  5
13DB
330
1316
100
AcDbEntity
  8
DIMENSION
100
AcDbText
 10
55.73730964467014
 20
83.0
 30
0.0
 40
1.5
  1
13
  7
GOTHIC
100
AcDbText
  0
ENDBLK
  5
13DC
330
1316
100
AcDbEntity
  8
0
100
AcDbBlockEnd
  0
BLOCK
  5
131D
330
131C
100
AcDbEntity
  8
0
100
AcDbBlockBegin
  2
*D53
 70
     1
 10
0.0
 20
0.0
 30
0.0
  3
*D53
  1

  0
LINE
  5
131E
330
131C
100
AcDbEntity
  8
DIMENSION
100
AcDbLine
 10
64.2500000000001
 20
82.5
 30
0.0
 11
73.25000000000007
 21
82.5
 31
0.0
  0
INSERT
  5
131F
330
131C
100
AcDbEntity
  8
DIMENSION
100
AcDbBlockReference
  2
_OPEN30
 10
63.25000000000009
 20
82.5
 30
0.0
 50
180.0
  0
INSERT
  5
1320
330
131C
100
AcDbEntity
  8
DIMENSION
100
AcDbBlockReference
  2
_OPEN30
 10
74.25000000000007
 20
82.5
 30
0.0
  0
INSERT
  5
1322
330
131C
100
AcDbEntity
  8
0
100
AcDbBlockReference
  2
*U54
 10
0.0
 20
0.0
 30
0.0
  0
POINT
  5
1323
330
131C
100
AcDbEntity
  8
DEFPOINTS
 62
     0
100
AcDbPoint
 10
63.25000000000009
 20
73.50000000000001
 30
0.0
  0
POINT
  5
1324
330
131C
100
AcDbEntity
  8
DEFPOINTS
 62
     0
100
AcDbPoint
 10
74.25000000000007
 20
80.94496302382593
 30
0.0
  0
POINT
  5
1325
330
131C
100
AcDbEntity
  8
DEFPOINTS
 62
     0
100
AcDbPoint
 10
74.25000000000007
 20
82.5
 30
0.0
  0
ENDBLK
  5
1326
330
131C
100
AcDbEntity
  8
0
100
AcDbBlockEnd
  0
BLOCK
  5
13DD
330
1321
100
AcDbEntity
  8
0
100
AcDbBlockBegin
  2
*U54
 70
     1
 10
0.0
 20
0.0
 30
0.0
  3
*U54
  1

  0
TEXT
  5
13DE
330
1321
100
AcDbEntity
  8
DIMENSION
100
AcDbText
 10
67.8705583756346
 20
83.0
 30
0.0
 40
1.5
  1
11
  7
GOTHIC
100
AcDbText
  0
ENDBLK
  5
13DF
330
1321
100
AcDbEntity
  8
0
100
AcDbBlockEnd
  0
BLOCK
  5
1328
330
1327
100
AcDbEntity
  8
0
100
AcDbBlockBegin
  2
*D55
 70
     1
 10
0.0
 20
0.0
 30
0.0
  3
*D55
  1

  0
LINE
  5
1329
330
1327
100
AcDbEntity
  8
DIMENSION
100
AcDbLine
 10
21.80164880763442
 20
67.75
 30
0.0
 11
21.80164880763442
 21
61.71235668150393
 31
0.0
  0
LINE
  5
132A
330
1327
100
AcDbEntity
  8
DIMENSION
100
AcDbLine
 10
24.10164880763443
 20
67.74999999999998
 30
0.0
 11
24.10164880763443
 21
61.71235668150393
 31
0.0
  0
LINE
  5
132B
330
1327
100
AcDbEntity
  8
DIMENSION
100
AcDbLine
 10
20.80164880763444
 20
63.21235668150393
 30
0.0
 11
19.80164880763442
 21
63.21235668150393
 31
0.0
  0
LINE
  5
132C
330
1327
100
AcDbEntity
  8
DIMENSION
100
AcDbLine
 10
25.10164880763444
 20
63.21235668150393
 30
0.0
 11
26.10164880763444
 21
63.21235668150393
 31
0.0
  0
LINE
  5
132D
330
1327
100
AcDbEntity
  8
DIMENSION
100
AcDbLine
 10
30.42821432606674
 20
63.21235668150393
 30
0.0
 11
24.10164880763443
 21
63.21235668150393
 31
0.0
  0
INSERT
  5
132F
330
1327
100
AcDbEntity
  8
0
100
AcDbBlockReference
  2
*U56
 10
0.0
 20
0.0
 30
0.0
  0
LINE
  5
1330
330
1327
100
AcDbEntity
  8
DIMENSION
100
AcDbLine
 10
21.80164880763442
 20
63.21235668150393
 30
0.0
 11
24.10164880763443
 21
63.21235668150393
 31
0.0
  0
LINE
  5
1331
330
1327
100
AcDbEntity
  8
DIMENSION
100
AcDbLine
 10
21.80164880763442
 20
63.21235668150393
 30
0.0
 11
24.10164880763443
 21
63.21235668150393
 31
0.0
  0
INSERT
  5
1332
330
1327
100
AcDbEntity
  8
DIMENSION
100
AcDbBlockReference
  2
_OPEN30
 10
21.80164880763442
 20
63.21235668150393
 30
0.0
  0
INSERT
  5
1333
330
1327
100
AcDbEntity
  8
DIMENSION
100
AcDbBlockReference
  2
_OPEN30
 10
24.10164880763443
 20
63.21235668150393
 30
0.0
 50
180.0
  0
POINT
  5
1334
330
1327
100
AcDbEntity
  8
DEFPOINTS
 62
     0
100
AcDbPoint
 10
21.80164880763442
 20
67.75
 30
0.0
  0
POINT
  5
1335
330
1327
100
AcDbEntity
  8
DEFPOINTS
 62
     0
100
AcDbPoint
 10
24.10164880763443
 20
67.74999999999998
 30
0.0
  0
POINT
  5
1336
330
1327
100
AcDbEntity
  8
DEFPOINTS
 62
     0
100
AcDbPoint
 10
24.10164880763443
 20
63.21235668150393
 30
0.0
  0
ENDBLK
  5
1337
330
1327
100
AcDbEntity
  8
0
100
AcDbBlockEnd
  0
BLOCK
  5
13D1
330
132E
100
AcDbEntity
  8
0
100
AcDbBlockBegin
  2
*U56
 70
     1
 10
0.0
 20
0.0
 30
0.0
  3
*U56
  1

  0
TEXT
  5
13D2
330
132E
100
AcDbEntity
  8
DIMENSION
100
AcDbText
 10
27.11856965601596
 20
63.71235668150393
 30
0.0
 40
1.5
  1
2.3
  7
GOTHIC
100
AcDbText
  0
ENDBLK
  5
13D3
330
132E
100
AcDbEntity
  8
0
100
AcDbBlockEnd
  0
BLOCK
  5
1339
330
1338
100
AcDbEntity
  8
0
100
AcDbBlockBegin
  2
*D57
 70
     1
 10
0.0
 20
0.0
 30
0.0
  3
*D57
  1

  0
LINE
  5
133A
330
1338
100
AcDbEntity
  8
DIMENSION
100
AcDbLine
 10
24.10164880763443
 20
79.25
 30
0.0
 11
24.10164880763443
 21
85.53937451801365
 31
0.0
  0
LINE
  5
133B
330
1338
100
AcDbEntity
  8
DIMENSION
100
AcDbLine
 10
21.80164880763442
 20
78.9184604413946
 30
0.0
 11
19.39749041590597
 21
84.58230267636322
 31
0.0
  0
ARC
  5
133C
330
1338
100
AcDbEntity
  8
DIMENSION
100
AcDbCircle
 10
24.10164880763443
 20
73.49999999999998
 30
0.0
 40
10.53937451801367
100
AcDbArc
 50
79.12320774761159
 51
84.56160387380579
  0
ARC
  5
133D
330
1338
100
AcDbEntity
  8
DIMENSION
100
AcDbCircle
 10
24.10164880763443
 20
73.49999999999998
 30
0.0
 40
10.53937451801367
100
AcDbArc
 50
118.438396126194
 51
123.8767922523882
  0
ARC
  5
133E
330
1338
100
AcDbEntity
  8
DIMENSION
100
AcDbCircle
 10
24.10164880763443
 20
73.49999999999998
 30
0.0
 40
10.53937451801367
100
AcDbArc
 50
90.0
 51
112.9999999999997
  0
INSERT
  5
133F
330
1338
100
AcDbEntity
  8
DIMENSION
100
AcDbBlockReference
  2
_OPEN30
 10
24.10164880763443
 20
84.03937451801366
 30
0.0
 50
177.2808019369028
  0
INSERT
  5
1340
330
1338
100
AcDbEntity
  8
DIMENSION
100
AcDbBlockReference
  2
_OPEN30
 10
19.98358710863987
 20
83.20154539618458
 30
0.0
 50
25.71919806309694
  0
INSERT
  5
1342
330
1338
100
AcDbEntity
  8
0
100
AcDbBlockReference
  2
*U58
 10
0.0
 20
0.0
 30
0.0
  0
POINT
  5
1343
330
1338
100
AcDbEntity
  8
DEFPOINTS
 62
     0
100
AcDbPoint
 10
22.69559473040593
 20
83.94516285956639
 30
0.0
  0
POINT
  5
1344
330
1338
100
AcDbEntity
  8
DEFPOINTS
 62
     0
100
AcDbPoint
 10
24.10164880763443
 20
73.49999999999998
 30
0.0
  0
POINT
  5
1345
330
1338
100
AcDbEntity
  8
DEFPOINTS
 62
     0
100
AcDbPoint
 10
24.10164880763443
 20
79.25
 30
0.0
  0
POINT
  5
1346
330
1338
100
AcDbEntity
  8
DEFPOINTS
 62
     0
100
AcDbPoint
 10
24.10164880763443
 20
73.49999999999998
 30
0.0
  0
POINT
  5
1347
330
1338
100
AcDbEntity
  8
DEFPOINTS
 62
     0
100
AcDbPoint
 10
21.80164880763442
 20
78.9184604413946
 30
0.0
  0
ENDBLK
  5
1348
330
1338
100
AcDbEntity
  8
0
100
AcDbBlockEnd
  0
BLOCK
  5
13D4
330
1341
100
AcDbEntity
  8
0
100
AcDbBlockBegin
  2
*U58
 70
     1
 10
0.0
 20
0.0
 30
0.0
  3
*U58
  1

  0
TEXT
  5
13D5
330
1341
100
AcDbEntity
  8
DIMENSION
100
AcDbText
 10
20.61366766845301
 20
84.05589564609597
 30
0.0
 40
1.5
  1
23°
 50
11.49999999999996
  7
GOTHIC
100
AcDbText
  0
ENDBLK
  5
13D6
330
1341
100
AcDbEntity
  8
0
100
AcDbBlockEnd
  0
BLOCK
  5
134A
330
1349
100
AcDbEntity
  8
0
100
AcDbBlockBegin
  2
*D59
 70
     1
 10
0.0
 20
0.0
 30
0.0
  3
*D59
  1

  0
LINE
  5
134B
330
1349
100
AcDbEntity
  8
DIMENSION
100
AcDbLine
 10
108.4820508075689
 20
47.0
 30
0.0
 11
119.25
 21
46.99999999999999
 31
0.0
  0
LINE
  5
134C
330
1349
100
AcDbEntity
  8
DIMENSION
100
AcDbLine
 10
108.4820508075689
 20
40.0
 30
0.0
 11
119.25
 21
40.0
 31
0.0
  0
LINE
  5
134D
330
1349
100
AcDbEntity
  8
DIMENSION
100
AcDbLine
 10
117.7499999999999
 20
45.99999999999999
 30
0.0
 11
117.7499999999999
 21
40.99999999999999
 31
0.0
  0
INSERT
  5
134E
330
1349
100
AcDbEntity
  8
DIMENSION
100
AcDbBlockReference
  2
_OPEN30
 10
117.7499999999999
 20
46.99999999999999
 30
0.0
 50
90.0
  0
INSERT
  5
134F
330
1349
100
AcDbEntity
  8
DIMENSION
100
AcDbBlockReference
  2
_OPEN30
 10
117.7499999999999
 20
40.0
 30
0.0
 50
270.0
  0
INSERT
  5
1351
330
1349
100
AcDbEntity
  8
0
100
AcDbBlockReference
  2
*U60
 10
0.0
 20
0.0
 30
0.0
  0
POINT
  5
1352
330
1349
100
AcDbEntity
  8
DEFPOINTS
 62
     0
100
AcDbPoint
 10
108.4820508075689
 20
47.0
 30
0.0
  0
POINT
  5
1353
330
1349
100
AcDbEntity
  8
DEFPOINTS
 62
     0
100
AcDbPoint
 10
108.4820508075689
 20
40.0
 30
0.0
  0
POINT
  5
1354
330
1349
100
AcDbEntity
  8
DEFPOINTS
 62
     0
100
AcDbPoint
 10
117.7499999999999
 20
40.0
 30
0.0
  0
ENDBLK
  5
1355
330
1349
100
AcDbEntity
  8
0
100
AcDbBlockEnd
  0
BLOCK
  5
13C3
330
1350
100
AcDbEntity
  8
0
100
AcDbBlockBegin
  2
*U60
 70
     1
 10
0.0
 20
0.0
 30
0.0
  3
*U60
  1

  0
TEXT
  5
13C4
330
1350
100
AcDbEntity
  8
DIMENSION
100
AcDbText
 10
117.25
 20
41.56294416243656
 30
0.0
 40
1.5
  1
7
 50
90.0
  7
GOTHIC
100
AcDbText
  0
TEXT
  5
13C5
330
1350
100
AcDbEntity
  8
DIMENSION
100
AcDbText
 10
115.6621827411167
 20
42.53756345177666
 30
0.0
 40
1.199999999999999
  1
 0
 50
90.0
  7
GOTHIC
100
AcDbText
  0
TEXT
  5
13C6
330
1350
100
AcDbEntity
  8
DIMENSION
100
AcDbText
 10
117.25
 20
42.5010152284264
 30
0.0
 40
1.199999999999999
  1
-0.1
 50
90.0
  7
GOTHIC
100
AcDbText
  0
ENDBLK
  5
13C7
330
1350
100
AcDbEntity
  8
0
100
AcDbBlockEnd
  0
BLOCK
  5
1357
330
1356
100
AcDbEntity
  8
0
100
AcDbBlockBegin
  2
*D61
 70
     1
 10
0.0
 20
0.0
 30
0.0
  3
*D61
  1

  0
LINE
  5
1358
330
1356
100
AcDbEntity
  8
DIMENSION
100
AcDbLine
 10
63.7500000000001
 20
39.99999999999999
 30
0.0
 11
63.7500000000001
 21
33.75
 31
0.0
  0
LINE
  5
1359
330
1356
100
AcDbEntity
  8
DIMENSION
100
AcDbLine
 10
74.25000000000007
 20
38.25
 30
0.0
 11
74.25000000000007
 21
33.75
 31
0.0
  0
LINE
  5
135A
330
1356
100
AcDbEntity
  8
DIMENSION
100
AcDbLine
 10
64.7500000000001
 20
35.25
 30
0.0
 11
73.25000000000007
 21
35.25
 31
0.0
  0
INSERT
  5
135B
330
1356
100
AcDbEntity
  8
DIMENSION
100
AcDbBlockReference
  2
_OPEN30
 10
63.7500000000001
 20
35.25
 30
0.0
 50
180.0
  0
INSERT
  5
135C
330
1356
100
AcDbEntity
  8
DIMENSION
100
AcDbBlockReference
  2
_OPEN30
 10
74.25000000000007
 20
35.25
 30
0.0
  0
INSERT
  5
135E
330
1356
100
AcDbEntity
  8
0
100
AcDbBlockReference
  2
*U62
 10
0.0
 20
0.0
 30
0.0
  0
POINT
  5
135F
330
1356
100
AcDbEntity
  8
DEFPOINTS
 62
     0
100
AcDbPoint
 10
63.7500000000001
 20
39.99999999999999
 30
0.0
  0
POINT
  5
1360
330
1356
100
AcDbEntity
  8
DEFPOINTS
 62
     0
100
AcDbPoint
 10
74.25000000000007
 20
38.25
 30
0.0
  0
POINT
  5
1361
330
1356
100
AcDbEntity
  8
DEFPOINTS
 62
     0
100
AcDbPoint
 10
74.25000000000007
 20
35.25
 30
0.0
  0
ENDBLK
  5
1362
330
1356
100
AcDbEntity
  8
0
100
AcDbBlockEnd
  0
BLOCK
  5
13C8
330
135D
100
AcDbEntity
  8
0
100
AcDbBlockBegin
  2
*U62
 70
     1
 10
0.0
 20
0.0
 30
0.0
  3
*U62
  1

  0
TEXT
  5
13C9
330
135D
100
AcDbEntity
  8
DIMENSION
100
AcDbText
 10
67.01269035533004
 20
35.75
 30
0.0
 40
1.5
  1
10.5
  7
GOTHIC
100
AcDbText
  0
ENDBLK
  5
13CA
330
135D
100
AcDbEntity
  8
0
100
AcDbBlockEnd
  0
BLOCK
  5
1364
330
1363
100
AcDbEntity
  8
0
100
AcDbBlockBegin
  2
*D63
 70
     1
 10
0.0
 20
0.0
 30
0.0
  3
*D63
  1

  0
LINE
  5
1365
330
1363
100
AcDbEntity
  8
DIMENSION
100
AcDbLine
 10
50.25000000000009
 20
47.0
 30
0.0
 11
44.25000000000006
 21
47.00000000000001
 31
0.0
  0
LINE
  5
1366
330
1363
100
AcDbEntity
  8
DIMENSION
100
AcDbLine
 10
58.70698669740002
 20
44.7
 30
0.0
 11
44.25000000000006
 21
44.70000000000001
 31
0.0
  0
LINE
  5
1367
330
1363
100
AcDbEntity
  8
DIMENSION
100
AcDbLine
 10
45.75000000000009
 20
48.0
 30
0.0
 11
45.75000000000009
 21
49.00000000000001
 31
0.0
  0
LINE
  5
1368
330
1363
100
AcDbEntity
  8
DIMENSION
100
AcDbLine
 10
45.75000000000009
 20
43.7
 30
0.0
 11
45.75000000000009
 21
42.70000000000001
 31
0.0
  0
LINE
  5
1369
330
1363
100
AcDbEntity
  8
DIMENSION
100
AcDbLine
 10
45.75000000000009
 20
52.76073290522532
 30
0.0
 11
45.75000000000009
 21
47.00000000000001
 31
0.0
  0
INSERT
  5
136B
330
1363
100
AcDbEntity
  8
0
100
AcDbBlockReference
  2
*U64
 10
0.0
 20
0.0
 30
0.0
  0
LINE
  5
136C
330
1363
100
AcDbEntity
  8
DIMENSION
100
AcDbLine
 10
45.75000000000009
 20
47.00000000000001
 30
0.0
 11
45.75000000000009
 21
44.70000000000001
 31
0.0
  0
LINE
  5
136D
330
1363
100
AcDbEntity
  8
DIMENSION
100
AcDbLine
 10
45.75000000000009
 20
47.00000000000001
 30
0.0
 11
45.75000000000009
 21
44.70000000000001
 31
0.0
  0
INSERT
  5
136E
330
1363
100
AcDbEntity
  8
DIMENSION
100
AcDbBlockReference
  2
_OPEN30
 10
45.75000000000009
 20
47.00000000000001
 30
0.0
 50
270.0
  0
INSERT
  5
136F
330
1363
100
AcDbEntity
  8
DIMENSION
100
AcDbBlockReference
  2
_OPEN30
 10
45.75000000000009
 20
44.70000000000001
 30
0.0
 50
90.0
  0
POINT
  5
1370
330
1363
100
AcDbEntity
  8
DEFPOINTS
 62
     0
100
AcDbPoint
 10
50.25000000000009
 20
47.0
 30
0.0
  0
POINT
  5
1371
330
1363
100
AcDbEntity
  8
DEFPOINTS
 62
     0
100
AcDbPoint
 10
58.70698669740002
 20
44.7
 30
0.0
  0
POINT
  5
1372
330
1363
100
AcDbEntity
  8
DEFPOINTS
 62
     0
100
AcDbPoint
 10
45.75000000000009
 20
44.70000000000001
 30
0.0
  0
ENDBLK
  5
1373
330
1363
100
AcDbEntity
  8
0
100
AcDbBlockEnd
  0
BLOCK
  5
13CB
330
136A
100
AcDbEntity
  8
0
100
AcDbBlockBegin
  2
*U64
 70
     1
 10
0.0
 20
0.0
 30
0.0
  3
*U64
  1

  0
TEXT
  5
13CC
330
136A
100
AcDbEntity
  8
DIMENSION
100
AcDbText
 10
45.25000000000008
 20
49.45108823517458
 30
0.0
 40
1.5
  1
2.3
 50
90.0
  7
GOTHIC
100
AcDbText
  0
ENDBLK
  5
13CD
330
136A
100
AcDbEntity
  8
0
100
AcDbBlockEnd
  0
BLOCK
  5
1375
330
1374
100
AcDbEntity
  8
0
100
AcDbBlockBegin
  2
*D65
 70
     1
 10
0.0
 20
0.0
 30
0.0
  3
*D65
  1

  0
LINE
  5
1376
330
1374
100
AcDbEntity
  8
DIMENSION
100
AcDbLine
 10
74.75106704428973
 20
74.42273063085965
 30
0.0
 11
73.74893295571038
 21
72.57726936914015
 31
0.0
  0
LINE
  5
1377
330
1374
100
AcDbEntity
  8
DIMENSION
100
AcDbLine
 10
73.27172624686305
 20
71.69847829213091
 30
0.0
 11
68.54822335025378
 21
62.99999999999997
 31
0.0
  0
LINE
  5
1378
330
1374
100
AcDbEntity
  8
DIMENSION
100
AcDbLine
 10
68.54822335025378
 20
62.99999999999997
 30
0.0
 11
63.95177664974617
 21
62.99999999999998
 31
0.0
  0
INSERT
  5
1379
330
1374
100
AcDbEntity
  8
DIMENSION
100
AcDbBlockReference
  2
_OPEN30
 10
75.22827375313706
 20
75.30152170786895
 30
0.0
 50
61.49687387470668
  0
INSERT
  5
137A
330
1374
100
AcDbEntity
  8
DIMENSION
100
AcDbBlockReference
  2
_OPEN30
 10
73.27172624686305
 20
71.69847829213091
 30
0.0
 50
241.4968738747067
  0
INSERT
  5
137C
330
1374
100
AcDbEntity
  8
0
100
AcDbBlockReference
  2
*U66
 10
0.0
 20
0.0
 30
0.0
  0
POINT
  5
137D
330
1374
100
AcDbEntity
  8
DEFPOINTS
 62
     0
100
AcDbPoint
 10
73.27172624686305
 20
71.69847829213091
 30
0.0
  0
POINT
  5
137E
330
1374
100
AcDbEntity
  8
DEFPOINTS
 62
     0
100
AcDbPoint
 10
75.22827375313706
 20
75.30152170786895
 30
0.0
  0
ENDBLK
  5
137F
330
1374
100
AcDbEntity
  8
0
100
AcDbBlockEnd
  0
BLOCK
  5
13E3
330
137B
100
AcDbEntity
  8
0
100
AcDbBlockBegin
  2
*U66
 70
     1
 10
0.0
 20
0.0
 30
0.0
  3
*U66
  1

  0
TEXT
  5
13E4
330
137B
100
AcDbEntity
  8
DIMENSION
100
AcDbText
 10
63.55583756345176
 20
63.743654822335
 30
0.0
 40
1.5
  1
φ4.1
  7
GOTHIC
100
AcDbText
  0
ENDBLK
  5
13E5
330
137B
100
AcDbEntity
  8
0
100
AcDbBlockEnd
  0
BLOCK
  5
13C0
330
13BF
100
AcDbEntity
  8
0
100
AcDbBlockBegin
  2
*U67
 70
     1
 10
0.0
 20
0.0
 30
0.0
  3
*U67
  1

  0
TEXT
  5
13C1
330
13BF
100
AcDbEntity
  8
DIMENSION
 62
     3
100
AcDbText
 10
39.25483846831591
 20
72.66943277407611
 30
0.0
 40
1.5
  1
90°
 50
90.0
  7
GOTHIC
100
AcDbText
  0
ENDBLK
  5
13C2
330
13BF
100
AcDbEntity
  8
0
100
AcDbBlockEnd
  0
BLOCK
  5
1495
330
1487
100
AcDbEntity
  8
0
100
AcDbBlockBegin
  2
*D68
 70
     1
 10
0.0
 20
0.0
 30
0.0
  3
*D68
  1

  0
LINE
  5
14A8
330
1487
100
AcDbEntity
  8
DIMENSION
 62
     0
100
AcDbLine
 10
24.10164880763442
 20
79.87500000000003
 30
0.0
 11
24.10164880763442
 21
85.28937451801368
 31
0.0
  0
LINE
  5
14A9
330
1487
100
AcDbEntity
  8
DIMENSION
 62
     0
100
AcDbLine
 10
21.55744185232861
 20
79.49377597480237
 30
0.0
 11
19.49517319802819
 21
84.3521764630001
 31
0.0
  0
ARC
  5
14AA
330
1487
100
AcDbEntity
  8
DIMENSION
 62
     0
100
AcDbCircle
 10
24.10164880763443
 20
73.49999999999997
 30
0.0
 40
10.5393745180137
100
AcDbArc
 50
62.55664277486409
 51
90.0
  0
LINE
  5
14AB
330
1487
100
AcDbEntity
  8
DIMENSION
 62
     0
100
AcDbLine
 10
28.95894600576456
 20
82.8533458804854
 30
0.0
 11
37.16801469827704
 21
78.59028463278896
 31
0.0
  0
ARC
  5
14AC
330
1487
100
AcDbEntity
  8
DIMENSION
 62
     0
100
AcDbCircle
 10
24.10164880763443
 20
73.49999999999997
 30
0.0
 40
10.5393745180137
100
AcDbArc
 50
62.75409304464376
 51
76.37704652232187
  0
ARC
  5
14AD
330
1487
100
AcDbEntity
  8
DIMENSION
 62
     0
100
AcDbCircle
 10
24.10164880763443
 20
73.49999999999997
 30
0.0
 40
10.5393745180137
100
AcDbArc
 50
126.6229534776783
 51
140.2459069553565
  0
ARC
  5
14AE
330
1487
100
AcDbEntity
  8
DIMENSION
 62
     0
100
AcDbCircle
 10
24.10164880763443
 20
73.49999999999997
 30
0.0
 40
10.5393745180137
100
AcDbArc
 50
90.0
 51
113.0000000000002
  0
SOLID
  5
14AF
330
1487
100
AcDbEntity
  8
DIMENSION
 62
     0
100
AcDbTrace
 10
26.53458537537968
 20
83.32914162069124
 30
0.0
 11
26.63342109517371
 21
84.15659309657199
 31
0.0
 12
24.10164880763442
 22
84.03937451801368
 32
0.0
 13
24.10164880763442
 23
84.03937451801368
 33
0.0
  0
SOLID
  5
14B0
330
1487
100
AcDbEntity
  8
DIMENSION
 62
     0
100
AcDbTrace
 10
17.60727748264351
 20
82.32020342367418
 30
0.0
 11
18.02156729134937
 21
81.5971485164597
 31
0.0
 12
19.98358710863979
 22
83.20154539618455
 32
0.0
 13
19.98358710863979
 23
83.20154539618455
 33
0.0
  0
MTEXT
  5
14B1
330
1487
100
AcDbEntity
  8
DIMENSION
 62
     0
100
AcDbMText
 10
33.92761438871603
 20
82.38581566728161
 30
0.0
 40
2.5
 41
0.0
 71
     5
 72
     1
  1
\A1;23°
  7
GOTHIC
 11
0.8874668856770263
 21
-0.4608714862374543
 31
0.0
  0
POINT
  5
14B2
330
1487
100
AcDbEntity
  8
DEFPOINTS
 62
     0
100
AcDbPoint
 10
21.3146781385672
 20
83.66421220364447
 30
0.0
  0
POINT
  5
14B3
330
1487
100
AcDbEntity
  8
DEFPOINTS
 62
     0
100
AcDbPoint
 10
24.10164880763443
 20
73.49999999999997
 30
0.0
  0
POINT
  5
14B4
330
1487
100
AcDbEntity
  8
DEFPOINTS
 62
     0
100
AcDbPoint
 10
24.10164880763442
 20
79.25000000000001
 30
0.0
  0
POINT
  5
14B5
330
1487
100
AcDbEntity
  8
DEFPOINTS
 62
     0
100
AcDbPoint
 10
24.10164880763443
 20
73.49999999999997
 30
0.0
  0
POINT
  5
14B6
330
1487
100
AcDbEntity
  8
DEFPOINTS
 62
     0
100
AcDbPoint
 10
21.80164880763441
 20
78.9184604413946
 30
0.0
  0
ENDBLK
  5
1496
330
1487
100
AcDbEntity
  8
0
100
AcDbBlockEnd
  0
ENDSEC
  0
SECTION
  2
ENTITIES
  0
TEXT
  5
13E6
330
1105
100
AcDbEntity
  8
TEXT
100
AcDbText
 10
15.0
 20
36.75
 30
0.0
 40
1.5
  1
◇ブレード仕様
  7
GOTHIC
 11
15.0
 21
37.5
 31
0.0
100
AcDbText
 73
     2
  0
TEXT
  5
13E7
330
1105
100
AcDbEntity
  8
TEXT
100
AcDbText
 10
18.0
 20
33.75
 30
0.0
 40
1.5
  1
切刃有効長　＝　11
  7
GOTHIC
 11
18.0
 21
34.5
 31
0.0
100
AcDbText
 73
     2
  0
TEXT
  5
13E8
330
1105
100
AcDbEntity
  8
TEXT
100
AcDbText
 10
18.0
 20
30.75
 30
0.0
 40
1.5
  1
刃開き最大　＝　 3
  7
GOTHIC
 11
18.0
 21
31.5
 31
0.0
100
AcDbText
 73
     2
  0
LINE
  5
13E9
330
1105
100
AcDbEntity
  8
TEXT
100
AcDbLine
 10
18.0
 20
33.0
 30
0.0
 11
36.0
 21
33.0
 31
0.0
  0
LINE
  5
13EA
330
1105
100
AcDbEntity
  8
TEXT
100
AcDbLine
 10
18.0
 20
30.0
 30
0.0
 11
36.0
 21
30.0
 31
0.0
  0
TEXT
  5
13EB
330
1105
100
AcDbEntity
  8
TEXT
100
AcDbText
 10
21.0
 20
48.75
 30
0.0
 40
1.5
  1
ＮＴ０３ＡＪＴ
  7
GOTHIC
 11
21.0
 21
49.5
 31
0.0
100
AcDbText
 73
     2
  0
TEXT
  5
13ED
330
1105
100
AcDbEntity
  8
TEXT
100
AcDbText
 10
21.0
 20
42.75
 30
0.0
 40
1.5
  1
2005/03/22
  7
GOTHIC
 11
21.0
 21
43.5
 31
0.0
100
AcDbText
 73
     2
  0
LINE
  5
13EE
330
1105
100
AcDbEntity
  8
CENTER
100
AcDbLine
 10
74.25000000000007
 20
80.94496302382593
 30
0.0
 11
74.25000000000007
 21
66.21235668150392
 31
0.0
  0
LINE
  5
13EF
330
1105
100
AcDbEntity
  8
CENTER
100
AcDbLine
 10
15.19675874860751
 20
73.5
 30
0.0
 11
25.47324670362093
 21
73.5
 31
0.0
  0
ARC
  5
13F0
330
1105
100
AcDbEntity
  8
LINE
  6
BYBLOCK
100
AcDbCircle
 10
74.25000000000007
 20
73.49999999999998
 30
0.0
 40
8.5
100
AcDbArc
 50
317.4315457967068
 51
0.0
  0
LINE
  5
13F1
330
1105
100
AcDbEntity
  8
LINE
100
AcDbLine
 10
63.25000000000009
 20
73.49999999999998
 30
0.0
 11
63.25000000000009
 21
73.49999999999998
 31
0.0
  0
LINE
  5
13F2
330
1105
100
AcDbEntity
  8
LINE
100
AcDbLine
 10
63.75000000000007
 20
72.99999999999998
 30
0.0
 11
65.2500000000001
 21
72.99999999999998
 31
0.0
  0
LINE
  5
13F3
330
1105
100
AcDbEntity
  8
LINE
100
AcDbLine
 10
65.75000000000009
 20
73.49999999999998
 30
0.0
 11
65.75000000000009
 21
73.49999999999998
 31
0.0
  0
ARC
  5
13F4
330
1105
100
AcDbEntity
  8
LINE
100
AcDbCircle
 10
65.2500000000001
 20
73.49999999999998
 30
0.0
 40
0.5
100
AcDbArc
 50
270.0
 51
0.0
  0
ARC
  5
13F5
330
1105
100
AcDbEntity
  8
LINE
100
AcDbCircle
 10
63.75000000000007
 20
73.49999999999998
 30
0.0
 40
0.5
100
AcDbArc
 50
180.0
 51
270.0
  0
ARC
  5
13F6
330
1105
100
AcDbEntity
  8
LINE
100
AcDbCircle
 10
63.75000000000007
 20
73.49999999999998
 30
0.0
 40
0.5
100
AcDbArc
 50
90.0
 51
180.0
  0
ARC
  5
13F7
330
1105
100
AcDbEntity
  8
LINE
100
AcDbCircle
 10
65.2500000000001
 20
73.49999999999998
 30
0.0
 40
0.5
100
AcDbArc
 50
0.0
 51
90.0
  0
LINE
  5
13F8
330
1105
100
AcDbEntity
  8
LINE
100
AcDbLine
 10
65.75000000000009
 20
73.49999999999998
 30
0.0
 11
65.75000000000009
 21
73.49999999999998
 31
0.0
  0
LINE
  5
13F9
330
1105
100
AcDbEntity
  8
LINE
100
AcDbLine
 10
63.75000000000007
 20
73.99999999999998
 30
0.0
 11
65.2500000000001
 21
73.99999999999998
 31
0.0
  0
LINE
  5
13FA
330
1105
100
AcDbEntity
  8
LINE
100
AcDbLine
 10
63.25000000000009
 20
73.49999999999998
 30
0.0
 11
63.25000000000009
 21
73.49999999999998
 31
0.0
  0
ARC
  5
13FB
330
1105
100
AcDbEntity
  8
LINE
  6
BYBLOCK
100
AcDbCircle
 10
74.25000000000007
 20
73.49999999999998
 30
0.0
 40
9.0
100
AcDbArc
 50
320.2909834469317
 51
354.6317953008377
  0
CIRCLE
  5
13FC
330
1105
100
AcDbEntity
  8
LINE
  6
BYBLOCK
100
AcDbCircle
 10
74.25000000000007
 20
73.49999999999998
 30
0.0
 40
2.049999999999998
  0
ARC
  5
13FD
330
1105
100
AcDbEntity
  8
LINE
  6
BYBLOCK
100
AcDbCircle
 10
74.25000000000007
 20
73.49999999999998
 30
0.0
 40
9.0
100
AcDbArc
 50
140.2909834469317
 51
176.816491646828
  0
ARC
  5
13FE
330
1105
100
AcDbEntity
  8
LINE
  6
BYBLOCK
100
AcDbCircle
 10
74.25000000000007
 20
73.49999999999998
 30
0.0
 40
8.5
100
AcDbArc
 50
137.4315457967064
 51
180.0
  0
LINE
  5
13FF
330
1105
100
AcDbEntity
  8
LINE
100
AcDbLine
 10
24.10164880763443
 20
79.25000000000001
 30
0.0
 11
24.10164880763443
 21
73.5
 31
0.0
  0
LINE
  5
1400
330
1105
100
AcDbEntity
  8
LINE
100
AcDbLine
 10
17.10164880763443
 20
73.5
 30
0.0
 11
17.10164880763443
 21
79.25000000000001
 31
0.0
  0
LINE
  5
1401
330
1105
100
AcDbEntity
  8
LINE
100
AcDbLine
 10
17.10164880763443
 20
74.0
 30
0.0
 11
23.88941139952962
 21
74.00000000000002
 31
0.0
  0
LINE
  5
1402
330
1105
100
AcDbEntity
  8
LINE
100
AcDbLine
 10
24.10164880763443
 20
75.0
 30
0.0
 11
24.10164880763443
 21
73.5
 31
0.0
  0
LINE
  5
1403
330
1105
100
AcDbEntity
  8
LINE
100
AcDbLine
 10
24.10164880763443
 20
73.5
 30
0.0
 11
24.10164880763443
 21
73.5
 31
0.0
  0
LINE
  5
1404
330
1105
100
AcDbEntity
  8
LINE
100
AcDbLine
 10
20.60164880763442
 20
73.5
 30
0.0
 11
20.60164880763442
 21
74.0
 31
0.0
  0
LINE
  5
1405
330
1105
100
AcDbEntity
  8
LINE
100
AcDbLine
 10
20.60164880763442
 20
73.5
 30
0.0
 11
20.60164880763442
 21
73.0
 31
0.0
  0
LINE
  5
1406
330
1105
100
AcDbEntity
  8
LINE
100
AcDbLine
 10
24.10164880763443
 20
73.5
 30
0.0
 11
24.10164880763443
 21
73.5
 31
0.0
  0
LINE
  5
1407
330
1105
100
AcDbEntity
  8
LINE
100
AcDbLine
 10
17.10164880763443
 20
73.0
 30
0.0
 11
23.88941139952962
 21
72.99999999999998
 31
0.0
  0
LINE
  5
1408
330
1105
100
AcDbEntity
  8
CENTER
100
AcDbLine
 10
63.25000000000009
 20
73.50000000000001
 30
0.0
 11
106.2500000000001
 21
73.49999999999993
 31
0.0
  0
LINE
  5
1409
330
1105
100
AcDbEntity
  8
LINE
100
AcDbLine
 10
51.25000000000007
 20
73.5
 30
0.0
 11
63.25000000000009
 21
73.49999999999998
 31
0.0
  0
TEXT
  5
140A
330
1105
100
AcDbEntity
  8
TEXT
100
AcDbText
 10
69.91601295855867
 20
69.2920840877438
 30
0.0
 40
1.5
  1
Ｖ
 50
127.5000000000002
  7
GOTHIC
 72
     1
 11
68.89486495303413
 21
69.39086035419112
 31
0.0
100
AcDbText
 73
     2
  0
TEXT
  5
140B
330
1105
100
AcDbEntity
  8
TEXT
100
AcDbText
 10
68.95546703596959
 20
70.60337770967707
 30
0.0
 40
1.5
  1
Ｅ
 50
112.4999999999995
  7
GOTHIC
 72
     1
 11
68.01381315554881
 21
70.91688683153559
 31
0.0
100
AcDbText
 73
     2
  0
TEXT
  5
140C
330
1105
100
AcDbEntity
  8
TEXT
100
AcDbText
 10
68.39269916631117
 20
72.02283144371796
 30
0.0
 40
1.5
  1
Ｓ
 50
97.49999999999971
  7
GOTHIC
 72
     1
 11
67.55774718572678
 21
72.61894820251459
 31
0.0
100
AcDbText
 73
     2
  0
TEXT
  5
140D
330
1105
100
AcDbEntity
  8
TEXT
100
AcDbText
 10
68.20996249720311
 20
73.5891457503586
 30
0.0
 40
1.5
  1
Ｓ
 50
82.5000000000003
  7
GOTHIC
 72
     1
 11
67.55774718572678
 21
74.3810517974853
 31
0.0
100
AcDbText
 73
     2
  0
TEXT
  5
140E
330
1105
100
AcDbEntity
  8
TEXT
100
AcDbText
 10
68.45797857389499
 20
75.19557889805811
 30
0.0
 40
1.5
  1
Ｅ
 50
67.50000000000042
  7
GOTHIC
 72
     1
 11
68.01381315554883
 21
76.08311316846426
 31
0.0
100
AcDbText
 73
     2
  0
TEXT
  5
140F
330
1105
100
AcDbEntity
  8
TEXT
100
AcDbText
 10
69.0637469579465
 20
76.59722123584836
 30
0.0
 40
1.5
  1
Ｌ
 50
52.49999999999982
  7
GOTHIC
 72
     1
 11
68.89486495303419
 21
77.60913964580876
 31
0.0
100
AcDbText
 73
     2
  0
TEXT
  5
1410
330
1105
100
AcDbEntity
  8
TEXT
100
AcDbText
 10
80.84159499032848
 20
76.55510379210856
 30
0.0
 40
1.5
  1
Ｊ
 50
120.0000000000001
  7
GOTHIC
 72
     1
 11
79.86707593749014
 21
76.74302030456845
 31
0.0
100
AcDbText
 73
     2
  0
TEXT
  5
1411
330
1105
100
AcDbEntity
  8
TEXT
100
AcDbText
 10
81.42065183601372
 20
74.6966770423775
 30
0.0
 40
1.5
  1
Ａ
 50
104.9999999999996
  7
GOTHIC
 72
     1
 11
80.51503413472515
 21
75.17871083695296
 31
0.0
100
AcDbText
 73
     2
  0
TEXT
  5
1412
330
1105
100
AcDbEntity
  8
TEXT
100
AcDbText
 10
81.54695431472076
 20
72.79999999999994
 30
0.0
 40
1.5
  1
３
 50
89.9999999999992
  7
GOTHIC
 72
     1
 11
80.79695431472078
 21
73.49999999999996
 31
0.0
100
AcDbText
 73
     2
  0
TEXT
  5
1413
330
1105
100
AcDbEntity
  8
TEXT
100
AcDbText
 10
81.13008424652365
 20
70.98355746501926
 30
0.0
 40
1.5
  1
０
 50
75.00000000000042
  7
GOTHIC
 72
     1
 11
80.57387225612348
 21
71.80552353593404
 31
0.0
100
AcDbText
 73
     2
  0
TEXT
  5
1414
330
1105
100
AcDbEntity
  8
TEXT
100
AcDbText
 10
80.16659499032853
 20
69.27576191278228
 30
0.0
 40
1.5
  1
Ｔ
 50
59.99999999999985
  7
GOTHIC
 72
     1
 11
79.8670759374902
 21
70.2569796954314
 31
0.0
100
AcDbText
 73
     2
  0
TEXT
  5
1415
330
1105
100
AcDbEntity
  8
TEXT
100
AcDbText
 10
78.88603613492668
 20
67.87401437141214
 30
0.0
 40
1.5
  1
Ｎ
 50
45.00000000000057
  7
GOTHIC
 72
     1
 11
78.85068079586734
 21
68.89931920413264
 31
0.0
100
AcDbText
 73
     2
  0
LINE
  5
1416
330
1105
100
AcDbEntity
  8
LINE
100
AcDbLine
 10
17.10164880763443
 20
79.25
 30
0.0
 11
24.10164880763443
 21
79.25
 31
0.0
  0
LINE
  5
1417
330
1105
100
AcDbEntity
  8
LINE
100
AcDbLine
 10
23.67717399142482
 20
74.5
 30
0.0
 11
24.10164880763443
 21
74.5
 31
0.0
  0
LINE
  5
1418
330
1105
100
AcDbEntity
  8
LINE
100
AcDbLine
 10
23.67717399142482
 20
72.5
 30
0.0
 11
24.10164880763443
 21
72.5
 31
0.0
  0
LINE
  5
1419
330
1105
100
AcDbEntity
  8
LINE
100
AcDbLine
 10
17.10164880763443
 20
67.75
 30
0.0
 11
24.10164880763443
 21
67.75
 31
0.0
  0
LINE
  5
141A
330
1105
100
AcDbEntity
  8
LINE
100
AcDbLine
 10
24.10164880763443
 20
73.5
 30
0.0
 11
24.10164880763443
 21
73.5
 31
0.0
  0
LINE
  5
141B
330
1105
100
AcDbEntity
  8
LINE
100
AcDbLine
 10
20.60164880763442
 20
73.5
 30
0.0
 11
20.60164880763442
 21
73.0
 31
0.0
  0
LINE
  5
141C
330
1105
100
AcDbEntity
  8
LINE
100
AcDbLine
 10
24.10164880763443
 20
73.5
 30
0.0
 11
24.10164880763443
 21
73.5
 31
0.0
  0
LINE
  5
141D
330
1105
100
AcDbEntity
  8
LINE
100
AcDbLine
 10
24.10164880763443
 20
72.0
 30
0.0
 11
24.10164880763443
 21
73.5
 31
0.0
  0
LINE
  5
141E
330
1105
100
AcDbEntity
  8
LINE
100
AcDbLine
 10
17.10164880763443
 20
73.0
 30
0.0
 11
23.68209899204578
 21
73.0
 31
0.0
  0
LINE
  5
141F
330
1105
100
AcDbEntity
  8
LINE
100
AcDbLine
 10
17.10164880763443
 20
73.5
 30
0.0
 11
17.10164880763443
 21
67.74999999999998
 31
0.0
  0
LINE
  5
1420
330
1105
100
AcDbEntity
  8
LINE
100
AcDbLine
 10
24.10164880763443
 20
67.74999999999998
 30
0.0
 11
24.10164880763443
 21
73.5
 31
0.0
  0
CIRCLE
  5
1421
330
1105
100
AcDbEntity
  8
LINE
100
AcDbCircle
 10
74.25000000000007
 20
73.5
 30
0.0
 40
4.75
  0
LINE
  5
1422
330
1105
100
AcDbEntity
  8
LINE
100
AcDbLine
 10
63.18976429460761
 20
79.25
 30
0.0
 11
82.25000000000006
 21
79.25
 31
0.0
  0
LINE
  5
1423
330
1105
100
AcDbEntity
  8
LINE
100
AcDbLine
 10
109.25
 20
74.5
 30
0.0
 11
109.25
 21
73.5
 31
0.0
  0
ARC
  5
1424
330
1105
100
AcDbEntity
  8
LINE
100
AcDbCircle
 10
63.18976429460761
 20
59.25
 30
0.0
 40
20.0
100
AcDbArc
 50
90.0
 51
130.3149091747084
  0
LINE
  5
1425
330
1105
100
AcDbEntity
  8
LINE
100
AcDbLine
 10
50.25000000000009
 20
74.5
 30
0.0
 11
51.25000000000007
 21
73.5
 31
0.0
  0
LINE
  5
1426
330
1105
100
AcDbEntity
  8
LINE
100
AcDbLine
 10
82.75000000000007
 20
73.50000000000001
 30
0.0
 11
82.75000000000007
 21
73.50000000000003
 31
0.0
  0
LINE
  5
1427
330
1105
100
AcDbEntity
  8
LINE
100
AcDbLine
 10
83.50000000000006
 20
74.25000000000003
 30
0.0
 11
105.5000000000001
 21
74.25000000000003
 31
0.0
  0
LINE
  5
1428
330
1105
100
AcDbEntity
  8
LINE
100
AcDbLine
 10
106.2500000000001
 20
73.50000000000001
 30
0.0
 11
106.2500000000001
 21
73.5
 31
0.0
  0
ARC
  5
1429
330
1105
100
AcDbEntity
  8
LINE
100
AcDbCircle
 10
83.50000000000006
 20
73.50000000000003
 30
0.0
 40
0.75
100
AcDbArc
 50
90.0
 51
180.0
  0
ARC
  5
142A
330
1105
100
AcDbEntity
  8
LINE
100
AcDbCircle
 10
105.5000000000001
 20
73.50000000000001
 30
0.0
 40
0.75
100
AcDbArc
 50
0.0
 51
90.0
  0
ARC
  5
142B
330
1105
100
AcDbEntity
  8
LINE
100
AcDbCircle
 10
105.5000000000001
 20
73.49999999999996
 30
0.0
 40
0.75
100
AcDbArc
 50
270.0
 51
0.0
  0
ARC
  5
142C
330
1105
100
AcDbEntity
  8
LINE
100
AcDbCircle
 10
83.5000000000001
 20
73.49999999999998
 30
0.0
 40
0.75
100
AcDbArc
 50
180.0
 51
270.0
  0
LINE
  5
142D
330
1105
100
AcDbEntity
  8
LINE
100
AcDbLine
 10
106.2500000000001
 20
73.49999999999996
 30
0.0
 11
106.2500000000001
 21
73.49999999999997
 31
0.0
  0
LINE
  5
142E
330
1105
100
AcDbEntity
  8
LINE
100
AcDbLine
 10
83.5000000000001
 20
72.74999999999998
 30
0.0
 11
105.5000000000001
 21
72.74999999999993
 31
0.0
  0
LINE
  5
142F
330
1105
100
AcDbEntity
  8
LINE
100
AcDbLine
 10
82.75000000000011
 20
73.5
 30
0.0
 11
82.75000000000011
 21
73.49999999999998
 31
0.0
  0
LINE
  5
1430
330
1105
100
AcDbEntity
  8
LINE
100
AcDbLine
 10
109.25
 20
72.49999999999997
 30
0.0
 11
109.25
 21
73.49999999999997
 31
0.0
  0
LINE
  5
1431
330
1105
100
AcDbEntity
  8
LINE
100
AcDbLine
 10
63.1897642946076
 20
67.75000000000007
 30
0.0
 11
82.25000000000004
 21
67.75000000000002
 31
0.0
  0
ARC
  5
1432
330
1105
100
AcDbEntity
  8
LINE
100
AcDbCircle
 10
63.18976429460764
 20
87.74999999999998
 30
0.0
 40
20.0
100
AcDbArc
 50
229.6850908252909
 51
270.0
  0
LINE
  5
1433
330
1105
100
AcDbEntity
  8
LINE
100
AcDbLine
 10
50.25000000000006
 20
72.50000000000001
 30
0.0
 11
51.25000000000007
 21
73.5
 31
0.0
  0
LINE
  5
1434
330
1105
100
AcDbEntity
  8
CENTER
100
AcDbLine
 10
49.81447804305671
 20
73.5
 30
0.0
 11
51.25000000000007
 21
73.5
 31
0.0
  0
DIMENSION
  5
1435
330
1105
100
AcDbEntity
  8
DIMENSION
100
AcDbDimension
  2
*D45
 10
45.75000000000009
 20
72.50000000000001
 30
0.0
 11
44.50000000000008
 21
73.50000000000003
 31
0.0
  3
ISO-25
100
AcDbAlignedDimension
 13
50.25000000000009
 23
74.5
 33
0.0
 14
50.25000000000009
 24
72.50000000000001
 34
0.0
 50
90.0
100
AcDbRotatedDimension
  0
LINE
  5
1436
330
1105
100
AcDbEntity
  8
DIMENSION
 62
     3
100
AcDbLine
 10
50.25000000000009
 20
74.5
 30
0.0
 11
42.0562255612196
 21
82.69377443878045
 31
0.0
  0
LINE
  5
1437
330
1105
100
AcDbEntity
  8
DIMENSION
 62
     3
100
AcDbLine
 10
50.25000000000006
 20
72.50000000000001
 30
0.0
 11
42.05622556121944
 21
64.30622556121964
 31
0.0
  0
ARC
  5
1438
330
1105
100
AcDbEntity
  8
DIMENSION
 62
     3
100
AcDbCircle
 10
51.25000000000007
 20
73.5
 30
0.0
 40
11.50196050072245
100
AcDbArc
 50
139.9829627148529
 51
220.0170372851458
  0
INSERT
  5
1439
330
1105
100
AcDbEntity
  8
DIMENSION
 62
     3
100
AcDbBlockReference
  2
_OPEN30
 10
43.11688573299941
 20
81.63311426700065
 30
0.0
 50
47.49148135742673
  0
INSERT
  5
143A
330
1105
100
AcDbEntity
  8
DIMENSION
 62
     3
100
AcDbBlockReference
  2
_OPEN30
 10
43.11688573299927
 20
65.36688573299946
 30
0.0
 50
312.5085186425726
  0
INSERT
  5
143B
330
1105
100
AcDbEntity
  8
0
100
AcDbBlockReference
  2
*U67
 10
0.0
 20
0.0
 30
0.0
  0
INSERT
  5
143C
330
1105
100
AcDbEntity
  8
DIMENSION
100
AcDbBlockReference
  2
_OPEN30
 10
57.57654078332063
 20
68.55386179950937
 30
0.0
 50
71.12175098793645
1001
ACAD
1000
DSTYLE
1002
{
1070
   147
1040
0.5
1070
    77
1070
     1
1002
}
  0
POLYLINE
  5
143D
330
1105
100
AcDbEntity
  8
DIMENSION
100
AcDb2dPolyline
 66
     1
 10
0.0
 20
0.0
 30
0.0
1001
ACAD
1000
DSTYLE
1002
{
1070
   147
1040
0.5
1070
    77
1070
     1
1002
}
  0
VERTEX
  5
143E
330
143D
100
AcDbEntity
  8
DIMENSION
100
AcDbVertex
100
AcDb2dVertex
 10
57.25298254739108
 20
67.60765354126906
 30
0.0
  0
VERTEX
  5
143F
330
143D
100
AcDbEntity
  8
DIMENSION
100
AcDbVertex
100
AcDb2dVertex
 10
55.75000000000009
 20
63.21235668150393
 30
0.0
  0
VERTEX
  5
1440
330
143D
100
AcDbEntity
  8
DIMENSION
100
AcDbVertex
100
AcDb2dVertex
 10
51.02833602260382
 20
63.21235668150393
 30
0.0
  0
SEQEND
  5
1441
330
143D
100
AcDbEntity
  8
DIMENSION
  0
TEXT
  5
1442
330
1105
100
AcDbEntity
  8
DIMENSION
100
AcDbText
 10
51.75000000000006
 20
63.9623566815039
 30
0.0
 40
1.5
  1
R20
  7
GOTHIC
 11
51.75000000000006
 21
64.71235668150391
 31
0.0
100
AcDbText
 73
     2
  0
DIMENSION
  5
1443
330
1105
100
AcDbEntity
  8
DIMENSION
100
AcDbDimension
  2
*D47
 10
12.75
 20
67.75
 30
0.0
 11
11.49999999999998
 21
73.5
 31
0.0
  3
ISO-25
100
AcDbAlignedDimension
 13
17.10164880763443
 23
79.25000000000001
 33
0.0
 14
17.10164880763443
 24
67.75
 34
0.0
 50
90.0
100
AcDbRotatedDimension
  0
LINE
  5
1444
330
1105
100
AcDbEntity
  8
CENTER
100
AcDbLine
 10
109.25
 20
73.49999999999998
 30
0.0
 11
110.7953604072249
 21
73.49999999999998
 31
0.0
  0
LINE
  5
1445
330
1105
100
AcDbEntity
  8
LINE
100
AcDbLine
 10
106.2500000000001
 20
73.49999999999993
 30
0.0
 11
109.25
 21
73.49999999999997
 31
0.0
  0
DIMENSION
  5
1446
330
1105
100
AcDbEntity
  8
DIMENSION
100
AcDbDimension
  2
*D49
 10
74.25000000000007
 20
87.0
 30
0.0
 11
62.25000000000008
 21
88.25000000000001
 31
0.0
  3
ISO-25
100
AcDbAlignedDimension
 13
50.25000000000009
 23
74.5
 33
0.0
 14
74.25000000000007
 24
80.94496302382593
 34
0.0
100
AcDbRotatedDimension
1001
ACAD
1000
DSTYLE
1002
{
1070
    75
1070
     0
1002
}
  0
TEXT
  5
1447
330
1105
100
AcDbEntity
  8
TEXT
100
AcDbText
 10
79.94220958855137
 20
78.20226009489056
 30
0.0
 40
1.5
  1
Ｔ
 50
135.0
  7
GOTHIC
 72
     1
 11
78.91690475583089
 21
78.16690475583122
 31
0.0
100
AcDbText
 73
     2
  0
DIMENSION
  5
1448
330
1105
100
AcDbEntity
  8
DIMENSION
100
AcDbDimension
  2
*D51
 10
63.25000000000009
 20
82.5
 30
0.0
 11
56.75000000000006
 21
83.75
 31
0.0
  3
ISO-25
100
AcDbAlignedDimension
 13
50.25000000000009
 23
74.5
 33
0.0
 14
63.25000000000009
 24
73.50000000000001
 34
0.0
100
AcDbRotatedDimension
1001
ACAD
1000
DSTYLE
1002
{
1070
    75
1070
     1
1002
}
  0
DIMENSION
  5
1449
330
1105
100
AcDbEntity
  8
DIMENSION
100
AcDbDimension
  2
*D53
 10
74.25000000000007
 20
82.5
 30
0.0
 11
68.7500000000001
 21
83.75
 31
0.0
  3
ISO-25
100
AcDbAlignedDimension
 13
63.25000000000009
 23
73.50000000000001
 33
0.0
 14
74.25000000000007
 24
80.94496302382593
 34
0.0
100
AcDbRotatedDimension
1001
ACAD
1000
DSTYLE
1002
{
1070
    76
1070
     1
1070
    75
1070
     1
1002
}
  0
LINE
  5
144A
330
1105
100
AcDbEntity
  8
LINE
100
AcDbLine
 10
21.80164880763442
 20
79.25
 30
0.0
 11
21.80164880763442
 21
78.9184604413946
 31
0.0
  0
LINE
  5
144B
330
1105
100
AcDbEntity
  8
LINE
100
AcDbLine
 10
24.10164880763443
 20
73.5
 30
0.0
 11
21.80164880763442
 21
78.9184604413946
 31
0.0
  0
LINE
  5
144C
330
1105
100
AcDbEntity
  8
LINE
100
AcDbLine
 10
24.10164880763443
 20
73.5
 30
0.0
 11
21.80164880763442
 21
68.08153955860537
 31
0.0
  0
LINE
  5
144D
330
1105
100
AcDbEntity
  8
LINE
100
AcDbLine
 10
21.80164880763442
 20
68.08153955860536
 30
0.0
 11
21.80164880763442
 21
67.75
 31
0.0
  0
DIMENSION
  5
144E
330
1105
100
AcDbEntity
  8
DIMENSION
100
AcDbDimension
  2
*D55
 10
24.10164880763443
 20
63.21235668150393
 30
0.0
 11
28.56907727022917
 21
63.20876373100389
 31
0.0
 70
   128
  3
ISO-25
100
AcDbAlignedDimension
 13
21.80164880763442
 23
67.75
 33
0.0
 14
24.10164880763443
 24
67.74999999999998
 34
0.0
100
AcDbRotatedDimension
  0
DIMENSION
  5
144F
330
1105
100
AcDbEntity
  8
DIMENSION
100
AcDbDimension
  2
*D68
 10
21.80164880763442
 20
78.9184604413946
 30
0.0
 11
33.92761438871602
 21
82.38581566728161
 31
0.0
 70
    34
  3
ISO-25
100
AcDb2LineAngularDimension
 13
24.10164880763443
 23
79.25000000000001
 33
0.0
 14
24.10164880763443
 24
73.5
 34
0.0
 15
24.10164880763443
 25
73.5
 35
0.0
 16
21.3146781385672
 26
83.66421220364447
 36
0.0
1001
ACAD
1000
DSTYLE
1002
{
1070
   271
1070
     0
1070
   271
1070
     0
1002
}
  0
LINE
  5
1450
330
1105
100
AcDbEntity
  8
LINE
100
AcDbLine
 10
82.25000000000006
 20
79.25
 30
0.0
 11
104.9478957841738
 21
77.07679721215351
 31
0.0
  0
LINE
  5
1451
330
1105
100
AcDbEntity
  8
LINE
100
AcDbLine
 10
106.4056838833059
 20
76.5316543690672
 30
0.0
 11
109.25
 21
74.5
 31
0.0
  0
ARC
  5
1452
330
1105
100
AcDbEntity
  8
LINE
100
AcDbCircle
 10
104.6619693021487
 20
74.09045395544694
 30
0.0
 40
3.0
100
AcDbArc
 50
54.46232220802638
 51
84.53090502988819
  0
LINE
  5
1453
330
1105
100
AcDbEntity
  8
LINE
100
AcDbLine
 10
82.2500000000002
 20
67.74999999999929
 30
0.0
 11
104.9478957841738
 21
69.92320278784629
 31
0.0
  0
LINE
  5
1454
330
1105
100
AcDbEntity
  8
LINE
100
AcDbLine
 10
106.405683883306
 20
70.46834563093267
 30
0.0
 11
109.25
 21
72.4999999999999
 31
0.0
  0
ARC
  5
1455
330
1105
100
AcDbEntity
  8
LINE
100
AcDbCircle
 10
104.6619693021487
 20
72.90954604455284
 30
0.0
 40
3.0
100
AcDbArc
 50
275.4690949701134
 51
305.5376777919748
  0
LINE
  5
1456
330
1105
100
AcDbEntity
  8
LINE
100
AcDbLine
 10
103.75
 20
77.19148936170205
 30
0.0
 11
107.827841941653
 21
75.51582718453357
 31
0.0
  0
LINE
  5
1457
330
1105
100
AcDbEntity
  8
LINE
100
AcDbLine
 10
103.75
 20
69.80851063829771
 30
0.0
 11
107.827841941653
 21
71.48417281546629
 31
0.0
  0
LINE
  5
1458
330
1105
100
AcDbEntity
  8
CENTER
100
AcDbLine
 10
62.05474627913753
 20
43.5
 30
0.0
 11
67.32630878793696
 21
43.5
 31
0.0
  0
LINE
  5
1459
330
1105
100
AcDbEntity
  8
LINE
100
AcDbLine
 10
108.4820508075689
 20
47.0
 30
0.0
 11
50.25000000000009
 21
47.0
 31
0.0
  0
LINE
  5
145A
330
1105
100
AcDbEntity
  8
LINE
100
AcDbLine
 10
106.7500000000001
 20
46.0
 30
0.0
 11
105.0179491924309
 21
46.99999999999998
 31
0.0
  0
LINE
  5
145B
330
1105
100
AcDbEntity
  8
LINE
100
AcDbLine
 10
106.7500000000001
 20
46.0
 30
0.0
 11
108.4820508075689
 21
46.99999999999998
 31
0.0
  0
LINE
  5
145C
330
1105
100
AcDbEntity
  8
LINE
100
AcDbLine
 10
106.7500000000001
 20
41.0
 30
0.0
 11
108.4820508075689
 21
40.0
 31
0.0
  0
LINE
  5
145D
330
1105
100
AcDbEntity
  8
LINE
100
AcDbLine
 10
106.7500000000001
 20
41.0
 30
0.0
 11
105.0179491924309
 21
40.0
 31
0.0
  0
LINE
  5
145E
330
1105
100
AcDbEntity
  8
LINE
100
AcDbLine
 10
109.25
 20
43.5
 30
0.0
 11
109.25
 21
46.5
 31
0.0
  0
LINE
  5
145F
330
1105
100
AcDbEntity
  8
LINE
100
AcDbLine
 10
109.25
 20
40.49999999999999
 30
0.0
 11
109.25
 21
43.5
 31
0.0
  0
ARC
  5
1460
330
1105
100
AcDbEntity
  8
LINE
100
AcDbCircle
 10
108.25
 20
44.99999999999999
 30
0.0
 40
2.0
100
AcDbArc
 50
146.6742497874554
 51
147.5070396535096
  0
LINE
  5
1461
330
1105
100
AcDbEntity
  8
LINE
100
AcDbLine
 10
107.9061906450034
 20
40.0
 30
0.0
 11
107.9665023920054
 21
40.0
 31
0.0
  0
LINE
  5
1462
330
1105
100
AcDbEntity
  8
LINE
100
AcDbLine
 10
74.25000000000007
 20
43.5
 30
0.0
 11
81.17369121206321
 21
43.5
 31
0.0
  0
LINE
  5
1463
330
1105
100
AcDbEntity
  8
LINE
100
AcDbLine
 10
74.25000000000007
 20
43.5
 30
0.0
 11
67.32630878793696
 21
43.5
 31
0.0
  0
LINE
  5
1464
330
1105
100
AcDbEntity
  8
LINE
100
AcDbLine
 10
50.25000000000009
 20
47.0
 30
0.0
 11
50.25000000000009
 21
46.57599999999999
 31
0.0
  0
LINE
  5
1465
330
1105
100
AcDbEntity
  8
LINE
100
AcDbLine
 10
63.7500000000001
 20
42.7
 30
0.0
 11
63.7500000000001
 21
42.7
 31
0.0
  0
LINE
  5
1466
330
1105
100
AcDbEntity
  8
LINE
100
AcDbLine
 10
61.75000000000011
 20
44.7
 30
0.0
 11
58.70698669740002
 21
44.7
 31
0.0
  0
LINE
  5
1467
330
1105
100
AcDbEntity
  8
LINE
100
AcDbLine
 10
63.75000000000007
 20
39.99999999999999
 30
0.0
 11
108.4820508075689
 21
40.0
 31
0.0
  0
ARC
  5
1468
330
1105
100
AcDbEntity
  8
LINE
100
AcDbCircle
 10
61.75000000000011
 20
42.7
 30
0.0
 40
2.0
100
AcDbArc
 50
0.0
 51
90.0
  0
LINE
  5
1469
330
1105
100
AcDbEntity
  8
CENTER
100
AcDbLine
 10
74.25000000000007
 20
48.75
 30
0.0
 11
74.25000000000007
 21
38.25
 31
0.0
  0
LINE
  5
146A
330
1105
100
AcDbEntity
  8
LINE
100
AcDbLine
 10
67.32630878793696
 20
43.5
 30
0.0
 11
67.32630878793696
 21
39.99999999999999
 31
0.0
  0
LINE
  5
146B
330
1105
100
AcDbEntity
  8
LINE
100
AcDbLine
 10
67.99000798722564
 20
43.5
 30
0.0
 11
67.99000798722564
 21
39.99999999999999
 31
0.0
  0
LINE
  5
146C
330
1105
100
AcDbEntity
  8
LINE
100
AcDbLine
 10
80.50999201277454
 20
47.0
 30
0.0
 11
80.50999201277454
 21
43.5
 31
0.0
  0
LINE
  5
146D
330
1105
100
AcDbEntity
  8
LINE
100
AcDbLine
 10
81.17369121206321
 20
47.0
 30
0.0
 11
81.17369121206321
 21
43.5
 31
0.0
  0
ARC
  5
146E
330
1105
100
AcDbEntity
  8
LINE
100
AcDbCircle
 10
107.8037936351244
 20
45.11851994216582
 30
0.0
 40
2.0
100
AcDbArc
 50
43.68871715068513
 51
70.17620826536262
  0
ARC
  5
146F
330
1105
100
AcDbEntity
  8
LINE
100
AcDbCircle
 10
107.8037936351244
 20
41.88148005783417
 30
0.0
 40
2.0
100
AcDbArc
 50
289.8237917346373
 51
316.3112828493148
  0
LINE
  5
1470
330
1105
100
AcDbEntity
  8
CENTER
100
AcDbLine
 10
81.17369121206321
 20
43.5
 30
0.0
 11
110.4820350336534
 21
43.5
 31
0.0
  0
LINE
  5
1471
330
1105
100
AcDbEntity
  8
LINE
100
AcDbLine
 10
63.7500000000001
 20
42.7
 30
0.0
 11
63.7500000000001
 21
39.99999999999999
 31
0.0
  0
DIMENSION
  5
1472
330
1105
100
AcDbEntity
  8
DIMENSION
100
AcDbDimension
  2
*D59
 10
117.7499999999999
 20
40.0
 30
0.0
 11
115.8591370558375
 21
43.5
 31
0.0
  3
ISO-25
100
AcDbAlignedDimension
 13
108.4820508075689
 23
47.0
 33
0.0
 14
108.4820508075689
 24
40.0
 34
0.0
 50
90.0
100
AcDbRotatedDimension
1001
ACAD
1000
DSTYLE
1002
{
1070
   146
1040
0.8
1070
    47
1040
0.0
1070
    48
1040
0.1
1070
   147
1040
0.5
1070
    72
1070
     0
1070
    71
1070
     1
1002
}
  0
DIMENSION
  5
1473
330
1105
100
AcDbEntity
  8
DIMENSION
100
AcDbDimension
  2
*D61
 10
74.25000000000007
 20
35.25
 30
0.0
 11
69.0000000000001
 21
36.5
 31
0.0
  3
ISO-25
100
AcDbAlignedDimension
 13
63.7500000000001
 23
39.99999999999999
 33
0.0
 14
74.25000000000007
 24
38.25
 34
0.0
100
AcDbRotatedDimension
  0
TEXT
  5
1474
330
1105
100
AcDbEntity
  8
DIMENSION
100
AcDbText
 10
56.94259810967681
 20
40.10736154929221
 30
0.0
 40
1.5
  1
R2
  7
GOTHIC
 11
56.94259810967681
 21
40.85736154929221
 31
0.0
100
AcDbText
 73
     2
  0
ARC
  5
1475
330
1105
100
AcDbEntity
  8
LINE
100
AcDbCircle
 10
58.70698669740002
 20
64.7
 30
0.0
 40
20.0
100
AcDbArc
 50
244.9853909427694
 51
270.0
  0
INSERT
  5
1476
330
1105
100
AcDbEntity
  8
DIMENSION
100
AcDbBlockReference
  2
_OPEN30
 10
63.08122779417033
 20
44.19259256330342
 30
0.0
 50
58.89574807149314
1001
ACAD
1000
DSTYLE
1002
{
1070
   147
1040
0.5
1070
    77
1070
     1
1002
}
  0
POLYLINE
  5
1477
330
1105
100
AcDbEntity
  8
DIMENSION
100
AcDb2dPolyline
 66
     1
 10
0.0
 20
0.0
 30
0.0
1001
ACAD
1000
DSTYLE
1002
{
1070
   147
1040
0.5
1070
    77
1070
     1
1002
}
  0
VERTEX
  5
1478
330
1477
100
AcDbEntity
  8
DIMENSION
100
AcDbVertex
100
AcDb2dVertex
 10
62.56463092301554
 20
43.33636381307768
 30
0.0
  0
VERTEX
  5
1479
330
1477
100
AcDbEntity
  8
DIMENSION
100
AcDbVertex
100
AcDb2dVertex
 10
60.25000000000009
 20
39.5
 30
0.0
  0
VERTEX
  5
147A
330
1477
100
AcDbEntity
  8
DIMENSION
100
AcDbVertex
100
AcDb2dVertex
 10
56.53341216473578
 20
39.5
 30
0.0
  0
SEQEND
  5
147B
330
1477
100
AcDbEntity
  8
DIMENSION
  0
DIMENSION
  5
147C
330
1105
100
AcDbEntity
  8
DIMENSION
100
AcDbDimension
  2
*D63
 10
45.75000000000009
 20
44.70000000000001
 30
0.0
 11
45.75000041446499
 21
50.90159584938778
 31
0.0
 70
   128
  3
ISO-25
100
AcDbAlignedDimension
 13
50.25000000000009
 23
47.0
 33
0.0
 14
58.70698669740002
 24
44.7
 34
0.0
 50
90.0
100
AcDbRotatedDimension
  0
DIMENSION
  5
147D
330
1105
100
AcDbEntity
  8
DIMENSION
100
AcDbDimension
  2
*D65
 10
75.22827375313706
 20
75.30152170786895
 30
0.0
 11
65.99999999999998
 21
62.99999999999997
 31
0.0
 70
   131
  3
ISO-25
100
AcDbDiametricDimension
 15
73.27172624686305
 25
71.69847829213091
 35
0.0
 40
0.0
1001
ACAD
1000
DSTYLE
1002
{
1070
     3
1000
φ<>
1070
   288
1070
     1
1002
}
  0
VIEWPORT
  5
1480
330
1101
100
AcDbEntity
 67
     1
  8
0
100
AcDbViewport
 10
145.3197631835936
 20
101.8222458362579
 30
0.0
 40
391.2734030671862
 41
222.174172088623
 68
     1
 69
     1
1001
ACAD
1000
MVIEW
1002
{
1070
    16
1010
0.0
1020
0.0
1030
0.0
1010
0.0
1020
0.0
1030
1.0
1040
0.0
1040
222.174172088623
1040
145.3197631835936
1040
101.8222458362579
1040
50.0
1040
0.0
1040
0.0
1070
     0
1070
  1000
1070
     1
1070
     1
1070
     0
1070
     0
1070
     0
1070
     0
1040
0.0
1040
0.0
1040
0.0
1040
10.0
1040
10.0
1040
10.0
1040
10.0
1070
     0
1002
{
1002
}
1002
}
  0
ENDSEC
  0
SECTION
  2
OBJECTS
  0
DICTIONARY
  5
10F3
330
0
100
AcDbDictionary
  3
ACAD_GROUP
350
10F4
  3
ACAD_LAYOUT
350
1100
  3
ACAD_MLINESTYLE
350
10FD
  3
ACAD_PLOTSETTINGS
350
10FF
1001
ACAD
1000
TREAT_AS_HARD
1070
     0
1000
TREAT_AS_HARD
1070
     0
  0
DICTIONARY
  5
1485
330
1105
100
AcDbDictionary
  3
ACAD_LAYOUTSELFREF
350
14A7
1001
ACAD
1000
TREAT_AS_HARD
1070
     0
  0
DICTIONARY
  5
1483
330
1101
100
AcDbDictionary
  3
ACAD_LAYOUTSELFREF
350
14A6
1001
ACAD
1000
TREAT_AS_HARD
1070
     0
  0
DICTIONARY
  5
10F4
102
{ACAD_REACTORS
330
10F3
102
}
330
10F3
100
AcDbDictionary
1001
ACAD
1000
TREAT_AS_HARD
1070
     0
1000
TREAT_AS_HARD
1070
     0
  0
DICTIONARY
  5
1100
102
{ACAD_REACTORS
330
10F3
102
}
330
10F3
100
AcDbDictionary
1001
ACAD
1000
TREAT_AS_HARD
1070
     0
1000
TREAT_AS_HARD
1070
     0
  0
DICTIONARY
  5
10FD
102
{ACAD_REACTORS
330
10F3
102
}
330
10F3
100
AcDbDictionary
  3
STANDARD
350
10FE
1001
ACAD
1000
TREAT_AS_HARD
1070
     0
1000
TREAT_AS_HARD
1070
     0
  0
DICTIONARY
  5
10FF
102
{ACAD_REACTORS
330
10F3
102
}
330
10F3
100
AcDbDictionary
1001
ACAD
1000
TREAT_AS_HARD
1070
     0
1000
TREAT_AS_HARD
1070
     0
  0
XRECORD
  5
14A7
102
{ACAD_REACTORS
330
1485
102
}
330
1485
100
AcDbXrecord
340
1105
  0
XRECORD
  5
14A6
102
{ACAD_REACTORS
330
1483
102
}
330
1483
100
AcDbXrecord
340
1101
  0
MLINESTYLE
  5
10FE
102
{ACAD_REACTORS
330
10FD
102
}
330
10FD
100
AcDbMlineStyle
  2
STANDARD
 70
     0
  3

 62
   256
 51
90.0
 52
90.0
 71
     2
 49
0.5
 62
   256
  6
BYLAYER
 49
-0.5
 62
   256
  6
BYLAYER
  0
ENDSEC
  0
EOF
