  0
SECTION
  2
HEADER
  9
$ACADVER
  1
AC1012
  9
$DWGCODEPAGE
  3
dos932
  9
$INSBASE
 10
0.0
 20
0.0
 30
0.0
  9
$EXTMIN
 10
3.978974084811056
 20
0.9869389666558276
 30
-0.0015258207003583
  9
$EXTMAX
 10
283.0056159095904
 20
195.010071272275
 30
0.0000000349246037
  9
$LIMMIN
 10
0.0
 20
0.0
  9
$LIMMAX
 10
297.0
 20
210.0
  9
$ORTHOMODE
 70
     0
  9
$REGENMODE
 70
     1
  9
$FILLMODE
 70
     1
  9
$QTEXTMODE
 70
     0
  9
$MIRRTEXT
 70
     1
  9
$DRAGMODE
 70
     2
  9
$LTSCALE
 40
15.0
  9
$OSMODE
 70
    37
  9
$ATTMODE
 70
     1
  9
$TEXTSIZE
 40
0.2
  9
$TRACEWID
 40
0.05
  9
$TEXTSTYLE
  7
GOTHIC
  9
$CLAYER
  8
CSLAYER1
  9
$CELTYPE
  6
BYLAYER
  9
$CECOLOR
 62
   256
  9
$CELTSCALE
 40
1.0
  9
$DELOBJ
 70
     1
  9
$DISPSILH
 70
     0
  9
$DIMSCALE
 40
1.0
  9
$DIMASZ
 40
0.18
  9
$DIMEXO
 40
0.0625
  9
$DIMDLI
 40
0.38
  9
$DIMRND
 40
0.0
  9
$DIMDLE
 40
0.0
  9
$DIMEXE
 40
0.18
  9
$DIMTP
 40
0.0
  9
$DIMTM
 40
0.0
  9
$DIMTXT
 40
0.18
  9
$DIMCEN
 40
0.09
  9
$DIMTSZ
 40
0.0
  9
$DIMTOL
 70
     0
  9
$DIMLIM
 70
     0
  9
$DIMTIH
 70
     1
  9
$DIMTOH
 70
     1
  9
$DIMSE1
 70
     0
  9
$DIMSE2
 70
     0
  9
$DIMTAD
 70
     0
  9
$DIMZIN
 70
     0
  9
$DIMBLK
  1

  9
$DIMASO
 70
     1
  9
$DIMSHO
 70
     1
  9
$DIMPOST
  1

  9
$DIMAPOST
  1

  9
$DIMALT
 70
     0
  9
$DIMALTD
 70
     2
  9
$DIMALTF
 40
25.4
  9
$DIMLFAC
 40
1.0
  9
$DIMTOFL
 70
     0
  9
$DIMTVP
 40
0.0
  9
$DIMTIX
 70
     0
  9
$DIMSOXD
 70
     0
  9
$DIMSAH
 70
     0
  9
$DIMBLK1
  1

  9
$DIMBLK2
  1

  9
$DIMSTYLE
  2
STANDARD
  9
$DIMCLRD
 70
     0
  9
$DIMCLRE
 70
     0
  9
$DIMCLRT
 70
     0
  9
$DIMTFAC
 40
1.0
  9
$DIMGAP
 40
0.09
  9
$DIMJUST
 70
     0
  9
$DIMSD1
 70
     0
  9
$DIMSD2
 70
     0
  9
$DIMTOLJ
 70
     1
  9
$DIMTZIN
 70
     0
  9
$DIMALTZ
 70
     0
  9
$DIMALTTZ
 70
     0
  9
$DIMFIT
 70
     3
  9
$DIMUPT
 70
     0
  9
$DIMUNIT
 70
     2
  9
$DIMDEC
 70
     4
  9
$DIMTDEC
 70
     4
  9
$DIMALTU
 70
     2
  9
$DIMALTTD
 70
     2
  9
$DIMTXSTY
  7
STANDARD
  9
$DIMAUNIT
 70
     0
  9
$LUNITS
 70
     2
  9
$LUPREC
 70
     4
  9
$SKETCHINC
 40
0.1
  9
$FILLETRAD
 40
0.0
  9
$AUNITS
 70
     0
  9
$AUPREC
 70
     0
  9
$MENU
  1
ACAD
  9
$ELEVATION
 40
0.0
  9
$PELEVATION
 40
0.0
  9
$THICKNESS
 40
0.0
  9
$LIMCHECK
 70
     0
  9
$BLIPMODE
 70
     1
  9
$CHAMFERA
 40
0.0
  9
$CHAMFERB
 40
0.0
  9
$CHAMFERC
 40
0.0
  9
$CHAMFERD
 40
0.0
  9
$SKPOLY
 70
     0
  9
$TDCREATE
 40
2453482.000000000
  9
$TDUPDATE
 40
2453516.437907430
  9
$TDINDWG
 40
0.0003372917
  9
$TDUSRTIMER
 40
0.0003370602
  9
$USRTIMER
 70
     1
  9
$ANGBASE
 50
0.0
  9
$ANGDIR
 70
     0
  9
$PDMODE
 70
     0
  9
$PDSIZE
 40
0.0
  9
$PLINEWID
 40
0.0
  9
$COORDS
 70
     0
  9
$SPLFRAME
 70
     0
  9
$SPLINETYPE
 70
     6
  9
$SPLINESEGS
 70
     8
  9
$ATTDIA
 70
     0
  9
$ATTREQ
 70
     1
  9
$HANDLING
 70
-16383
  9
$HANDSEED
  5
229
  9
$SURFTAB1
 70
     6
  9
$SURFTAB2
 70
     6
  9
$SURFTYPE
 70
     6
  9
$SURFU
 70
     6
  9
$SURFV
 70
     6
  9
$UCSNAME
  2

  9
$UCSORG
 10
0.0
 20
0.0
 30
0.0
  9
$UCSXDIR
 10
1.0
 20
0.0
 30
0.0
  9
$UCSYDIR
 10
0.0
 20
1.0
 30
0.0
  9
$PUCSNAME
  2

  9
$PUCSORG
 10
0.0
 20
0.0
 30
0.0
  9
$PUCSXDIR
 10
1.0
 20
0.0
 30
0.0
  9
$PUCSYDIR
 10
0.0
 20
1.0
 30
0.0
  9
$USERI1
 70
     0
  9
$USERI2
 70
     0
  9
$USERI3
 70
     0
  9
$USERI4
 70
     0
  9
$USERI5
 70
     0
  9
$USERR1
 40
0.0
  9
$USERR2
 40
0.0
  9
$USERR3
 40
0.0
  9
$USERR4
 40
0.0
  9
$USERR5
 40
0.0
  9
$WORLDVIEW
 70
     1
  9
$SHADEDGE
 70
     3
  9
$SHADEDIF
 70
    70
  9
$TILEMODE
 70
     1
  9
$MAXACTVP
 70
    64
  9
$PINSBASE
 10
0.0
 20
0.0
 30
0.0
  9
$PLIMCHECK
 70
     0
  9
$PEXTMIN
 10
1.000000000000000E+20
 20
1.000000000000000E+20
 30
1.000000000000000E+20
  9
$PEXTMAX
 10
-1.000000000000000E+20
 20
-1.000000000000000E+20
 30
-1.000000000000000E+20
  9
$PLIMMIN
 10
0.0
 20
0.0
  9
$PLIMMAX
 10
12.0
 20
9.0
  9
$UNITMODE
 70
     0
  9
$VISRETAIN
 70
     1
  9
$PLINEGEN
 70
     0
  9
$PSLTSCALE
 70
     1
  9
$TREEDEPTH
 70
  3020
  9
$PICKSTYLE
 70
     3
  9
$CMLSTYLE
  2
STANDARD
  9
$CMLJUST
 70
     0
  9
$CMLSCALE
 40
1.0
  9
$SAVEIMAGES
 70
     1
  0
ENDSEC
  0
SECTION
  2
CLASSES
  0
CLASS
  1
ACDBDICTIONARYWDFLT
  2
AcDbDictionaryWithDefault
  3
AutoCAD 2000
 90
    32768
280
     0
281
     0
  0
CLASS
  1
ACDBPLACEHOLDER
  2
AcDbPlaceHolder
  3
AutoCAD 2000
 90
    32768
280
     0
281
     0
  0
CLASS
  1
LAYOUT
  2
AcDbLayout
  3
AutoCAD 2000
 90
    32768
280
     0
281
     0
  0
CLASS
  1
DICTIONARYVAR
  2
AcDbDictionaryVar
  3
AutoCAD 2000
 90
    32768
280
     0
281
     0
  0
CLASS
  1
LONG_TRANSACTION
  2
AcDbLongTransaction
  3
AutoCAD 2000
 90
    32768
280
     0
281
     0
  0
CLASS
  1
LWPOLYLINE
  2
AcDbPolyline
  3
AutoCAD 2000
 90
    32768
280
     0
281
     1
  0
CLASS
  1
HATCH
  2
AcDbHatch
  3
AutoCAD 2000
 90
    32768
280
     0
281
     1
  0
CLASS
  1
XRECORD
  2
AcDbXrecord
  3
AutoCAD 2000
 90
    32768
280
     0
281
     0
  0
CLASS
  1
LONG_TRANSACTION
  2
AcDbLongTransaction
  3
AutoCAD 2000
 90
    32768
280
     0
281
     0
  0
CLASS
  1
LWPOLYLINE
  2
AcDbPolyline
  3
AutoCAD 2000
 90
    32768
280
     0
281
     1
  0
CLASS
  1
HATCH
  2
AcDbHatch
  3
AutoCAD 2000
 90
    32768
280
     0
281
     1
  0
CLASS
  1
XRECORD
  2
AcDbXrecord
  3
AutoCAD 2000
 90
    32768
280
     0
281
     0
  0
ENDSEC
  0
SECTION
  2
TABLES
  0
TABLE
  2
VPORT
  5
8
330
0
100
AcDbSymbolTable
 70
     2
  0
VPORT
  5
226
330
8
100
AcDbSymbolTableRecord
100
AcDbViewportTableRecord
  2
*ACTIVE
 70
     0
 10
0.0
 20
0.0
 11
1.0
 21
1.0
 12
143.4922949972007
 22
97.99850511946541
 13
0.0
 23
0.0
 14
1.0
 24
1.0
 15
0.0
 25
0.0
 16
0.0
 26
0.0
 36
1.0
 17
0.0
 27
0.0
 37
0.0
 40
195.4801270413309
 41
1.510025062656641
 42
50.0
 43
0.0
 44
0.0
 50
0.0
 51
0.0
 71
     0
 72
   100
 73
     1
 74
     1
 75
     0
 76
     0
 77
     0
 78
     0
  0
ENDTAB
  0
TABLE
  2
LTYPE
  5
5
330
0
100
AcDbSymbolTable
 70
     3
  0
LTYPE
  5
13
330
5
100
AcDbSymbolTableRecord
100
AcDbLinetypeTableRecord
  2
BYBLOCK
 70
     0
  3

 72
    65
 73
     0
 40
0.0
  0
LTYPE
  5
14
330
5
100
AcDbSymbolTableRecord
100
AcDbLinetypeTableRecord
  2
BYLAYER
 70
     0
  3

 72
    65
 73
     0
 40
0.0
  0
LTYPE
  5
15
330
5
100
AcDbSymbolTableRecord
100
AcDbLinetypeTableRecord
  2
CONTINUOUS
 70
     0
  3
Solid line
 72
    65
 73
     0
 40
0.0
  0
LTYPE
  5
25
330
5
100
AcDbSymbolTableRecord
100
AcDbLinetypeTableRecord
  2
DOT
 70
     0
  3
...............................................
 72
    65
 73
     2
 40
0.25
 49
0.0
 74
     0
 49
-0.25
 74
     0
  0
LTYPE
  5
28
330
5
100
AcDbSymbolTableRecord
100
AcDbLinetypeTableRecord
  2
CENTER
 70
     0
  3
____ _ ____ _ ____ _ ____ _ ____ _ ____ _ ____ 
 72
    65
 73
     4
 40
2.0
 49
1.25
 74
     0
 49
-0.25
 74
     0
 49
0.25
 74
     0
 49
-0.25
 74
     0
  0
ENDTAB
  0
TABLE
  2
LAYER
  5
2
330
0
100
AcDbSymbolTable
 70
     3
  0
LAYER
  5
10
330
2
100
AcDbSymbolTableRecord
100
AcDbLayerTableRecord
  2
0
 70
     0
 62
     7
  6
CONTINUOUS
  0
LAYER
  5
22
330
2
100
AcDbSymbolTableRecord
100
AcDbLayerTableRecord
  2
CSLAYER1
 70
     0
 62
     7
  6
CONTINUOUS
  0
LAYER
  5
20B
330
2
100
AcDbSymbolTableRecord
100
AcDbLayerTableRecord
  2
DEFPOINTS
 70
     0
 62
     7
  6
CONTINUOUS
  0
ENDTAB
  0
TABLE
  2
STYLE
  5
3
330
0
100
AcDbSymbolTable
 70
     3
  0
STYLE
  5
11
330
3
100
AcDbSymbolTableRecord
100
AcDbTextStyleTableRecord
  2
STANDARD
 70
     0
 40
0.0
 41
1.0
 50
0.0
 71
     0
 42
0.2
  3
txt
  4
extfont.shx
  0
STYLE
  5
3A
330
3
100
AcDbSymbolTableRecord
100
AcDbTextStyleTableRecord
  2
FX_FONT
 70
     0
 40
1.0
 41
1.0
 50
0.0
 71
     0
 42
1.0
  3
monotxt
  4
bigfont
  0
STYLE
  5
203
330
3
100
AcDbSymbolTableRecord
100
AcDbTextStyleTableRecord
  2
GOTHIC
 70
     0
 40
0.0
 41
1.0
 50
0.0
 71
     0
 42
0.2
  3
txt.shx
  4
extfont.shx
  0
ENDTAB
  0
TABLE
  2
VIEW
  5
6
330
0
100
AcDbSymbolTable
 70
     0
  0
ENDTAB
  0
TABLE
  2
UCS
  5
7
330
0
100
AcDbSymbolTable
 70
     0
  0
ENDTAB
  0
TABLE
  2
APPID
  5
9
330
0
100
AcDbSymbolTable
 70
     1
  0
APPID
  5
12
330
9
100
AcDbSymbolTableRecord
100
AcDbRegAppTableRecord
  2
ACAD
 70
     0
  0
ENDTAB
  0
TABLE
  2
DIMSTYLE
  5
A
330
0
100
AcDbSymbolTable
 70
     1
  0
DIMSTYLE
105
200
330
A
100
AcDbSymbolTableRecord
100
AcDbDimStyleTableRecord
  2
STANDARD
 70
     0
  3

  4

  5

  6

  7

 40
1.0
 41
0.18
 42
0.0625
 43
0.38
 44
0.18
 45
0.0
 46
0.0
 47
0.0
 48
0.0
140
0.18
141
0.09
142
0.0
143
25.4
144
1.0
145
0.0
146
1.0
147
0.09
 71
     0
 72
     0
 73
     1
 74
     1
 75
     0
 76
     0
 77
     0
 78
     0
170
     0
171
     2
172
     0
173
     0
174
     0
175
     0
176
     0
177
     0
178
     0
270
     2
271
     4
272
     4
273
     2
274
     2
340
11
275
     0
280
     0
281
     0
282
     0
283
     1
284
     0
285
     0
286
     0
287
     3
288
     0
  0
ENDTAB
  0
TABLE
  2
BLOCK_RECORD
  5
1
330
0
100
AcDbSymbolTable
 70
    18
  0
BLOCK_RECORD
  5
1E
102
{ACAD_XDICTIONARY
360
209
102
}
330
1
100
AcDbSymbolTableRecord
100
AcDbBlockTableRecord
  2
*MODEL_SPACE
  0
BLOCK_RECORD
  5
1A
102
{ACAD_XDICTIONARY
360
207
102
}
330
1
100
AcDbSymbolTableRecord
100
AcDbBlockTableRecord
  2
*PAPER_SPACE
  0
BLOCK_RECORD
  5
3F
330
1
100
AcDbSymbolTableRecord
100
AcDbBlockTableRecord
  2
*D0
  0
BLOCK_RECORD
  5
4A
330
1
100
AcDbSymbolTableRecord
100
AcDbBlockTableRecord
  2
*D1
  0
BLOCK_RECORD
  5
55
330
1
100
AcDbSymbolTableRecord
100
AcDbBlockTableRecord
  2
FXDIM0000
  0
BLOCK_RECORD
  5
5D
330
1
100
AcDbSymbolTableRecord
100
AcDbBlockTableRecord
  2
FXDIM0001
  0
BLOCK_RECORD
  5
65
330
1
100
AcDbSymbolTableRecord
100
AcDbBlockTableRecord
  2
FXDIM0002
  0
BLOCK_RECORD
  5
6D
330
1
100
AcDbSymbolTableRecord
100
AcDbBlockTableRecord
  2
*D5
  0
BLOCK_RECORD
  5
78
330
1
100
AcDbSymbolTableRecord
100
AcDbBlockTableRecord
  2
*D6
  0
BLOCK_RECORD
  5
83
330
1
100
AcDbSymbolTableRecord
100
AcDbBlockTableRecord
  2
*D7
  0
BLOCK_RECORD
  5
8D
330
1
100
AcDbSymbolTableRecord
100
AcDbBlockTableRecord
  2
*D8
  0
BLOCK_RECORD
  5
97
330
1
100
AcDbSymbolTableRecord
100
AcDbBlockTableRecord
  2
*D9
  0
BLOCK_RECORD
  5
A1
330
1
100
AcDbSymbolTableRecord
100
AcDbBlockTableRecord
  2
*D10
  0
BLOCK_RECORD
  5
AC
330
1
100
AcDbSymbolTableRecord
100
AcDbBlockTableRecord
  2
*D11
  0
BLOCK_RECORD
  5
B7
330
1
100
AcDbSymbolTableRecord
100
AcDbBlockTableRecord
  2
*D12
  0
BLOCK_RECORD
  5
C2
330
1
100
AcDbSymbolTableRecord
100
AcDbBlockTableRecord
  2
*D13
  0
BLOCK_RECORD
  5
CD
330
1
100
AcDbSymbolTableRecord
100
AcDbBlockTableRecord
  2
*D14
  0
BLOCK_RECORD
  5
D7
330
1
100
AcDbSymbolTableRecord
100
AcDbBlockTableRecord
  2
*D15
  0
BLOCK_RECORD
  5
DE
330
1
100
AcDbSymbolTableRecord
100
AcDbBlockTableRecord
  2
FXDIM0003
  0
BLOCK_RECORD
  5
20C
330
1
100
AcDbSymbolTableRecord
100
AcDbBlockTableRecord
  2
*D17
  0
ENDTAB
  0
ENDSEC
  0
SECTION
  2
BLOCKS
  0
BLOCK
  5
1F
330
1E
100
AcDbEntity
  8
0
100
AcDbBlockBegin
  2
*MODEL_SPACE
 70
     0
 10
0.0
 20
0.0
 30
0.0
  3
*MODEL_SPACE
  1

  0
ENDBLK
  5
20
330
1E
100
AcDbEntity
  8
0
100
AcDbBlockEnd
  0
BLOCK
  5
1B
330
1A
100
AcDbEntity
 67
     1
  8
0
100
AcDbBlockBegin
  2
*PAPER_SPACE
 70
     0
 10
0.0
 20
0.0
 30
0.0
  3
*PAPER_SPACE
  1

  0
ENDBLK
  5
1C
330
1A
100
AcDbEntity
 67
     1
  8
0
100
AcDbBlockEnd
  0
BLOCK
  5
40
330
3F
100
AcDbEntity
  8
0
100
AcDbBlockBegin
  2
*D0
 70
     1
 10
0.0
 20
0.0
 30
0.0
  3
*D0
  1

  0
TEXT
  5
41
330
3F
100
AcDbEntity
  8
CSLAYER1
 62
     4
100
AcDbText
 10
264.426758
 20
124.394427
 30
0.0
 40
3.2
  1
30 
 50
90.0
 41
1.15384627403846
 51
15.0
  7
FX_FONT
 72
     5
 11
264.426758
 21
133.994428
 31
0.0
100
AcDbText
  0
LINE
  5
42
330
3F
100
AcDbEntity
  8
CSLAYER1
  6
CONTINUOUS
 62
     4
100
AcDbLine
 10
245.505244
 20
114.1944169999999
 30
0.0
 11
265.926733
 21
114.1944169999999
 31
0.0
  0
LINE
  5
43
330
3F
100
AcDbEntity
  8
CSLAYER1
  6
CONTINUOUS
 62
     4
100
AcDbLine
 10
245.505244
 20
144.194417
 30
0.0
 11
265.926733
 21
144.194417
 31
0.0
  0
LINE
  5
44
330
3F
100
AcDbEntity
  8
CSLAYER1
  6
CONTINUOUS
 62
     4
100
AcDbLine
 10
264.926733
 20
114.1944169999999
 30
0.0
 11
264.926733
 21
144.194417
 31
0.0
  0
LINE
  5
45
330
3F
100
AcDbEntity
  8
CSLAYER1
  6
CONTINUOUS
 62
     4
100
AcDbLine
 10
264.926733
 20
114.1944169999999
 30
0.0
 11
264.1502759999998
 21
117.0921949999998
 31
0.0
  0
LINE
  5
46
330
3F
100
AcDbEntity
  8
CSLAYER1
  6
CONTINUOUS
 62
     4
100
AcDbLine
 10
264.926733
 20
114.1944169999999
 30
0.0
 11
265.70319
 21
117.0921949999998
 31
0.0
  0
LINE
  5
47
330
3F
100
AcDbEntity
  8
CSLAYER1
  6
CONTINUOUS
 62
     4
100
AcDbLine
 10
264.926733
 20
144.194417
 30
0.0
 11
264.1502759999998
 21
141.29664
 31
0.0
  0
LINE
  5
48
330
3F
100
AcDbEntity
  8
CSLAYER1
  6
CONTINUOUS
 62
     4
100
AcDbLine
 10
264.926733
 20
144.194417
 30
0.0
 11
265.70319
 21
141.29664
 31
0.0
  0
ENDBLK
  5
49
330
3F
100
AcDbEntity
  8
0
100
AcDbBlockEnd
  0
BLOCK
  5
4B
330
4A
100
AcDbEntity
  8
0
100
AcDbBlockBegin
  2
*D1
 70
     1
 10
0.0
 20
0.0
 30
0.0
  3
*D1
  1

  0
TEXT
  5
4C
330
4A
100
AcDbEntity
  8
CSLAYER1
 62
     4
100
AcDbText
 10
209.5243739999999
 20
149.4442149999999
 30
0.0
 40
3.2
  1
24
 50
45.37908942018666
 41
1.199999908324813
 51
15.0
  7
FX_FONT
 72
     5
 11
214.019816
 21
153.9995409999999
 31
0.0
100
AcDbText
  0
LINE
  5
4D
330
4A
100
AcDbEntity
  8
CSLAYER1
  6
CONTINUOUS
 62
     4
100
AcDbLine
 10
203.698912
 20
142.8293429999999
 30
0.0
 11
220.556981
 21
159.9119809999999
 31
0.0
  0
LINE
  5
4E
330
4A
100
AcDbEntity
  8
CSLAYER1
  6
CONTINUOUS
 62
     4
100
AcDbLine
 10
203.698912
 20
142.8293429999999
 30
0.0
 11
205.181689
 21
145.437287
 31
0.0
  0
LINE
  5
4F
330
4A
100
AcDbEntity
  8
CSLAYER1
  6
CONTINUOUS
 62
     4
100
AcDbLine
 10
203.698912
 20
142.8293429999999
 30
0.0
 11
206.287007
 21
144.3464999999999
 31
0.0
  0
LINE
  5
50
330
4A
100
AcDbEntity
  8
CSLAYER1
  6
CONTINUOUS
 62
     4
100
AcDbLine
 10
220.556981
 20
159.9119809999999
 30
0.0
 11
219.0742039999999
 21
157.304037
 31
0.0
  0
LINE
  5
51
330
4A
100
AcDbEntity
  8
CSLAYER1
  6
CONTINUOUS
 62
     4
100
AcDbLine
 10
220.556981
 20
159.9119809999999
 30
0.0
 11
217.968886
 21
158.3948239999999
 31
0.0
  0
LINE
  5
52
330
4A
100
AcDbEntity
  8
CSLAYER1
  6
CONTINUOUS
 62
     4
100
AcDbLine
 10
222.0780299999999
 20
124.691837
 30
0.0
 11
202.987142
 21
143.531756
 31
0.0
  0
LINE
  5
53
330
4A
100
AcDbEntity
  8
CSLAYER1
  6
CONTINUOUS
 62
     4
100
AcDbLine
 10
238.9678879999999
 20
141.743105
 30
0.0
 11
219.8452109999999
 21
160.614394
 31
0.0
  0
ENDBLK
  5
54
330
4A
100
AcDbEntity
  8
0
100
AcDbBlockEnd
  0
BLOCK
  5
56
330
55
100
AcDbEntity
  8
0
100
AcDbBlockBegin
  2
FXDIM0000
 70
     0
 10
0.0
 20
0.0
 30
0.0
  3
FXDIM0000
  1

  0
LINE
  5
57
330
55
100
AcDbEntity
  8
CSLAYER1
  6
CONTINUOUS
 62
     4
100
AcDbLine
 10
226.6624689999999
 20
118.7748739999999
 30
0.0
 11
230.5524259999998
 21
95.85353299999999
 31
0.0
  0
LINE
  5
58
330
55
100
AcDbEntity
  8
CSLAYER1
  6
CONTINUOUS
 62
     4
100
AcDbLine
 10
226.6624689999999
 20
118.7748739999999
 30
0.0
 11
227.912827
 21
116.04786
 31
0.0
  0
LINE
  5
59
330
55
100
AcDbEntity
  8
CSLAYER1
  6
CONTINUOUS
 62
     4
100
AcDbLine
 10
226.6624689999999
 20
118.7748739999999
 30
0.0
 11
226.381804
 21
115.788032
 31
0.0
  0
LINE
  5
5A
330
55
100
AcDbEntity
  8
CSLAYER1
  6
CONTINUOUS
 62
     4
100
AcDbLine
 10
230.5524259999998
 20
95.85353299999999
 30
0.0
 11
254.9524259999999
 21
95.85353299999999
 31
0.0
  0
TEXT
  5
5B
330
55
100
AcDbEntity
  8
CSLAYER1
 62
     4
100
AcDbText
 10
231.6203609999999
 20
96.353539
 30
0.0
 40
3.2
  1
M4ネジ深１０
 41
0.9292035813053134
 51
15.0
  7
FX_FONT
 72
     5
 11
254.020362
 21
96.353539
 31
0.0
100
AcDbText
  0
ENDBLK
  5
5C
330
55
100
AcDbEntity
  8
0
100
AcDbBlockEnd
  0
BLOCK
  5
5E
330
5D
100
AcDbEntity
  8
0
100
AcDbBlockBegin
  2
FXDIM0001
 70
     0
 10
0.0
 20
0.0
 30
0.0
  3
FXDIM0001
  1

  0
LINE
  5
5F
330
5D
100
AcDbEntity
  8
CSLAYER1
  6
CONTINUOUS
 62
     4
100
AcDbLine
 10
236.718016
 20
133.4235379999998
 30
0.0
 11
245.765315
 21
156.227901
 31
0.0
  0
LINE
  5
60
330
5D
100
AcDbEntity
  8
CSLAYER1
  6
CONTINUOUS
 62
     4
100
AcDbLine
 10
236.718016
 20
133.4235379999998
 30
0.0
 11
237.0649069999999
 21
136.4034149999999
 31
0.0
  0
LINE
  5
61
330
5D
100
AcDbEntity
  8
CSLAYER1
  6
CONTINUOUS
 62
     4
100
AcDbLine
 10
236.718016
 20
133.4235379999998
 30
0.0
 11
238.50837
 21
135.8307419999998
 31
0.0
  0
LINE
  5
62
330
5D
100
AcDbEntity
  8
CSLAYER1
  6
CONTINUOUS
 62
     4
100
AcDbLine
 10
245.765315
 20
156.227901
 30
0.0
 11
270.1653149999998
 21
156.227901
 31
0.0
  0
TEXT
  5
63
330
5D
100
AcDbEntity
  8
CSLAYER1
 62
     4
100
AcDbText
 10
246.7653319999999
 20
156.7279049999999
 30
0.0
 40
3.2
  1
Rc1/8ネジ
 41
0.9813084112149535
 51
15.0
  7
FX_FONT
 72
     5
 11
269.1653319999999
 21
156.7279049999999
 31
0.0
100
AcDbText
  0
ENDBLK
  5
64
330
5D
100
AcDbEntity
  8
0
100
AcDbBlockEnd
  0
BLOCK
  5
66
330
65
100
AcDbEntity
  8
0
100
AcDbBlockBegin
  2
FXDIM0002
 70
     0
 10
0.0
 20
0.0
 30
0.0
  3
FXDIM0002
  1

  0
LINE
  5
67
330
65
100
AcDbEntity
  8
CSLAYER1
  6
CONTINUOUS
 62
     4
100
AcDbLine
 10
162.084961
 20
139.2469659999999
 30
0.0
 11
180.450237
 21
164.636609
 31
0.0
  0
LINE
  5
68
330
65
100
AcDbEntity
  8
CSLAYER1
  6
CONTINUOUS
 62
     4
100
AcDbLine
 10
162.084961
 20
139.2469659999999
 30
0.0
 11
163.154178
 21
142.04996
 31
0.0
  0
LINE
  5
69
330
65
100
AcDbEntity
  8
CSLAYER1
  6
CONTINUOUS
 62
     4
100
AcDbLine
 10
162.084961
 20
139.2469659999999
 30
0.0
 11
164.412427
 21
141.139822
 31
0.0
  0
LINE
  5
6A
330
65
100
AcDbEntity
  8
CSLAYER1
  6
CONTINUOUS
 62
     4
100
AcDbLine
 10
180.450237
 20
164.636609
 30
0.0
 11
204.8502379999999
 21
164.636609
 31
0.0
  0
TEXT
  5
6B
330
65
100
AcDbEntity
  8
CSLAYER1
 62
     4
100
AcDbText
 10
181.450268
 20
165.136612
 30
0.0
 40
3.2
  1
Rc1/8ネジ
 41
0.9813084550233638
 51
15.0
  7
FX_FONT
 72
     5
 11
203.850269
 21
165.136612
 31
0.0
100
AcDbText
  0
ENDBLK
  5
6C
330
65
100
AcDbEntity
  8
0
100
AcDbBlockEnd
  0
BLOCK
  5
6E
330
6D
100
AcDbEntity
  8
0
100
AcDbBlockBegin
  2
*D5
 70
     1
 10
0.0
 20
0.0
 30
0.0
  3
*D5
  1

  0
TEXT
  5
6F
330
6D
100
AcDbEntity
  8
CSLAYER1
 62
     4
100
AcDbText
 10
208.7175569999998
 20
113.2965409999999
 30
0.0
 40
3.2
  1
45%%d
 50
112.4999991574811
 41
1.285714348609501
 51
15.0
  7
FX_FONT
 72
     5
 11
205.043796
 21
122.165785
 31
0.0
100
AcDbText
  0
ARC
  5
70
330
6D
100
AcDbEntity
  8
CSLAYER1
  6
CONTINUOUS
 62
     4
100
AcDbCircle
 10
234.555369
 20
129.1944169999998
 30
0.0
 40
29.454902
100
AcDbArc
 50
180.0
 51
225.0
  0
LINE
  5
71
330
6D
100
AcDbEntity
  8
CSLAYER1
  6
CONTINUOUS
 62
     4
100
AcDbLine
 10
205.100468
 20
129.1944169999998
 30
0.0
 11
204.32401
 21
126.29664
 31
0.0
  0
LINE
  5
72
330
6D
100
AcDbEntity
  8
CSLAYER1
  6
CONTINUOUS
 62
     4
100
AcDbLine
 10
205.100468
 20
129.1944169999998
 30
0.0
 11
205.876925
 21
126.29664
 31
0.0
  0
LINE
  5
73
330
6D
100
AcDbEntity
  8
CSLAYER1
  6
CONTINUOUS
 62
     4
100
AcDbLine
 10
213.7276089999999
 20
108.366656
 30
0.0
 11
211.1295319999999
 21
109.866656
 31
0.0
  0
LINE
  5
74
330
6D
100
AcDbEntity
  8
CSLAYER1
  6
CONTINUOUS
 62
     4
100
AcDbLine
 10
213.7276089999999
 20
108.366656
 30
0.0
 11
212.2276089999999
 21
110.964733
 31
0.0
  0
LINE
  5
75
330
6D
100
AcDbEntity
  8
CSLAYER1
  6
CONTINUOUS
 62
     4
100
AcDbLine
 10
210.4111899999999
 20
129.1944169999998
 30
0.0
 11
204.1004679999999
 21
129.1944169999998
 31
0.0
  0
LINE
  5
76
330
6D
100
AcDbEntity
  8
CSLAYER1
  6
CONTINUOUS
 62
     4
100
AcDbLine
 10
222.475841
 20
117.114888
 30
0.0
 11
213.020502
 21
107.65955
 31
0.0
  0
ENDBLK
  5
77
330
6D
100
AcDbEntity
  8
0
100
AcDbBlockEnd
  0
BLOCK
  5
79
330
78
100
AcDbEntity
  8
0
100
AcDbBlockBegin
  2
*D6
 70
     1
 10
0.0
 20
0.0
 30
0.0
  3
*D6
  1

  0
TEXT
  5
7A
330
78
100
AcDbEntity
  8
CSLAYER1
 62
     4
100
AcDbText
 10
100.222317
 20
166.8320009999999
 30
0.0
 40
3.2
  1
93
 41
1.200000187499981
 51
15.0
  7
FX_FONT
 72
     5
 11
106.6223179999999
 21
166.8320009999999
 31
0.0
100
AcDbText
  0
LINE
  5
7B
330
78
100
AcDbEntity
  8
CSLAYER1
  6
CONTINUOUS
 62
     4
100
AcDbLine
 10
56.922315
 20
166.331991
 30
0.0
 11
149.9223149999999
 21
166.331991
 31
0.0
  0
LINE
  5
7C
330
78
100
AcDbEntity
  8
CSLAYER1
  6
CONTINUOUS
 62
     4
100
AcDbLine
 10
56.922315
 20
166.331991
 30
0.0
 11
59.820092
 21
167.108448
 31
0.0
  0
LINE
  5
7D
330
78
100
AcDbEntity
  8
CSLAYER1
  6
CONTINUOUS
 62
     4
100
AcDbLine
 10
56.922315
 20
166.331991
 30
0.0
 11
59.820092
 21
165.555534
 31
0.0
  0
LINE
  5
7E
330
78
100
AcDbEntity
  8
CSLAYER1
  6
CONTINUOUS
 62
     4
100
AcDbLine
 10
149.9223149999999
 20
166.331991
 30
0.0
 11
147.024537
 21
167.108448
 31
0.0
  0
LINE
  5
7F
330
78
100
AcDbEntity
  8
CSLAYER1
  6
CONTINUOUS
 62
     4
100
AcDbLine
 10
149.9223149999999
 20
166.331991
 30
0.0
 11
147.024537
 21
165.555534
 31
0.0
  0
LINE
  5
80
330
78
100
AcDbEntity
  8
CSLAYER1
  6
CONTINUOUS
 62
     4
100
AcDbLine
 10
56.922315
 20
138.1944169999999
 30
0.0
 11
56.922315
 21
167.331991
 31
0.0
  0
LINE
  5
81
330
78
100
AcDbEntity
  8
CSLAYER1
  6
CONTINUOUS
 62
     4
100
AcDbLine
 10
149.9223149999999
 20
148.194417
 30
0.0
 11
149.9223149999999
 21
167.331991
 31
0.0
  0
ENDBLK
  5
82
330
78
100
AcDbEntity
  8
0
100
AcDbBlockEnd
  0
BLOCK
  5
84
330
83
100
AcDbEntity
  8
0
100
AcDbBlockBegin
  2
*D7
 70
     1
 10
0.0
 20
0.0
 30
0.0
  3
*D7
  1

  0
TEXT
  5
85
330
83
100
AcDbEntity
  8
CSLAYER1
 62
     4
100
AcDbText
 10
156.722317
 20
166.8320009999999
 30
0.0
 40
3.2
  1
20
 41
1.2000001875
 51
15.0
  7
FX_FONT
 72
     5
 11
163.122318
 21
166.8320009999999
 31
0.0
100
AcDbText
  0
LINE
  5
86
330
83
100
AcDbEntity
  8
CSLAYER1
  6
CONTINUOUS
 62
     4
100
AcDbLine
 10
149.9223149999999
 20
166.331991
 30
0.0
 11
169.9223149999999
 21
166.331991
 31
0.0
  0
LINE
  5
87
330
83
100
AcDbEntity
  8
CSLAYER1
  6
CONTINUOUS
 62
     4
100
AcDbLine
 10
149.9223149999999
 20
166.331991
 30
0.0
 11
152.8200919999999
 21
167.108448
 31
0.0
  0
LINE
  5
88
330
83
100
AcDbEntity
  8
CSLAYER1
  6
CONTINUOUS
 62
     4
100
AcDbLine
 10
149.9223149999999
 20
166.331991
 30
0.0
 11
152.8200919999999
 21
165.555534
 31
0.0
  0
LINE
  5
89
330
83
100
AcDbEntity
  8
CSLAYER1
  6
CONTINUOUS
 62
     4
100
AcDbLine
 10
169.9223149999999
 20
166.331991
 30
0.0
 11
167.024537
 21
167.108448
 31
0.0
  0
LINE
  5
8A
330
83
100
AcDbEntity
  8
CSLAYER1
  6
CONTINUOUS
 62
     4
100
AcDbLine
 10
169.9223149999999
 20
166.331991
 30
0.0
 11
167.024537
 21
165.555534
 31
0.0
  0
LINE
  5
8B
330
83
100
AcDbEntity
  8
CSLAYER1
  6
CONTINUOUS
 62
     4
100
AcDbLine
 10
169.9223149999999
 20
143.6944169999998
 30
0.0
 11
169.9223149999999
 21
167.331991
 31
0.0
  0
ENDBLK
  5
8C
330
83
100
AcDbEntity
  8
0
100
AcDbBlockEnd
  0
BLOCK
  5
8E
330
8D
100
AcDbEntity
  8
0
100
AcDbBlockBegin
  2
*D8
 70
     1
 10
0.0
 20
0.0
 30
0.0
  3
*D8
  1

  0
TEXT
  5
8F
330
8D
100
AcDbEntity
  8
CSLAYER1
 62
     4
100
AcDbText
 10
58.822314
 20
160.8320009999999
 30
0.0
 40
3.2
  1
7
 41
1.500000000000001
 51
15.0
  7
FX_FONT
 72
     5
 11
62.022314
 21
160.8320009999999
 31
0.0
100
AcDbText
  0
LINE
  5
90
330
8D
100
AcDbEntity
  8
CSLAYER1
  6
CONTINUOUS
 62
     4
100
AcDbLine
 10
56.922315
 20
160.3319909999999
 30
0.0
 11
63.92231500000001
 21
160.3319909999999
 31
0.0
  0
LINE
  5
91
330
8D
100
AcDbEntity
  8
CSLAYER1
  6
CONTINUOUS
 62
     4
100
AcDbLine
 10
56.922315
 20
160.3319909999999
 30
0.0
 11
59.820092
 21
161.108448
 31
0.0
  0
LINE
  5
92
330
8D
100
AcDbEntity
  8
CSLAYER1
  6
CONTINUOUS
 62
     4
100
AcDbLine
 10
56.922315
 20
160.3319909999999
 30
0.0
 11
59.820092
 21
159.5555339999999
 31
0.0
  0
LINE
  5
93
330
8D
100
AcDbEntity
  8
CSLAYER1
  6
CONTINUOUS
 62
     4
100
AcDbLine
 10
63.92231500000001
 20
160.3319909999999
 30
0.0
 11
61.024537
 21
161.108448
 31
0.0
  0
LINE
  5
94
330
8D
100
AcDbEntity
  8
CSLAYER1
  6
CONTINUOUS
 62
     4
100
AcDbLine
 10
63.92231500000001
 20
160.3319909999999
 30
0.0
 11
61.024537
 21
159.5555339999999
 31
0.0
  0
LINE
  5
95
330
8D
100
AcDbEntity
  8
CSLAYER1
  6
CONTINUOUS
 62
     4
100
AcDbLine
 10
63.92231500000001
 20
142.564703
 30
0.0
 11
63.92231500000001
 21
161.3319909999999
 31
0.0
  0
ENDBLK
  5
96
330
8D
100
AcDbEntity
  8
0
100
AcDbBlockEnd
  0
BLOCK
  5
98
330
97
100
AcDbEntity
  8
0
100
AcDbBlockBegin
  2
*D9
 70
     1
 10
0.0
 20
0.0
 30
0.0
  3
*D9
  1

  0
TEXT
  5
99
330
97
100
AcDbEntity
  8
CSLAYER1
 62
     4
100
AcDbText
 10
115.7223169999999
 20
160.8320009999999
 30
0.0
 40
3.2
  1
62
 41
1.2000001875
 51
15.0
  7
FX_FONT
 72
     5
 11
122.1223179999999
 21
160.8320009999999
 31
0.0
100
AcDbText
  0
LINE
  5
9A
330
97
100
AcDbEntity
  8
CSLAYER1
  6
CONTINUOUS
 62
     4
100
AcDbLine
 10
87.92231499999997
 20
160.3319909999999
 30
0.0
 11
149.9223149999999
 21
160.3319909999999
 31
0.0
  0
LINE
  5
9B
330
97
100
AcDbEntity
  8
CSLAYER1
  6
CONTINUOUS
 62
     4
100
AcDbLine
 10
87.92231499999997
 20
160.3319909999999
 30
0.0
 11
90.82009199999999
 21
161.108448
 31
0.0
  0
LINE
  5
9C
330
97
100
AcDbEntity
  8
CSLAYER1
  6
CONTINUOUS
 62
     4
100
AcDbLine
 10
87.92231499999997
 20
160.3319909999999
 30
0.0
 11
90.82009199999999
 21
159.5555339999999
 31
0.0
  0
LINE
  5
9D
330
97
100
AcDbEntity
  8
CSLAYER1
  6
CONTINUOUS
 62
     4
100
AcDbLine
 10
149.9223149999999
 20
160.3319909999999
 30
0.0
 11
147.024537
 21
161.108448
 31
0.0
  0
LINE
  5
9E
330
97
100
AcDbEntity
  8
CSLAYER1
  6
CONTINUOUS
 62
     4
100
AcDbLine
 10
149.9223149999999
 20
160.3319909999999
 30
0.0
 11
147.024537
 21
159.5555339999999
 31
0.0
  0
LINE
  5
9F
330
97
100
AcDbEntity
  8
CSLAYER1
  6
CONTINUOUS
 62
     4
100
AcDbLine
 10
87.92231499999997
 20
148.194417
 30
0.0
 11
87.92231499999997
 21
161.3319909999999
 31
0.0
  0
ENDBLK
  5
A0
330
97
100
AcDbEntity
  8
0
100
AcDbBlockEnd
  0
BLOCK
  5
A2
330
A1
100
AcDbEntity
  8
0
100
AcDbBlockBegin
  2
*D10
 70
     1
 10
0.0
 20
0.0
 30
0.0
  3
*D10
  1

  0
TEXT
  5
A3
330
A1
100
AcDbEntity
  8
CSLAYER1
 62
     4
100
AcDbText
 10
37.88311399999999
 20
125.994427
 30
0.0
 40
3.2
  1
20
 50
90.0
 41
1.2000001875
 51
15.0
  7
FX_FONT
 72
     5
 11
37.88311399999999
 21
132.394428
 31
0.0
100
AcDbText
  0
LINE
  5
A4
330
A1
100
AcDbEntity
  8
CSLAYER1
  6
CONTINUOUS
 62
     4
100
AcDbLine
 10
38.383113
 20
119.1944169999999
 30
0.0
 11
38.383113
 21
139.1944169999999
 31
0.0
  0
LINE
  5
A5
330
A1
100
AcDbEntity
  8
CSLAYER1
  6
CONTINUOUS
 62
     4
100
AcDbLine
 10
38.383113
 20
119.1944169999999
 30
0.0
 11
37.606656
 21
122.0921949999999
 31
0.0
  0
LINE
  5
A6
330
A1
100
AcDbEntity
  8
CSLAYER1
  6
CONTINUOUS
 62
     4
100
AcDbLine
 10
38.383113
 20
119.1944169999999
 30
0.0
 11
39.15957
 21
122.0921949999999
 31
0.0
  0
LINE
  5
A7
330
A1
100
AcDbEntity
  8
CSLAYER1
  6
CONTINUOUS
 62
     4
100
AcDbLine
 10
38.383113
 20
139.1944169999999
 30
0.0
 11
37.606656
 21
136.2966399999999
 31
0.0
  0
LINE
  5
A8
330
A1
100
AcDbEntity
  8
CSLAYER1
  6
CONTINUOUS
 62
     4
100
AcDbLine
 10
38.383113
 20
139.1944169999999
 30
0.0
 11
39.15957
 21
136.2966399999999
 31
0.0
  0
LINE
  5
A9
330
A1
100
AcDbEntity
  8
CSLAYER1
  6
CONTINUOUS
 62
     4
100
AcDbLine
 10
57.922315
 20
119.1944169999999
 30
0.0
 11
37.383113
 21
119.1944169999999
 31
0.0
  0
LINE
  5
AA
330
A1
100
AcDbEntity
  8
CSLAYER1
  6
CONTINUOUS
 62
     4
100
AcDbLine
 10
57.922315
 20
139.1944169999999
 30
0.0
 11
37.383113
 21
139.1944169999999
 31
0.0
  0
ENDBLK
  5
AB
330
A1
100
AcDbEntity
  8
0
100
AcDbBlockEnd
  0
BLOCK
  5
AD
330
AC
100
AcDbEntity
  8
0
100
AcDbBlockBegin
  2
*D11
 70
     1
 10
0.0
 20
0.0
 30
0.0
  3
*D11
  1

  0
TEXT
  5
AE
330
AC
100
AcDbEntity
  8
CSLAYER1
 62
     4
100
AcDbText
 10
43.883114
 20
125.994427
 30
0.0
 40
3.2
  1
12
 50
90.0
 41
1.2000001875
 51
15.0
  7
FX_FONT
 72
     5
 11
43.883114
 21
132.394428
 31
0.0
100
AcDbText
  0
LINE
  5
AF
330
AC
100
AcDbEntity
  8
CSLAYER1
  6
CONTINUOUS
 62
     4
100
AcDbLine
 10
44.383113
 20
123.194417
 30
0.0
 11
44.383113
 21
135.1944169999999
 31
0.0
  0
LINE
  5
B0
330
AC
100
AcDbEntity
  8
CSLAYER1
  6
CONTINUOUS
 62
     4
100
AcDbLine
 10
44.383113
 20
123.194417
 30
0.0
 11
43.60665599999999
 21
126.0921949999999
 31
0.0
  0
LINE
  5
B1
330
AC
100
AcDbEntity
  8
CSLAYER1
  6
CONTINUOUS
 62
     4
100
AcDbLine
 10
44.383113
 20
123.194417
 30
0.0
 11
45.15957
 21
126.0921949999999
 31
0.0
  0
LINE
  5
B2
330
AC
100
AcDbEntity
  8
CSLAYER1
  6
CONTINUOUS
 62
     4
100
AcDbLine
 10
44.383113
 20
135.1944169999999
 30
0.0
 11
43.60665599999999
 21
132.29664
 31
0.0
  0
LINE
  5
B3
330
AC
100
AcDbEntity
  8
CSLAYER1
  6
CONTINUOUS
 62
     4
100
AcDbLine
 10
44.383113
 20
135.1944169999999
 30
0.0
 11
45.15957
 21
132.29664
 31
0.0
  0
LINE
  5
B4
330
AC
100
AcDbEntity
  8
CSLAYER1
  6
CONTINUOUS
 62
     4
100
AcDbLine
 10
55.922315
 20
123.194417
 30
0.0
 11
43.38311299999999
 21
123.194417
 31
0.0
  0
LINE
  5
B5
330
AC
100
AcDbEntity
  8
CSLAYER1
  6
CONTINUOUS
 62
     4
100
AcDbLine
 10
55.922315
 20
135.1944169999999
 30
0.0
 11
43.38311299999999
 21
135.1944169999999
 31
0.0
  0
ENDBLK
  5
B6
330
AC
100
AcDbEntity
  8
0
100
AcDbBlockEnd
  0
BLOCK
  5
B8
330
B7
100
AcDbEntity
  8
0
100
AcDbBlockBegin
  2
*D12
 70
     1
 10
0.0
 20
0.0
 30
0.0
  3
*D12
  1

  0
TEXT
  5
B9
330
B7
100
AcDbEntity
  8
CSLAYER1
 62
     4
100
AcDbText
 10
37.88311399999999
 20
55.63953699999999
 30
0.0
 40
3.2
  1
%%c36
 50
90.0
 41
1.124999999999999
 51
15.0
  7
FX_FONT
 72
     5
 11
37.88311399999999
 21
65.23953699999998
 31
0.0
100
AcDbText
  0
LINE
  5
BA
330
B7
100
AcDbEntity
  8
CSLAYER1
  6
CONTINUOUS
 62
     4
100
AcDbLine
 10
38.383113
 20
42.439534
 30
0.0
 11
38.383113
 21
78.439534
 31
0.0
  0
LINE
  5
BB
330
B7
100
AcDbEntity
  8
CSLAYER1
  6
CONTINUOUS
 62
     4
100
AcDbLine
 10
38.383113
 20
42.439534
 30
0.0
 11
37.606656
 21
45.33731099999999
 31
0.0
  0
LINE
  5
BC
330
B7
100
AcDbEntity
  8
CSLAYER1
  6
CONTINUOUS
 62
     4
100
AcDbLine
 10
38.383113
 20
42.439534
 30
0.0
 11
39.15957
 21
45.33731099999999
 31
0.0
  0
LINE
  5
BD
330
B7
100
AcDbEntity
  8
CSLAYER1
  6
CONTINUOUS
 62
     4
100
AcDbLine
 10
38.383113
 20
78.439534
 30
0.0
 11
37.606656
 21
75.541756
 31
0.0
  0
LINE
  5
BE
330
B7
100
AcDbEntity
  8
CSLAYER1
  6
CONTINUOUS
 62
     4
100
AcDbLine
 10
38.383113
 20
78.439534
 30
0.0
 11
39.15957
 21
75.541756
 31
0.0
  0
LINE
  5
BF
330
B7
100
AcDbEntity
  8
CSLAYER1
  6
CONTINUOUS
 62
     4
100
AcDbLine
 10
86.922315
 20
42.439534
 30
0.0
 11
37.383113
 21
42.439534
 31
0.0
  0
LINE
  5
C0
330
B7
100
AcDbEntity
  8
CSLAYER1
  6
CONTINUOUS
 62
     4
100
AcDbLine
 10
86.922315
 20
78.439534
 30
0.0
 11
37.383113
 21
78.439534
 31
0.0
  0
ENDBLK
  5
C1
330
B7
100
AcDbEntity
  8
0
100
AcDbBlockEnd
  0
BLOCK
  5
C3
330
C2
100
AcDbEntity
  8
0
100
AcDbBlockBegin
  2
*D13
 70
     1
 10
0.0
 20
0.0
 30
0.0
  3
*D13
  1

  0
TEXT
  5
C4
330
C2
100
AcDbEntity
  8
CSLAYER1
 62
     4
100
AcDbText
 10
108.622317
 20
94.793617
 30
0.0
 40
3.2
  1
113
 41
1.125000117187489
 51
15.0
  7
FX_FONT
 72
     5
 11
118.2223179999999
 21
94.793617
 31
0.0
100
AcDbText
  0
LINE
  5
C5
330
C2
100
AcDbEntity
  8
CSLAYER1
  6
CONTINUOUS
 62
     4
100
AcDbLine
 10
56.922315
 20
94.293615
 30
0.0
 11
169.9223149999999
 21
94.293615
 31
0.0
  0
LINE
  5
C6
330
C2
100
AcDbEntity
  8
CSLAYER1
  6
CONTINUOUS
 62
     4
100
AcDbLine
 10
56.922315
 20
94.293615
 30
0.0
 11
59.820092
 21
95.070072
 31
0.0
  0
LINE
  5
C7
330
C2
100
AcDbEntity
  8
CSLAYER1
  6
CONTINUOUS
 62
     4
100
AcDbLine
 10
56.922315
 20
94.293615
 30
0.0
 11
59.820092
 21
93.51715799999999
 31
0.0
  0
LINE
  5
C8
330
C2
100
AcDbEntity
  8
CSLAYER1
  6
CONTINUOUS
 62
     4
100
AcDbLine
 10
169.9223149999999
 20
94.293615
 30
0.0
 11
167.024537
 21
95.070072
 31
0.0
  0
LINE
  5
C9
330
C2
100
AcDbEntity
  8
CSLAYER1
  6
CONTINUOUS
 62
     4
100
AcDbLine
 10
169.9223149999999
 20
94.293615
 30
0.0
 11
167.024537
 21
93.51715799999999
 31
0.0
  0
LINE
  5
CA
330
C2
100
AcDbEntity
  8
CSLAYER1
  6
CONTINUOUS
 62
     4
100
AcDbLine
 10
56.922315
 20
68.329572
 30
0.0
 11
56.922315
 21
95.293615
 31
0.0
  0
LINE
  5
CB
330
C2
100
AcDbEntity
  8
CSLAYER1
  6
CONTINUOUS
 62
     4
100
AcDbLine
 10
169.9223149999999
 20
77.93953399999998
 30
0.0
 11
169.9223149999999
 21
95.293615
 31
0.0
  0
ENDBLK
  5
CC
330
C2
100
AcDbEntity
  8
0
100
AcDbBlockEnd
  0
BLOCK
  5
CE
330
CD
100
AcDbEntity
  8
0
100
AcDbBlockBegin
  2
*D14
 70
     1
 10
0.0
 20
0.0
 30
0.0
  3
*D14
  1

  0
TEXT
  5
CF
330
CD
100
AcDbEntity
  8
CSLAYER1
 62
     4
100
AcDbText
 10
58.822314
 20
88.793617
 30
0.0
 40
3.2
  1
7
 41
1.500000000000001
 51
15.0
  7
FX_FONT
 72
     5
 11
62.022314
 21
88.793617
 31
0.0
100
AcDbText
  0
LINE
  5
D0
330
CD
100
AcDbEntity
  8
CSLAYER1
  6
CONTINUOUS
 62
     4
100
AcDbLine
 10
56.922315
 20
88.293615
 30
0.0
 11
63.92231500000001
 21
88.293615
 31
0.0
  0
LINE
  5
D1
330
CD
100
AcDbEntity
  8
CSLAYER1
  6
CONTINUOUS
 62
     4
100
AcDbLine
 10
56.922315
 20
88.293615
 30
0.0
 11
59.820092
 21
89.070072
 31
0.0
  0
LINE
  5
D2
330
CD
100
AcDbEntity
  8
CSLAYER1
  6
CONTINUOUS
 62
     4
100
AcDbLine
 10
56.922315
 20
88.293615
 30
0.0
 11
59.820092
 21
87.51715799999997
 31
0.0
  0
LINE
  5
D3
330
CD
100
AcDbEntity
  8
CSLAYER1
  6
CONTINUOUS
 62
     4
100
AcDbLine
 10
63.92231500000001
 20
88.293615
 30
0.0
 11
61.024537
 21
89.070072
 31
0.0
  0
LINE
  5
D4
330
CD
100
AcDbEntity
  8
CSLAYER1
  6
CONTINUOUS
 62
     4
100
AcDbLine
 10
63.92231500000001
 20
88.293615
 30
0.0
 11
61.024537
 21
87.51715799999997
 31
0.0
  0
LINE
  5
D5
330
CD
100
AcDbEntity
  8
CSLAYER1
  6
CONTINUOUS
 62
     4
100
AcDbLine
 10
63.92231500000001
 20
66.518241
 30
0.0
 11
63.92231500000001
 21
89.293615
 31
0.0
  0
ENDBLK
  5
D6
330
CD
100
AcDbEntity
  8
0
100
AcDbBlockEnd
  0
BLOCK
  5
D8
330
D7
100
AcDbEntity
  8
0
100
AcDbBlockBegin
  2
*D15
 70
     1
 10
0.0
 20
0.0
 30
0.0
  3
*D15
  1

  0
TEXT
  5
D9
330
D7
100
AcDbEntity
  8
CSLAYER1
 62
     4
100
AcDbText
 10
76.476389
 20
107.102911
 30
0.0
 40
3.2
  1
R14
 50
44.96693447242466
 41
1.124999922274872
 51
15.0
  7
FX_FONT
 72
     5
 11
83.26852999999998
 21
113.8872169999999
 31
0.0
100
AcDbText
  0
LINE
  5
DA
330
D7
100
AcDbEntity
  8
CSLAYER1
  6
CONTINUOUS
 62
     4
100
AcDbLine
 10
85.178411
 20
115.0881979999999
 30
0.0
 11
75.273204
 21
105.1944169999998
 31
0.0
  0
LINE
  5
DB
330
D7
100
AcDbEntity
  8
CSLAYER1
  6
CONTINUOUS
 62
     4
100
AcDbLine
 10
85.178411
 20
115.0881979999999
 30
0.0
 11
83.676911
 21
112.490987
 31
0.0
  0
LINE
  5
DC
330
D7
100
AcDbEntity
  8
CSLAYER1
  6
CONTINUOUS
 62
     4
100
AcDbLine
 10
85.178411
 20
115.0881979999999
 30
0.0
 11
82.57946899999998
 21
113.589697
 31
0.0
  0
ENDBLK
  5
DD
330
D7
100
AcDbEntity
  8
0
100
AcDbBlockEnd
  0
BLOCK
  5
DF
330
DE
100
AcDbEntity
  8
0
100
AcDbBlockBegin
  2
FXDIM0003
 70
     0
 10
0.0
 20
0.0
 30
0.0
  3
FXDIM0003
  1

  0
TEXT
  5
E0
330
DE
100
AcDbEntity
  8
CSLAYER1
 62
     4
100
AcDbText
 10
52.059215
 20
111.120467
 30
0.0
 40
3.2
  1
C2
 50
45.00000633034853
 41
1.200000026624181
 51
15.0
  7
FX_FONT
 72
     5
 11
56.58469799999998
 21
115.6459509999999
 31
0.0
100
AcDbText
  0
LINE
  5
E1
330
DE
100
AcDbEntity
  8
CSLAYER1
  6
CONTINUOUS
 62
     4
100
AcDbLine
 10
57.922315
 20
120.1944169999999
 30
0.0
 11
56.69549499999999
 21
118.967598
 31
0.0
  0
LINE
  5
E2
330
DE
100
AcDbEntity
  8
CSLAYER1
  6
CONTINUOUS
 62
     4
100
AcDbLine
 10
57.922315
 20
120.1944169999999
 30
0.0
 11
56.42231500000001
 21
117.596341
 31
0.0
  0
LINE
  5
E3
330
DE
100
AcDbEntity
  8
CSLAYER1
  6
CONTINUOUS
 62
     4
100
AcDbLine
 10
57.922315
 20
120.1944169999999
 30
0.0
 11
55.324239
 21
118.6944169999998
 31
0.0
  0
ENDBLK
  5
E4
330
DE
100
AcDbEntity
  8
0
100
AcDbBlockEnd
  0
BLOCK
  5
219
330
20C
100
AcDbEntity
  8
0
100
AcDbBlockBegin
  2
*D17
 70
     1
 10
0.0
 20
0.0
 30
0.0
  3
*D17
  1

  0
LINE
  5
20D
330
20C
100
AcDbEntity
  8
CSLAYER1
 62
     0
100
AcDbLine
 10
211.34869
 20
129.1944169999998
 30
0.0
 11
204.920468005941
 21
129.1944169999998
 31
0.0
  0
LINE
  5
20E
330
20C
100
AcDbEntity
  8
CSLAYER1
 62
     0
100
AcDbLine
 10
223.1387528261758
 20
117.7778008261758
 30
0.0
 11
213.6003295473089
 21
108.239377547309
 31
0.0
  0
ARC
  5
20F
330
20C
100
AcDbEntity
  8
CSLAYER1
 62
     0
100
AcDbCircle
 10
234.555369
 20
129.1944169999998
 30
0.0
 40
29.45490099405891
100
AcDbArc
 50
180.3501371932038
 51
202.1215298362998
  0
ARC
  5
210
330
20C
100
AcDbEntity
  8
CSLAYER1
 62
     0
100
AcDbCircle
 10
234.555369
 20
129.1944169999998
 30
0.0
 40
29.45490099405891
100
AcDbArc
 50
202.8795085631695
 51
224.649862806796
  0
SOLID
  5
211
330
20C
100
AcDbEntity
  8
CSLAYER1
 62
     0
100
AcDbTrace
 10
205.0710181393454
 20
129.0143261746992
 30
0.0
 11
205.131017859259
 21
129.0145095058195
 31
0.0
 12
205.100468005941
 22
129.1944169999998
 32
0.0
 13
205.100468005941
 23
129.1944169999998
 33
0.0
  0
SOLID
  5
212
330
20C
100
AcDbEntity
  8
CSLAYER1
 62
     0
100
AcDbTrace
 10
213.6219969672465
 20
108.5154725854891
 30
0.0
 11
213.5794411237481
 21
108.4731760113474
 31
0.0
 12
213.7276087679226
 22
108.3666567679225
 32
0.0
 13
213.7276087679226
 23
108.3666567679225
 33
0.0
  0
MTEXT
  5
213
330
20C
100
AcDbEntity
  8
CSLAYER1
 62
     0
100
AcDbMText
 10
207.3425888394425
 20
117.9225143876195
 30
0.0
 40
0.18
 41
0.0
 71
     5
 72
     1
  1
\A1;45°
1001
ACAD
1000
MTEXTBEGIN
1070
    73
1070
     1
1070
    44
1040
1.0
1070
    74
1070
     0
1000
MTEXTEND
  0
POINT
  5
214
330
20C
100
AcDbEntity
  8
DEFPOINTS
 62
     0
100
AcDbPoint
 10
206.104119419051
 20
121.5709276511284
 30
0.0
  0
POINT
  5
215
330
20C
100
AcDbEntity
  8
DEFPOINTS
 62
     0
100
AcDbPoint
 10
234.555369
 20
129.1944169999998
 30
0.0
  0
POINT
  5
216
330
20C
100
AcDbEntity
  8
DEFPOINTS
 62
     0
100
AcDbPoint
 10
223.182947
 20
117.8219949999999
 30
0.0
  0
POINT
  5
217
330
20C
100
AcDbEntity
  8
DEFPOINTS
 62
     0
100
AcDbPoint
 10
229.155099
 20
123.7941469999999
 30
0.0
  0
POINT
  5
218
330
20C
100
AcDbEntity
  8
DEFPOINTS
 62
     0
100
AcDbPoint
 10
211.41119
 20
129.1944169999998
 30
0.0
  0
ENDBLK
  5
21A
330
20C
100
AcDbEntity
  8
0
100
AcDbBlockEnd
  0
ENDSEC
  0
SECTION
  2
ENTITIES
  0
LINE
  5
E5
330
1E
100
AcDbEntity
  8
CSLAYER1
  6
CONTINUOUS
 62
     3
100
AcDbLine
 10
59.17268100000001
 20
50.644663
 30
0.0
 11
81.922315
 21
44.77379
 31
0.0
  0
LINE
  5
E6
330
1E
100
AcDbEntity
  8
CSLAYER1
  6
CONTINUOUS
 62
     3
100
AcDbLine
 10
81.922315
 20
44.77379
 30
0.0
 11
81.922315
 21
43.987921
 31
0.0
  0
LINE
  5
E7
330
1E
100
AcDbEntity
  8
CSLAYER1
  6
CONTINUOUS
 62
     3
100
AcDbLine
 10
81.922315
 20
43.987921
 30
0.0
 11
87.92231499999997
 21
42.439534
 31
0.0
  0
LINE
  5
E8
330
1E
100
AcDbEntity
  8
CSLAYER1
  6
CONTINUOUS
 62
     3
100
AcDbLine
 10
87.92231499999997
 20
42.439534
 30
0.0
 11
87.92231499999997
 21
78.439534
 31
0.0
  0
LINE
  5
E9
330
1E
100
AcDbEntity
  8
CSLAYER1
  6
CONTINUOUS
 62
     3
100
AcDbLine
 10
87.92231499999997
 20
78.439534
 30
0.0
 11
81.922315
 21
76.89114599999998
 31
0.0
  0
LINE
  5
EA
330
1E
100
AcDbEntity
  8
CSLAYER1
  6
CONTINUOUS
 62
     3
100
AcDbLine
 10
81.922315
 20
76.89114599999998
 30
0.0
 11
81.922315
 21
76.105277
 31
0.0
  0
LINE
  5
EB
330
1E
100
AcDbEntity
  8
CSLAYER1
  6
CONTINUOUS
 62
     3
100
AcDbLine
 10
81.922315
 20
76.105277
 30
0.0
 11
59.17268100000001
 21
70.234404
 31
0.0
  0
ARC
  5
EC
330
1E
100
AcDbEntity
  8
CSLAYER1
  6
CONTINUOUS
 62
     3
100
AcDbCircle
 10
59.922315
 20
67.329572
 30
0.0
 40
3.0
100
AcDbArc
 50
104.470294
 51
180.0
  0
LINE
  5
ED
330
1E
100
AcDbEntity
  8
CSLAYER1
  6
CONTINUOUS
 62
     3
100
AcDbLine
 10
56.922315
 20
67.329572
 30
0.0
 11
56.922315
 21
53.549495
 31
0.0
  0
ARC
  5
EE
330
1E
100
AcDbEntity
  8
CSLAYER1
  6
CONTINUOUS
 62
     3
100
AcDbCircle
 10
59.922315
 20
53.549495
 30
0.0
 40
3.0
100
AcDbArc
 50
180.0
 51
255.529706
  0
LINE
  5
EF
330
1E
100
AcDbEntity
  8
CSLAYER1
  6
CONTINUOUS
 62
     3
100
AcDbLine
 10
58.92231500000001
 20
55.43953399999999
 30
0.0
 11
58.92231500000001
 21
65.43953399999999
 31
0.0
  0
ARC
  5
F0
330
1E
100
AcDbEntity
  8
CSLAYER1
  6
CONTINUOUS
 62
     3
100
AcDbCircle
 10
57.922315
 20
65.43953399999999
 30
0.0
 40
1.0
100
AcDbArc
 50
0.0
 51
180.0
  0
LINE
  5
F1
330
1E
100
AcDbEntity
  8
CSLAYER1
  6
CONTINUOUS
 62
     3
100
AcDbLine
 10
58.92231500000001
 20
65.43953399999999
 30
0.0
 11
75.60010099999998
 21
69.46520600000001
 31
0.0
  0
ARC
  5
F2
330
1E
100
AcDbEntity
  8
CSLAYER1
  6
CONTINUOUS
 62
     3
100
AcDbCircle
 10
77.946506
 20
59.744384
 30
0.0
 40
10.0
100
AcDbArc
 50
3.986129
 51
103.5704339999999
  0
ARC
  5
F3
330
1E
100
AcDbEntity
  8
CSLAYER1
  6
CONTINUOUS
 62
     3
100
AcDbCircle
 10
77.946506
 20
61.134683
 30
0.0
 40
10.0
100
AcDbArc
 50
256.429566
 51
356.0138709999999
  0
LINE
  5
F4
330
1E
100
AcDbEntity
  8
CSLAYER1
  6
CONTINUOUS
 62
     3
100
AcDbLine
 10
75.60010099999998
 20
51.413861
 30
0.0
 11
58.92231500000001
 21
55.43953399999999
 31
0.0
  0
ARC
  5
F5
330
1E
100
AcDbEntity
  8
CSLAYER1
  6
CONTINUOUS
 62
     3
100
AcDbCircle
 10
57.922315
 20
55.43953399999999
 30
0.0
 40
1.0
100
AcDbArc
 50
180.0
 51
0.0
  0
LINE
  5
F6
330
1E
100
AcDbEntity
  8
CSLAYER1
  6
CONTINUOUS
 62
     3
100
AcDbLine
 10
62.334602
 20
57.689534
 30
0.0
 11
65.510028
 21
57.689534
 31
0.0
  0
LINE
  5
F7
330
1E
100
AcDbEntity
  8
CSLAYER1
  6
CONTINUOUS
 62
     3
100
AcDbLine
 10
65.510028
 20
57.689534
 30
0.0
 11
67.097741
 21
60.43953399999999
 31
0.0
  0
LINE
  5
F8
330
1E
100
AcDbEntity
  8
CSLAYER1
  6
CONTINUOUS
 62
     3
100
AcDbLine
 10
67.097741
 20
60.43953399999999
 30
0.0
 11
65.510028
 21
63.18953399999998
 31
0.0
  0
LINE
  5
F9
330
1E
100
AcDbEntity
  8
CSLAYER1
  6
CONTINUOUS
 62
     3
100
AcDbLine
 10
65.510028
 20
63.18953399999998
 30
0.0
 11
62.334602
 21
63.18953399999998
 31
0.0
  0
LINE
  5
FA
330
1E
100
AcDbEntity
  8
CSLAYER1
  6
CONTINUOUS
 62
     3
100
AcDbLine
 10
62.334602
 20
63.18953399999998
 30
0.0
 11
60.746888
 21
60.43953399999999
 31
0.0
  0
LINE
  5
FB
330
1E
100
AcDbEntity
  8
CSLAYER1
  6
CONTINUOUS
 62
     3
100
AcDbLine
 10
60.746888
 20
60.43953399999999
 30
0.0
 11
62.334602
 21
57.689534
 31
0.0
  0
CIRCLE
  5
FC
330
1E
100
AcDbEntity
  8
CSLAYER1
  6
CONTINUOUS
 62
     3
100
AcDbCircle
 10
63.92231500000001
 20
60.43953399999999
 30
0.0
 40
2.75
  0
CIRCLE
  5
FD
330
1E
100
AcDbEntity
  8
CSLAYER1
  6
CONTINUOUS
 62
     3
100
AcDbCircle
 10
63.92231500000001
 20
60.43953399999999
 30
0.0
 40
3.5
  0
CIRCLE
  5
FE
330
1E
100
AcDbEntity
  8
CSLAYER1
  6
CONTINUOUS
 62
     3
100
AcDbCircle
 10
63.92231500000001
 20
60.43953399999999
 30
0.0
 40
1.5
  0
LINE
  5
FF
330
1E
100
AcDbEntity
  8
CSLAYER1
  6
CONTINUOUS
 62
     3
100
AcDbLine
 10
87.92231499999997
 20
42.439534
 30
0.0
 11
168.422315
 21
42.439534
 31
0.0
  0
LINE
  5
100
330
1E
100
AcDbEntity
  8
CSLAYER1
  6
CONTINUOUS
 62
     3
100
AcDbLine
 10
168.422315
 20
42.439534
 30
0.0
 11
168.422315
 21
50.489659
 31
0.0
  0
LINE
  5
101
330
1E
100
AcDbEntity
  8
CSLAYER1
  6
CONTINUOUS
 62
     3
100
AcDbLine
 10
168.422315
 20
50.489659
 30
0.0
 11
154.9223149999999
 21
50.489659
 31
0.0
  0
LINE
  5
102
330
1E
100
AcDbEntity
  8
CSLAYER1
  6
CONTINUOUS
 62
     3
100
AcDbLine
 10
154.9223149999999
 20
50.489659
 30
0.0
 11
154.9223149999999
 21
70.38940799999997
 31
0.0
  0
LINE
  5
103
330
1E
100
AcDbEntity
  8
CSLAYER1
  6
CONTINUOUS
 62
     3
100
AcDbLine
 10
154.9223149999999
 20
70.38940799999997
 30
0.0
 11
168.422315
 21
70.38940799999997
 31
0.0
  0
LINE
  5
104
330
1E
100
AcDbEntity
  8
CSLAYER1
  6
CONTINUOUS
 62
     3
100
AcDbLine
 10
168.422315
 20
70.38940799999997
 30
0.0
 11
169.9223149999999
 21
68.88940799999999
 31
0.0
  0
LINE
  5
105
330
1E
100
AcDbEntity
  8
CSLAYER1
  6
CONTINUOUS
 62
     3
100
AcDbLine
 10
168.422315
 20
70.38940799999997
 30
0.0
 11
168.422315
 21
78.439534
 31
0.0
  0
LINE
  5
106
330
1E
100
AcDbEntity
  8
CSLAYER1
  6
CONTINUOUS
 62
     3
100
AcDbLine
 10
168.422315
 20
78.439534
 30
0.0
 11
87.92231499999997
 21
78.439534
 31
0.0
  0
ARC
  5
107
330
1E
100
AcDbEntity
  8
CSLAYER1
  6
CONTINUOUS
 62
     3
100
AcDbCircle
 10
75.273204
 20
105.1944169999998
 30
0.0
 40
14.0
100
AcDbArc
 50
25.376934
 51
90.0
  0
LINE
  5
108
330
1E
100
AcDbEntity
  8
CSLAYER1
  6
CONTINUOUS
 62
     3
100
AcDbLine
 10
75.273204
 20
119.1944169999999
 30
0.0
 11
58.92231500000001
 21
119.1944169999999
 31
0.0
  0
LINE
  5
109
330
1E
100
AcDbEntity
  8
CSLAYER1
  6
CONTINUOUS
 62
     3
100
AcDbLine
 10
58.92231500000001
 20
119.1944169999999
 30
0.0
 11
56.922315
 21
121.1944169999999
 31
0.0
  0
LINE
  5
10A
330
1E
100
AcDbEntity
  8
CSLAYER1
  6
CONTINUOUS
 62
     3
100
AcDbLine
 10
56.922315
 20
121.1944169999999
 30
0.0
 11
56.922315
 21
123.194417
 31
0.0
  0
LINE
  5
10B
330
1E
100
AcDbEntity
  8
CSLAYER1
  6
CONTINUOUS
 62
     3
100
AcDbLine
 10
56.922315
 20
123.194417
 30
0.0
 11
81.922315
 21
123.194417
 31
0.0
  0
LINE
  5
10C
330
1E
100
AcDbEntity
  8
CSLAYER1
  6
CONTINUOUS
 62
     3
100
AcDbLine
 10
81.922315
 20
123.194417
 30
0.0
 11
81.922315
 21
135.1944169999999
 31
0.0
  0
LINE
  5
10D
330
1E
100
AcDbEntity
  8
CSLAYER1
  6
CONTINUOUS
 62
     3
100
AcDbLine
 10
81.922315
 20
135.1944169999999
 30
0.0
 11
56.922315
 21
135.1944169999999
 31
0.0
  0
LINE
  5
10E
330
1E
100
AcDbEntity
  8
CSLAYER1
  6
CONTINUOUS
 62
     3
100
AcDbLine
 10
56.922315
 20
135.1944169999999
 30
0.0
 11
56.922315
 21
137.1944169999999
 31
0.0
  0
LINE
  5
10F
330
1E
100
AcDbEntity
  8
CSLAYER1
  6
CONTINUOUS
 62
     3
100
AcDbLine
 10
56.922315
 20
137.1944169999999
 30
0.0
 11
58.92231500000001
 21
139.1944169999999
 31
0.0
  0
LINE
  5
110
330
1E
100
AcDbEntity
  8
CSLAYER1
  6
CONTINUOUS
 62
     3
100
AcDbLine
 10
58.92231500000001
 20
139.1944169999999
 30
0.0
 11
75.273204
 21
139.1944169999999
 31
0.0
  0
ARC
  5
111
330
1E
100
AcDbEntity
  8
CSLAYER1
  6
CONTINUOUS
 62
     3
100
AcDbCircle
 10
75.273204
 20
153.1944169999999
 30
0.0
 40
14.0
100
AcDbArc
 50
270.0
 51
334.6230659999999
  0
LINE
  5
112
330
1E
100
AcDbEntity
  8
CSLAYER1
  6
CONTINUOUS
 62
     3
100
AcDbLine
 10
87.92231499999997
 20
147.1944169999999
 30
0.0
 11
87.92231499999997
 21
111.1944169999999
 31
0.0
  0
LINE
  5
113
330
1E
100
AcDbEntity
  8
CSLAYER1
  6
CONTINUOUS
 62
     3
100
AcDbLine
 10
87.92231499999997
 20
111.1944169999999
 30
0.0
 11
154.9223149999999
 21
111.1944169999999
 31
0.0
  0
LINE
  5
114
330
1E
100
AcDbEntity
  8
CSLAYER1
  6
CONTINUOUS
 62
     3
100
AcDbLine
 10
154.9223149999999
 20
111.1944169999999
 30
0.0
 11
154.9223149999999
 21
112.1944169999999
 31
0.0
  0
ARC
  5
115
330
1E
100
AcDbEntity
  8
CSLAYER1
  6
CONTINUOUS
 62
     3
100
AcDbCircle
 10
156.922315
 20
112.1944169999999
 30
0.0
 40
2.0
100
AcDbArc
 50
90.0
 51
180.0
  0
LINE
  5
116
330
1E
100
AcDbEntity
  8
CSLAYER1
  6
CONTINUOUS
 62
     3
100
AcDbLine
 10
156.922315
 20
114.1944169999999
 30
0.0
 11
168.422315
 21
114.1944169999999
 31
0.0
  0
LINE
  5
117
330
1E
100
AcDbEntity
  8
CSLAYER1
  6
CONTINUOUS
 62
     3
100
AcDbLine
 10
168.422315
 20
114.1944169999999
 30
0.0
 11
169.9223149999999
 21
115.6944169999998
 31
0.0
  0
LINE
  5
118
330
1E
100
AcDbEntity
  8
CSLAYER1
  6
CONTINUOUS
 62
     3
100
AcDbLine
 10
169.9223149999999
 20
115.6944169999998
 30
0.0
 11
169.9223149999999
 21
142.6944169999998
 31
0.0
  0
LINE
  5
119
330
1E
100
AcDbEntity
  8
CSLAYER1
  6
CONTINUOUS
 62
     3
100
AcDbLine
 10
169.9223149999999
 20
142.6944169999998
 30
0.0
 11
168.422315
 21
144.194417
 31
0.0
  0
LINE
  5
11A
330
1E
100
AcDbEntity
  8
CSLAYER1
  6
CONTINUOUS
 62
     3
100
AcDbLine
 10
168.422315
 20
144.194417
 30
0.0
 11
156.922315
 21
144.194417
 31
0.0
  0
ARC
  5
11B
330
1E
100
AcDbEntity
  8
CSLAYER1
  6
CONTINUOUS
 62
     3
100
AcDbCircle
 10
156.922315
 20
146.1944169999999
 30
0.0
 40
2.0
100
AcDbArc
 50
180.0
 51
270.0
  0
LINE
  5
11C
330
1E
100
AcDbEntity
  8
CSLAYER1
  6
CONTINUOUS
 62
     3
100
AcDbLine
 10
154.9223149999999
 20
146.1944169999999
 30
0.0
 11
154.9223149999999
 21
147.1944169999999
 31
0.0
  0
LINE
  5
11D
330
1E
100
AcDbEntity
  8
CSLAYER1
  6
CONTINUOUS
 62
     3
100
AcDbLine
 10
154.9223149999999
 20
147.1944169999999
 30
0.0
 11
87.92231499999997
 21
147.1944169999999
 31
0.0
  0
LINE
  5
11E
330
1E
100
AcDbEntity
  8
CSLAYER1
  6
CONTINUOUS
 62
     3
100
AcDbLine
 10
65.922315
 20
135.1944169999999
 30
0.0
 11
65.922315
 21
123.194417
 31
0.0
  0
LINE
  5
11F
330
1E
100
AcDbEntity
  8
CSLAYER1
  6
CONTINUOUS
 62
     3
100
AcDbLine
 10
61.922315
 20
123.194417
 30
0.0
 11
61.922315
 21
135.1944169999999
 31
0.0
  0
LINE
  5
120
330
1E
100
AcDbEntity
  8
CSLAYER1
  6
CONTINUOUS
 62
     3
100
AcDbLine
 10
62.334602
 20
119.1944169999999
 30
0.0
 11
62.334602
 21
119.040037
 31
0.0
  0
ARC
  5
121
330
1E
100
AcDbEntity
  8
CSLAYER1
  6
CONTINUOUS
 62
     3
100
AcDbCircle
 10
63.92231500000001
 20
124.0487969999999
 30
0.0
 40
5.25438
100
AcDbArc
 50
252.412046
 51
287.587954
  0
LINE
  5
122
330
1E
100
AcDbEntity
  8
CSLAYER1
  6
CONTINUOUS
 62
     3
100
AcDbLine
 10
65.510028
 20
119.040037
 30
0.0
 11
65.510028
 21
119.1944169999999
 31
0.0
  0
ARC
  5
123
330
1E
100
AcDbEntity
  8
CSLAYER1
  6
CONTINUOUS
 62
     3
100
AcDbCircle
 10
67.11764399999998
 20
123.7745459999999
 30
0.0
 40
5.0
100
AcDbArc
 50
251.244938
 51
264.8901359999999
  0
LINE
  5
124
330
1E
100
AcDbEntity
  8
CSLAYER1
  6
CONTINUOUS
 62
     3
100
AcDbLine
 10
66.67231499999999
 20
118.7944169999999
 30
0.0
 11
61.172315
 21
118.7944169999999
 31
0.0
  0
LINE
  5
125
330
1E
100
AcDbEntity
  8
CSLAYER1
  6
CONTINUOUS
 62
     3
100
AcDbLine
 10
61.172315
 20
118.7944169999999
 30
0.0
 11
60.746888
 21
119.040037
 31
0.0
  0
LINE
  5
126
330
1E
100
AcDbEntity
  8
CSLAYER1
  6
CONTINUOUS
 62
     3
100
AcDbLine
 10
60.746888
 20
119.040037
 30
0.0
 11
60.746888
 21
119.1944169999999
 31
0.0
  0
ARC
  5
127
330
1E
100
AcDbEntity
  8
CSLAYER1
  6
CONTINUOUS
 62
     3
100
AcDbCircle
 10
60.72698599999998
 20
123.7745459999999
 30
0.0
 40
5.0
100
AcDbArc
 50
275.109864
 51
288.755062
  0
LINE
  5
128
330
1E
100
AcDbEntity
  8
CSLAYER1
  6
CONTINUOUS
 62
     3
100
AcDbLine
 10
62.422315
 20
118.7944169999999
 30
0.0
 11
62.422315
 21
115.8944169999999
 31
0.0
  0
LINE
  5
129
330
1E
100
AcDbEntity
  8
CSLAYER1
  6
CONTINUOUS
 62
     3
100
AcDbLine
 10
62.422315
 20
115.8944169999999
 30
0.0
 11
62.922315
 21
115.3944169999999
 31
0.0
  0
LINE
  5
12A
330
1E
100
AcDbEntity
  8
CSLAYER1
  6
CONTINUOUS
 62
     3
100
AcDbLine
 10
62.922315
 20
115.3944169999999
 30
0.0
 11
64.92231499999999
 21
115.3944169999999
 31
0.0
  0
LINE
  5
12B
330
1E
100
AcDbEntity
  8
CSLAYER1
  6
CONTINUOUS
 62
     3
100
AcDbLine
 10
64.92231499999999
 20
115.3944169999999
 30
0.0
 11
65.42231499999999
 21
115.8944169999999
 31
0.0
  0
LINE
  5
12C
330
1E
100
AcDbEntity
  8
CSLAYER1
  6
CONTINUOUS
 62
     3
100
AcDbLine
 10
65.42231499999999
 20
115.8944169999999
 30
0.0
 11
65.42231499999999
 21
118.7944169999999
 31
0.0
  0
LINE
  5
12D
330
1E
100
AcDbEntity
  8
CSLAYER1
  6
CONTINUOUS
 62
     3
100
AcDbLine
 10
66.67231499999999
 20
118.7944169999999
 30
0.0
 11
67.097741
 21
119.040037
 31
0.0
  0
LINE
  5
12E
330
1E
100
AcDbEntity
  8
CSLAYER1
  6
CONTINUOUS
 62
     3
100
AcDbLine
 10
67.097741
 20
119.040037
 30
0.0
 11
67.097741
 21
119.1944169999999
 31
0.0
  0
LINE
  5
12F
330
1E
100
AcDbEntity
  8
CSLAYER1
  6
CONTINUOUS
 62
     3
100
AcDbLine
 10
149.9223149999999
 20
111.1944169999999
 30
0.0
 11
149.9223149999999
 21
147.1944169999999
 31
0.0
  0
LINE
  5
130
330
1E
100
AcDbEntity
  8
CSLAYER1
  6
CONTINUOUS
 62
     3
100
AcDbLine
 10
168.422315
 20
144.194417
 30
0.0
 11
168.422315
 21
114.1944169999999
 31
0.0
  0
LINE
  5
131
330
1E
100
AcDbEntity
  8
CSLAYER1
  6
CONTINUOUS
 62
     3
100
AcDbLine
 10
168.422315
 20
78.439534
 30
0.0
 11
169.9223149999999
 21
76.93953399999998
 31
0.0
  0
LINE
  5
132
330
1E
100
AcDbEntity
  8
CSLAYER1
  6
CONTINUOUS
 62
     3
100
AcDbLine
 10
169.9223149999999
 20
76.93953399999998
 30
0.0
 11
169.9223149999999
 21
43.939534
 31
0.0
  0
LINE
  5
133
330
1E
100
AcDbEntity
  8
CSLAYER1
  6
CONTINUOUS
 62
     3
100
AcDbLine
 10
169.9223149999999
 20
43.939534
 30
0.0
 11
168.422315
 21
42.439534
 31
0.0
  0
LINE
  5
134
330
1E
100
AcDbEntity
  8
CSLAYER1
  6
CONTINUOUS
 62
     3
100
AcDbLine
 10
168.422315
 20
50.489659
 30
0.0
 11
169.9223149999999
 21
51.98965900000001
 31
0.0
  0
LINE
  5
135
330
1E
100
AcDbEntity
  8
CSLAYER1
  6
CONTINUOUS
 62
     3
100
AcDbLine
 10
149.9223149999999
 20
42.439534
 30
0.0
 11
149.9223149999999
 21
78.439534
 31
0.0
  0
LINE
  5
136
330
1E
100
AcDbEntity
  8
CSLAYER1
  6
CONTINUOUS
 62
     3
100
AcDbLine
 10
224.605495
 20
114.1944169999999
 30
0.0
 11
244.5052439999999
 21
114.1944169999999
 31
0.0
  0
ARC
  5
137
330
1E
100
AcDbEntity
  8
CSLAYER1
  6
CONTINUOUS
 62
     3
100
AcDbCircle
 10
234.555369
 20
129.1944169999998
 30
0.0
 40
16.5
100
AcDbArc
 50
294.619977
 51
65.38002299999999
  0
LINE
  5
138
330
1E
100
AcDbEntity
  8
CSLAYER1
  6
CONTINUOUS
 62
     3
100
AcDbLine
 10
244.5052439999999
 20
144.194417
 30
0.0
 11
224.605495
 21
144.194417
 31
0.0
  0
ARC
  5
139
330
1E
100
AcDbEntity
  8
CSLAYER1
  6
CONTINUOUS
 62
     3
100
AcDbCircle
 10
234.555369
 20
129.1944169999998
 30
0.0
 40
16.5
100
AcDbArc
 50
114.619977
 51
245.380023
  0
CIRCLE
  5
13A
330
1E
100
AcDbEntity
  8
CSLAYER1
  6
CONTINUOUS
 62
     3
100
AcDbCircle
 10
226.0700879999999
 20
120.709136
 30
0.0
 40
1.649999999999999
  0
CIRCLE
  5
13B
330
1E
100
AcDbEntity
  8
CSLAYER1
  6
CONTINUOUS
 62
     3
100
AcDbCircle
 10
234.555369
 20
129.1944169999998
 30
0.0
 40
3.0
  0
CIRCLE
  5
13C
330
1E
100
AcDbEntity
  8
CSLAYER1
  6
CONTINUOUS
 62
     3
100
AcDbCircle
 10
234.555369
 20
129.1944169999998
 30
0.0
 40
4.25
  0
CIRCLE
  5
13D
330
1E
100
AcDbEntity
  8
CSLAYER1
  6
CONTINUOUS
 62
     3
100
AcDbCircle
 10
234.555369
 20
129.1944169999998
 30
0.0
 40
18.0
  0
CIRCLE
  5
13E
330
1E
100
AcDbEntity
  8
CSLAYER1
  6
CONTINUOUS
 62
     3
100
AcDbCircle
 10
243.0406509999999
 20
137.679699
 30
0.0
 40
1.649999999999999
  0
POINT
  5
13F
330
1E
100
AcDbEntity
  8
CSLAYER1
 62
     3
100
AcDbPoint
 10
252.0
 20
19.0
 30
0.0
  0
POLYLINE
  5
140
330
1E
100
AcDbEntity
  8
CSLAYER1
  6
CONTINUOUS
 62
     3
100
AcDb2dPolyline
 66
     1
 10
0.0
 20
0.0
 30
0.0
  0
VERTEX
  5
141
330
140
100
AcDbEntity
  8
CSLAYER1
  6
CONTINUOUS
 62
     3
100
AcDbVertex
100
AcDb2dVertex
 10
159.922315
 20
139.2678459999999
 30
0.0
  0
VERTEX
  5
142
330
140
100
AcDbEntity
  8
CSLAYER1
  6
CONTINUOUS
 62
     3
100
AcDbVertex
100
AcDb2dVertex
 10
159.5645409999999
 20
139.251673
 30
0.0
  0
VERTEX
  5
143
330
140
100
AcDbEntity
  8
CSLAYER1
  6
CONTINUOUS
 62
     3
100
AcDbVertex
100
AcDb2dVertex
 10
159.209489
 20
139.203279
 30
0.0
  0
VERTEX
  5
144
330
140
100
AcDbEntity
  8
CSLAYER1
  6
CONTINUOUS
 62
     3
100
AcDbVertex
100
AcDb2dVertex
 10
158.8598629999999
 20
139.123031
 30
0.0
  0
VERTEX
  5
145
330
140
100
AcDbEntity
  8
CSLAYER1
  6
CONTINUOUS
 62
     3
100
AcDbVertex
100
AcDb2dVertex
 10
158.5183219999999
 20
139.011539
 30
0.0
  0
VERTEX
  5
146
330
140
100
AcDbEntity
  8
CSLAYER1
  6
CONTINUOUS
 62
     3
100
AcDbVertex
100
AcDb2dVertex
 10
158.1874669999999
 20
138.8696539999999
 30
0.0
  0
VERTEX
  5
147
330
140
100
AcDbEntity
  8
CSLAYER1
  6
CONTINUOUS
 62
     3
100
AcDbVertex
100
AcDb2dVertex
 10
157.8698149999999
 20
138.698454
 30
0.0
  0
VERTEX
  5
148
330
140
100
AcDbEntity
  8
CSLAYER1
  6
CONTINUOUS
 62
     3
100
AcDbVertex
100
AcDb2dVertex
 10
157.567784
 20
138.4992419999998
 30
0.0
  0
VERTEX
  5
149
330
140
100
AcDbEntity
  8
CSLAYER1
  6
CONTINUOUS
 62
     3
100
AcDbVertex
100
AcDb2dVertex
 10
157.2836719999999
 20
138.273535
 30
0.0
  0
VERTEX
  5
14A
330
140
100
AcDbEntity
  8
CSLAYER1
  6
CONTINUOUS
 62
     3
100
AcDbVertex
100
AcDb2dVertex
 10
157.019642
 20
138.02305
 30
0.0
  0
VERTEX
  5
14B
330
140
100
AcDbEntity
  8
CSLAYER1
  6
CONTINUOUS
 62
     3
100
AcDbVertex
100
AcDb2dVertex
 10
156.777703
 20
137.7496929999999
 30
0.0
  0
VERTEX
  5
14C
330
140
100
AcDbEntity
  8
CSLAYER1
  6
CONTINUOUS
 62
     3
100
AcDbVertex
100
AcDb2dVertex
 10
156.559696
 20
137.455546
 30
0.0
  0
VERTEX
  5
14D
330
140
100
AcDbEntity
  8
CSLAYER1
  6
CONTINUOUS
 62
     3
100
AcDbVertex
100
AcDb2dVertex
 10
156.367281
 20
137.1428459999999
 30
0.0
  0
VERTEX
  5
14E
330
140
100
AcDbEntity
  8
CSLAYER1
  6
CONTINUOUS
 62
     3
100
AcDbVertex
100
AcDb2dVertex
 10
156.2019219999999
 20
136.8139729999998
 30
0.0
  0
VERTEX
  5
14F
330
140
100
AcDbEntity
  8
CSLAYER1
  6
CONTINUOUS
 62
     3
100
AcDbVertex
100
AcDb2dVertex
 10
156.064877
 20
136.4714309999999
 30
0.0
  0
VERTEX
  5
150
330
140
100
AcDbEntity
  8
CSLAYER1
  6
CONTINUOUS
 62
     3
100
AcDbVertex
100
AcDb2dVertex
 10
155.9571889999999
 20
136.117827
 30
0.0
  0
VERTEX
  5
151
330
140
100
AcDbEntity
  8
CSLAYER1
  6
CONTINUOUS
 62
     3
100
AcDbVertex
100
AcDb2dVertex
 10
155.879679
 20
135.755851
 30
0.0
  0
VERTEX
  5
152
330
140
100
AcDbEntity
  8
CSLAYER1
  6
CONTINUOUS
 62
     3
100
AcDbVertex
100
AcDb2dVertex
 10
155.832936
 20
135.388258
 30
0.0
  0
VERTEX
  5
153
330
140
100
AcDbEntity
  8
CSLAYER1
  6
CONTINUOUS
 62
     3
100
AcDbVertex
100
AcDb2dVertex
 10
155.8173149999998
 20
135.0178459999999
 30
0.0
  0
VERTEX
  5
154
330
140
100
AcDbEntity
  8
CSLAYER1
  6
CONTINUOUS
 62
     3
100
AcDbVertex
100
AcDb2dVertex
 10
155.832936
 20
134.647434
 30
0.0
  0
VERTEX
  5
155
330
140
100
AcDbEntity
  8
CSLAYER1
  6
CONTINUOUS
 62
     3
100
AcDbVertex
100
AcDb2dVertex
 10
155.879679
 20
134.279841
 30
0.0
  0
VERTEX
  5
156
330
140
100
AcDbEntity
  8
CSLAYER1
  6
CONTINUOUS
 62
     3
100
AcDbVertex
100
AcDb2dVertex
 10
155.9571889999999
 20
133.9178649999998
 30
0.0
  0
VERTEX
  5
157
330
140
100
AcDbEntity
  8
CSLAYER1
  6
CONTINUOUS
 62
     3
100
AcDbVertex
100
AcDb2dVertex
 10
156.064877
 20
133.56426
 30
0.0
  0
VERTEX
  5
158
330
140
100
AcDbEntity
  8
CSLAYER1
  6
CONTINUOUS
 62
     3
100
AcDbVertex
100
AcDb2dVertex
 10
156.2019219999999
 20
133.2217179999998
 30
0.0
  0
VERTEX
  5
159
330
140
100
AcDbEntity
  8
CSLAYER1
  6
CONTINUOUS
 62
     3
100
AcDbVertex
100
AcDb2dVertex
 10
156.367281
 20
132.8928459999999
 30
0.0
  0
VERTEX
  5
15A
330
140
100
AcDbEntity
  8
CSLAYER1
  6
CONTINUOUS
 62
     3
100
AcDbVertex
100
AcDb2dVertex
 10
156.559696
 20
132.5801459999998
 30
0.0
  0
VERTEX
  5
15B
330
140
100
AcDbEntity
  8
CSLAYER1
  6
CONTINUOUS
 62
     3
100
AcDbVertex
100
AcDb2dVertex
 10
156.777703
 20
132.285998
 30
0.0
  0
VERTEX
  5
15C
330
140
100
AcDbEntity
  8
CSLAYER1
  6
CONTINUOUS
 62
     3
100
AcDbVertex
100
AcDb2dVertex
 10
157.019642
 20
132.012642
 30
0.0
  0
VERTEX
  5
15D
330
140
100
AcDbEntity
  8
CSLAYER1
  6
CONTINUOUS
 62
     3
100
AcDbVertex
100
AcDb2dVertex
 10
157.2836719999999
 20
131.762157
 30
0.0
  0
VERTEX
  5
15E
330
140
100
AcDbEntity
  8
CSLAYER1
  6
CONTINUOUS
 62
     3
100
AcDbVertex
100
AcDb2dVertex
 10
157.567784
 20
131.53645
 30
0.0
  0
VERTEX
  5
15F
330
140
100
AcDbEntity
  8
CSLAYER1
  6
CONTINUOUS
 62
     3
100
AcDbVertex
100
AcDb2dVertex
 10
157.8698149999999
 20
131.3372379999999
 30
0.0
  0
VERTEX
  5
160
330
140
100
AcDbEntity
  8
CSLAYER1
  6
CONTINUOUS
 62
     3
100
AcDbVertex
100
AcDb2dVertex
 10
158.1874669999999
 20
131.1660379999999
 30
0.0
  0
VERTEX
  5
161
330
140
100
AcDbEntity
  8
CSLAYER1
  6
CONTINUOUS
 62
     3
100
AcDbVertex
100
AcDb2dVertex
 10
158.5183219999999
 20
131.024152
 30
0.0
  0
VERTEX
  5
162
330
140
100
AcDbEntity
  8
CSLAYER1
  6
CONTINUOUS
 62
     3
100
AcDbVertex
100
AcDb2dVertex
 10
158.8598629999999
 20
130.912661
 30
0.0
  0
VERTEX
  5
163
330
140
100
AcDbEntity
  8
CSLAYER1
  6
CONTINUOUS
 62
     3
100
AcDbVertex
100
AcDb2dVertex
 10
159.209489
 20
130.832413
 30
0.0
  0
VERTEX
  5
164
330
140
100
AcDbEntity
  8
CSLAYER1
  6
CONTINUOUS
 62
     3
100
AcDbVertex
100
AcDb2dVertex
 10
159.5645409999999
 20
130.784018
 30
0.0
  0
VERTEX
  5
165
330
140
100
AcDbEntity
  8
CSLAYER1
  6
CONTINUOUS
 62
     3
100
AcDbVertex
100
AcDb2dVertex
 10
159.922315
 20
130.7678459999999
 30
0.0
  0
VERTEX
  5
166
330
140
100
AcDbEntity
  8
CSLAYER1
  6
CONTINUOUS
 62
     3
100
AcDbVertex
100
AcDb2dVertex
 10
160.280089
 20
130.784018
 30
0.0
  0
VERTEX
  5
167
330
140
100
AcDbEntity
  8
CSLAYER1
  6
CONTINUOUS
 62
     3
100
AcDbVertex
100
AcDb2dVertex
 10
160.635141
 20
130.832413
 30
0.0
  0
VERTEX
  5
168
330
140
100
AcDbEntity
  8
CSLAYER1
  6
CONTINUOUS
 62
     3
100
AcDbVertex
100
AcDb2dVertex
 10
160.984767
 20
130.912661
 30
0.0
  0
VERTEX
  5
169
330
140
100
AcDbEntity
  8
CSLAYER1
  6
CONTINUOUS
 62
     3
100
AcDbVertex
100
AcDb2dVertex
 10
161.326308
 20
131.024152
 30
0.0
  0
VERTEX
  5
16A
330
140
100
AcDbEntity
  8
CSLAYER1
  6
CONTINUOUS
 62
     3
100
AcDbVertex
100
AcDb2dVertex
 10
161.6571629999999
 20
131.1660379999999
 30
0.0
  0
VERTEX
  5
16B
330
140
100
AcDbEntity
  8
CSLAYER1
  6
CONTINUOUS
 62
     3
100
AcDbVertex
100
AcDb2dVertex
 10
161.9748149999999
 20
131.3372379999999
 30
0.0
  0
VERTEX
  5
16C
330
140
100
AcDbEntity
  8
CSLAYER1
  6
CONTINUOUS
 62
     3
100
AcDbVertex
100
AcDb2dVertex
 10
162.276846
 20
131.53645
 30
0.0
  0
VERTEX
  5
16D
330
140
100
AcDbEntity
  8
CSLAYER1
  6
CONTINUOUS
 62
     3
100
AcDbVertex
100
AcDb2dVertex
 10
162.560958
 20
131.762157
 30
0.0
  0
VERTEX
  5
16E
330
140
100
AcDbEntity
  8
CSLAYER1
  6
CONTINUOUS
 62
     3
100
AcDbVertex
100
AcDb2dVertex
 10
162.824988
 20
132.012642
 30
0.0
  0
VERTEX
  5
16F
330
140
100
AcDbEntity
  8
CSLAYER1
  6
CONTINUOUS
 62
     3
100
AcDbVertex
100
AcDb2dVertex
 10
163.066927
 20
132.285998
 30
0.0
  0
VERTEX
  5
170
330
140
100
AcDbEntity
  8
CSLAYER1
  6
CONTINUOUS
 62
     3
100
AcDbVertex
100
AcDb2dVertex
 10
163.284934
 20
132.5801459999998
 30
0.0
  0
VERTEX
  5
171
330
140
100
AcDbEntity
  8
CSLAYER1
  6
CONTINUOUS
 62
     3
100
AcDbVertex
100
AcDb2dVertex
 10
163.477349
 20
132.8928459999999
 30
0.0
  0
VERTEX
  5
172
330
140
100
AcDbEntity
  8
CSLAYER1
  6
CONTINUOUS
 62
     3
100
AcDbVertex
100
AcDb2dVertex
 10
163.6427079999999
 20
133.2217179999998
 30
0.0
  0
VERTEX
  5
173
330
140
100
AcDbEntity
  8
CSLAYER1
  6
CONTINUOUS
 62
     3
100
AcDbVertex
100
AcDb2dVertex
 10
163.779753
 20
133.56426
 30
0.0
  0
VERTEX
  5
174
330
140
100
AcDbEntity
  8
CSLAYER1
  6
CONTINUOUS
 62
     3
100
AcDbVertex
100
AcDb2dVertex
 10
163.8874399999999
 20
133.9178649999998
 30
0.0
  0
VERTEX
  5
175
330
140
100
AcDbEntity
  8
CSLAYER1
  6
CONTINUOUS
 62
     3
100
AcDbVertex
100
AcDb2dVertex
 10
163.964951
 20
134.279841
 30
0.0
  0
VERTEX
  5
176
330
140
100
AcDbEntity
  8
CSLAYER1
  6
CONTINUOUS
 62
     3
100
AcDbVertex
100
AcDb2dVertex
 10
164.011694
 20
134.647434
 30
0.0
  0
VERTEX
  5
177
330
140
100
AcDbEntity
  8
CSLAYER1
  6
CONTINUOUS
 62
     3
100
AcDbVertex
100
AcDb2dVertex
 10
164.0273149999998
 20
135.0178459999999
 30
0.0
  0
VERTEX
  5
178
330
140
100
AcDbEntity
  8
CSLAYER1
  6
CONTINUOUS
 62
     3
100
AcDbVertex
100
AcDb2dVertex
 10
164.011694
 20
135.388258
 30
0.0
  0
VERTEX
  5
179
330
140
100
AcDbEntity
  8
CSLAYER1
  6
CONTINUOUS
 62
     3
100
AcDbVertex
100
AcDb2dVertex
 10
163.964951
 20
135.755851
 30
0.0
  0
VERTEX
  5
17A
330
140
100
AcDbEntity
  8
CSLAYER1
  6
CONTINUOUS
 62
     3
100
AcDbVertex
100
AcDb2dVertex
 10
163.8874399999999
 20
136.117827
 30
0.0
  0
VERTEX
  5
17B
330
140
100
AcDbEntity
  8
CSLAYER1
  6
CONTINUOUS
 62
     3
100
AcDbVertex
100
AcDb2dVertex
 10
163.779753
 20
136.4714309999999
 30
0.0
  0
VERTEX
  5
17C
330
140
100
AcDbEntity
  8
CSLAYER1
  6
CONTINUOUS
 62
     3
100
AcDbVertex
100
AcDb2dVertex
 10
163.6427079999999
 20
136.8139729999998
 30
0.0
  0
VERTEX
  5
17D
330
140
100
AcDbEntity
  8
CSLAYER1
  6
CONTINUOUS
 62
     3
100
AcDbVertex
100
AcDb2dVertex
 10
163.477349
 20
137.1428459999999
 30
0.0
  0
VERTEX
  5
17E
330
140
100
AcDbEntity
  8
CSLAYER1
  6
CONTINUOUS
 62
     3
100
AcDbVertex
100
AcDb2dVertex
 10
163.284934
 20
137.455546
 30
0.0
  0
VERTEX
  5
17F
330
140
100
AcDbEntity
  8
CSLAYER1
  6
CONTINUOUS
 62
     3
100
AcDbVertex
100
AcDb2dVertex
 10
163.066927
 20
137.7496929999999
 30
0.0
  0
VERTEX
  5
180
330
140
100
AcDbEntity
  8
CSLAYER1
  6
CONTINUOUS
 62
     3
100
AcDbVertex
100
AcDb2dVertex
 10
162.824988
 20
138.02305
 30
0.0
  0
VERTEX
  5
181
330
140
100
AcDbEntity
  8
CSLAYER1
  6
CONTINUOUS
 62
     3
100
AcDbVertex
100
AcDb2dVertex
 10
162.560958
 20
138.273535
 30
0.0
  0
VERTEX
  5
182
330
140
100
AcDbEntity
  8
CSLAYER1
  6
CONTINUOUS
 62
     3
100
AcDbVertex
100
AcDb2dVertex
 10
162.276846
 20
138.4992419999998
 30
0.0
  0
VERTEX
  5
183
330
140
100
AcDbEntity
  8
CSLAYER1
  6
CONTINUOUS
 62
     3
100
AcDbVertex
100
AcDb2dVertex
 10
161.9748149999999
 20
138.698454
 30
0.0
  0
VERTEX
  5
184
330
140
100
AcDbEntity
  8
CSLAYER1
  6
CONTINUOUS
 62
     3
100
AcDbVertex
100
AcDb2dVertex
 10
161.6571629999999
 20
138.8696539999999
 30
0.0
  0
VERTEX
  5
185
330
140
100
AcDbEntity
  8
CSLAYER1
  6
CONTINUOUS
 62
     3
100
AcDbVertex
100
AcDb2dVertex
 10
161.326308
 20
139.011539
 30
0.0
  0
VERTEX
  5
186
330
140
100
AcDbEntity
  8
CSLAYER1
  6
CONTINUOUS
 62
     3
100
AcDbVertex
100
AcDb2dVertex
 10
160.984767
 20
139.123031
 30
0.0
  0
VERTEX
  5
187
330
140
100
AcDbEntity
  8
CSLAYER1
  6
CONTINUOUS
 62
     3
100
AcDbVertex
100
AcDb2dVertex
 10
160.635141
 20
139.203279
 30
0.0
  0
VERTEX
  5
188
330
140
100
AcDbEntity
  8
CSLAYER1
  6
CONTINUOUS
 62
     3
100
AcDbVertex
100
AcDb2dVertex
 10
160.280089
 20
139.251673
 30
0.0
  0
VERTEX
  5
189
330
140
100
AcDbEntity
  8
CSLAYER1
  6
CONTINUOUS
 62
     3
100
AcDbVertex
100
AcDb2dVertex
 10
159.922315
 20
139.2678459999999
 30
0.0
  0
SEQEND
  5
18A
330
140
100
AcDbEntity
  8
CSLAYER1
 62
     3
  0
TEXT
  5
18B
330
1E
100
AcDbEntity
  8
CSLAYER1
 62
     3
100
AcDbText
 10
239.1999999999999
 20
17.4
 30
0.0
 40
3.2
  1
GT-NR10L
 41
1.043478260869568
  7
FX_FONT
 72
     5
 11
264.8
 21
17.4
 31
0.0
100
AcDbText
  0
LINE
  5
18C
330
1E
100
AcDbEntity
  8
CSLAYER1
  6
CENTER
 62
     4
100
AcDbLine
 10
54.268887
 20
60.43953399999999
 30
0.0
 11
174.6037709999999
 21
60.43953399999999
 31
0.0
  0
LINE
  5
18D
330
1E
100
AcDbEntity
  8
CSLAYER1
  6
CENTER
 62
     4
100
AcDbLine
 10
173.881473
 20
129.1944169999998
 30
0.0
 11
52.67983100000001
 21
129.1944169999998
 31
0.0
  0
LINE
  5
18E
330
1E
100
AcDbEntity
  8
CSLAYER1
  6
CONTINUOUS
 62
     4
100
AcDbLine
 10
62.67231500000001
 20
118.7944169999999
 30
0.0
 11
62.67231500000001
 21
115.6444169999998
 31
0.0
  0
LINE
  5
18F
330
1E
100
AcDbEntity
  8
CSLAYER1
  6
CONTINUOUS
 62
     4
100
AcDbLine
 10
62.422315
 20
115.8944169999999
 30
0.0
 11
65.42231499999999
 21
115.8944169999999
 31
0.0
  0
LINE
  5
190
330
1E
100
AcDbEntity
  8
CSLAYER1
  6
CONTINUOUS
 62
     4
100
AcDbLine
 10
65.172315
 20
115.6444169999998
 30
0.0
 11
65.172315
 21
118.7944169999999
 31
0.0
  0
LINE
  5
191
330
1E
100
AcDbEntity
  8
CSLAYER1
  6
CENTER
 62
     4
100
AcDbLine
 10
63.92231500000001
 20
113.5444349999999
 30
0.0
 11
63.92231500000001
 21
141.564703
 31
0.0
  0
LINE
  5
192
330
1E
100
AcDbEntity
  8
CSLAYER1
  6
CENTER
 62
     4
100
AcDbLine
 10
63.92231500000001
 20
65.51824100000001
 30
0.0
 11
63.92231500000001
 21
55.17217099999999
 31
0.0
  0
CIRCLE
  5
193
330
1E
100
AcDbEntity
  8
CSLAYER1
  6
CONTINUOUS
 62
     4
100
AcDbCircle
 10
63.92231500000001
 20
60.43953399999999
 30
0.0
 40
1.25
  0
LINE
  5
194
330
1E
100
AcDbEntity
  8
CSLAYER1
  6
CENTER
 62
     4
100
AcDbLine
 10
152.5991089999999
 20
135.0178459999999
 30
0.0
 11
167.190526
 21
135.0178459999999
 31
0.0
  0
LINE
  5
195
330
1E
100
AcDbEntity
  8
CSLAYER1
  6
CENTER
 62
     4
100
AcDbLine
 10
159.922315
 20
141.9935899999998
 30
0.0
 11
159.922315
 21
127.90921
 31
0.0
  0
LINE
  5
196
330
1E
100
AcDbEntity
  8
CSLAYER1
  6
CENTER
 62
     4
100
AcDbLine
 10
211.41119
 20
129.1944169999998
 30
0.0
 11
258.5966099999999
 21
129.1944169999998
 31
0.0
  0
LINE
  5
197
330
1E
100
AcDbEntity
  8
CSLAYER1
  6
CENTER
 62
     4
100
AcDbLine
 10
246.2167419999999
 20
134.503607
 30
0.0
 11
239.6796569999999
 21
141.0406919999998
 31
0.0
  0
CIRCLE
  5
198
330
1E
100
AcDbEntity
  8
CSLAYER1
  6
CONTINUOUS
 62
     4
100
AcDbCircle
 10
243.0406509999999
 20
137.679699
 30
0.0
 40
2.0
  0
LINE
  5
199
330
1E
100
AcDbEntity
  8
CSLAYER1
  6
CENTER
 62
     4
100
AcDbLine
 10
245.6188689999999
 20
140.2579169999999
 30
0.0
 11
239.162489
 21
133.8015359999999
 31
0.0
  0
CIRCLE
  5
19A
330
1E
100
AcDbEntity
  8
CSLAYER1
  6
CONTINUOUS
 62
     4
100
AcDbCircle
 10
234.555369
 20
129.1944169999998
 30
0.0
 40
4.75
  0
LINE
  5
19B
330
1E
100
AcDbEntity
  8
CSLAYER1
  6
CENTER
 62
     4
100
AcDbLine
 10
234.555369
 20
129.1944169999998
 30
0.0
 11
213.3129629999999
 21
134.8863029999999
 31
0.0
  0
LINE
  5
19C
330
1E
100
AcDbEntity
  8
CSLAYER1
  6
CENTER
 62
     4
100
AcDbLine
 10
222.789799
 20
123.989425
 30
0.0
 11
229.6497029999999
 21
117.12952
 31
0.0
  0
CIRCLE
  5
19D
330
1E
100
AcDbEntity
  8
CSLAYER1
  6
CONTINUOUS
 62
     4
100
AcDbCircle
 10
226.0700879999999
 20
120.709136
 30
0.0
 40
2.0
  0
LINE
  5
19E
330
1E
100
AcDbEntity
  8
CSLAYER1
  6
CENTER
 62
     4
100
AcDbLine
 10
223.182947
 20
117.821995
 30
0.0
 11
229.155099
 21
123.7941469999999
 31
0.0
  0
LINE
  5
19F
330
1E
100
AcDbEntity
  8
CSLAYER1
  6
CENTER
 62
     4
100
AcDbLine
 10
234.555369
 20
107.029732
 30
0.0
 11
234.555369
 21
151.2640049999999
 31
0.0
  0
POLYLINE
  5
1A0
330
1E
100
AcDbEntity
  8
CSLAYER1
  6
CONTINUOUS
 62
     4
100
AcDb2dPolyline
 66
     1
 10
0.0
 20
0.0
 30
0.0
  0
VERTEX
  5
1A1
330
1A0
100
AcDbEntity
  8
CSLAYER1
  6
CONTINUOUS
 62
     4
100
AcDbVertex
100
AcDb2dVertex
 10
159.922315
 20
139.7678459999999
 30
0.0
  0
VERTEX
  5
1A2
330
1A0
100
AcDbEntity
  8
CSLAYER1
  6
CONTINUOUS
 62
     4
100
AcDbVertex
100
AcDb2dVertex
 10
159.522706
 20
139.749771
 30
0.0
  0
VERTEX
  5
1A3
330
1A0
100
AcDbEntity
  8
CSLAYER1
  6
CONTINUOUS
 62
     4
100
AcDbVertex
100
AcDb2dVertex
 10
159.1261379999999
 20
139.695683
 30
0.0
  0
VERTEX
  5
1A4
330
1A0
100
AcDbEntity
  8
CSLAYER1
  6
CONTINUOUS
 62
     4
100
AcDbVertex
100
AcDb2dVertex
 10
158.73563
 20
139.6059929999998
 30
0.0
  0
VERTEX
  5
1A5
330
1A0
100
AcDbEntity
  8
CSLAYER1
  6
CONTINUOUS
 62
     4
100
AcDbVertex
100
AcDb2dVertex
 10
158.3541529999999
 20
139.481386
 30
0.0
  0
VERTEX
  5
1A6
330
1A0
100
AcDbEntity
  8
CSLAYER1
  6
CONTINUOUS
 62
     4
100
AcDbVertex
100
AcDb2dVertex
 10
157.98461
 20
139.322808
 30
0.0
  0
VERTEX
  5
1A7
330
1A0
100
AcDbEntity
  8
CSLAYER1
  6
CONTINUOUS
 62
     4
100
AcDbVertex
100
AcDb2dVertex
 10
157.6298149999999
 20
139.1314659999999
 30
0.0
  0
VERTEX
  5
1A8
330
1A0
100
AcDbEntity
  8
CSLAYER1
  6
CONTINUOUS
 62
     4
100
AcDbVertex
100
AcDb2dVertex
 10
157.2924669999999
 20
138.9088179999999
 30
0.0
  0
VERTEX
  5
1A9
330
1A0
100
AcDbEntity
  8
CSLAYER1
  6
CONTINUOUS
 62
     4
100
AcDbVertex
100
AcDb2dVertex
 10
156.975134
 20
138.656557
 30
0.0
  0
VERTEX
  5
1AA
330
1A0
100
AcDbEntity
  8
CSLAYER1
  6
CONTINUOUS
 62
     4
100
AcDbVertex
100
AcDb2dVertex
 10
156.6802299999999
 20
138.3766029999998
 30
0.0
  0
VERTEX
  5
1AB
330
1A0
100
AcDbEntity
  8
CSLAYER1
  6
CONTINUOUS
 62
     4
100
AcDbVertex
100
AcDb2dVertex
 10
156.4100009999999
 20
138.071087
 30
0.0
  0
VERTEX
  5
1AC
330
1A0
100
AcDbEntity
  8
CSLAYER1
  6
CONTINUOUS
 62
     4
100
AcDbVertex
100
AcDb2dVertex
 10
156.166503
 20
137.7423339999999
 30
0.0
  0
VERTEX
  5
1AD
330
1A0
100
AcDbEntity
  8
CSLAYER1
  6
CONTINUOUS
 62
     4
100
AcDbVertex
100
AcDb2dVertex
 10
155.951588
 20
137.3928459999999
 30
0.0
  0
VERTEX
  5
1AE
330
1A0
100
AcDbEntity
  8
CSLAYER1
  6
CONTINUOUS
 62
     4
100
AcDbVertex
100
AcDb2dVertex
 10
155.766894
 20
137.025283
 30
0.0
  0
VERTEX
  5
1AF
330
1A0
100
AcDbEntity
  8
CSLAYER1
  6
CONTINUOUS
 62
     4
100
AcDbVertex
100
AcDb2dVertex
 10
155.6138239999999
 20
136.642441
 30
0.0
  0
VERTEX
  5
1B0
330
1A0
100
AcDbEntity
  8
CSLAYER1
  6
CONTINUOUS
 62
     4
100
AcDbVertex
100
AcDb2dVertex
 10
155.4935449999998
 20
136.247236
 30
0.0
  0
VERTEX
  5
1B1
330
1A0
100
AcDbEntity
  8
CSLAYER1
  6
CONTINUOUS
 62
     4
100
AcDbVertex
100
AcDb2dVertex
 10
155.406971
 20
135.842675
 30
0.0
  0
VERTEX
  5
1B2
330
1A0
100
AcDbEntity
  8
CSLAYER1
  6
CONTINUOUS
 62
     4
100
AcDbVertex
100
AcDb2dVertex
 10
155.354762
 20
135.431836
 30
0.0
  0
VERTEX
  5
1B3
330
1A0
100
AcDbEntity
  8
CSLAYER1
  6
CONTINUOUS
 62
     4
100
AcDbVertex
100
AcDb2dVertex
 10
155.3373149999998
 20
135.0178459999999
 30
0.0
  0
VERTEX
  5
1B4
330
1A0
100
AcDbEntity
  8
CSLAYER1
  6
CONTINUOUS
 62
     4
100
AcDbVertex
100
AcDb2dVertex
 10
155.354762
 20
134.6038559999998
 30
0.0
  0
VERTEX
  5
1B5
330
1A0
100
AcDbEntity
  8
CSLAYER1
  6
CONTINUOUS
 62
     4
100
AcDbVertex
100
AcDb2dVertex
 10
155.406971
 20
134.1930169999999
 30
0.0
  0
VERTEX
  5
1B6
330
1A0
100
AcDbEntity
  8
CSLAYER1
  6
CONTINUOUS
 62
     4
100
AcDbVertex
100
AcDb2dVertex
 10
155.4935449999998
 20
133.788455
 30
0.0
  0
VERTEX
  5
1B7
330
1A0
100
AcDbEntity
  8
CSLAYER1
  6
CONTINUOUS
 62
     4
100
AcDbVertex
100
AcDb2dVertex
 10
155.6138239999999
 20
133.3932499999999
 30
0.0
  0
VERTEX
  5
1B8
330
1A0
100
AcDbEntity
  8
CSLAYER1
  6
CONTINUOUS
 62
     4
100
AcDbVertex
100
AcDb2dVertex
 10
155.766894
 20
133.010409
 30
0.0
  0
VERTEX
  5
1B9
330
1A0
100
AcDbEntity
  8
CSLAYER1
  6
CONTINUOUS
 62
     4
100
AcDbVertex
100
AcDb2dVertex
 10
155.951588
 20
132.642846
 30
0.0
  0
VERTEX
  5
1BA
330
1A0
100
AcDbEntity
  8
CSLAYER1
  6
CONTINUOUS
 62
     4
100
AcDbVertex
100
AcDb2dVertex
 10
156.166503
 20
132.293358
 30
0.0
  0
VERTEX
  5
1BB
330
1A0
100
AcDbEntity
  8
CSLAYER1
  6
CONTINUOUS
 62
     4
100
AcDbVertex
100
AcDb2dVertex
 10
156.4100009999999
 20
131.964605
 30
0.0
  0
VERTEX
  5
1BC
330
1A0
100
AcDbEntity
  8
CSLAYER1
  6
CONTINUOUS
 62
     4
100
AcDbVertex
100
AcDb2dVertex
 10
156.6802299999999
 20
131.659089
 30
0.0
  0
VERTEX
  5
1BD
330
1A0
100
AcDbEntity
  8
CSLAYER1
  6
CONTINUOUS
 62
     4
100
AcDbVertex
100
AcDb2dVertex
 10
156.975134
 20
131.379135
 30
0.0
  0
VERTEX
  5
1BE
330
1A0
100
AcDbEntity
  8
CSLAYER1
  6
CONTINUOUS
 62
     4
100
AcDbVertex
100
AcDb2dVertex
 10
157.2924669999999
 20
131.1268739999998
 30
0.0
  0
VERTEX
  5
1BF
330
1A0
100
AcDbEntity
  8
CSLAYER1
  6
CONTINUOUS
 62
     4
100
AcDbVertex
100
AcDb2dVertex
 10
157.6298149999999
 20
130.904225
 30
0.0
  0
VERTEX
  5
1C0
330
1A0
100
AcDbEntity
  8
CSLAYER1
  6
CONTINUOUS
 62
     4
100
AcDbVertex
100
AcDb2dVertex
 10
157.98461
 20
130.712884
 30
0.0
  0
VERTEX
  5
1C1
330
1A0
100
AcDbEntity
  8
CSLAYER1
  6
CONTINUOUS
 62
     4
100
AcDbVertex
100
AcDb2dVertex
 10
158.3541529999999
 20
130.5543059999999
 30
0.0
  0
VERTEX
  5
1C2
330
1A0
100
AcDbEntity
  8
CSLAYER1
  6
CONTINUOUS
 62
     4
100
AcDbVertex
100
AcDb2dVertex
 10
158.73563
 20
130.4296979999999
 30
0.0
  0
VERTEX
  5
1C3
330
1A0
100
AcDbEntity
  8
CSLAYER1
  6
CONTINUOUS
 62
     4
100
AcDbVertex
100
AcDb2dVertex
 10
159.1261379999999
 20
130.340009
 30
0.0
  0
VERTEX
  5
1C4
330
1A0
100
AcDbEntity
  8
CSLAYER1
  6
CONTINUOUS
 62
     4
100
AcDbVertex
100
AcDb2dVertex
 10
159.522706
 20
130.285921
 30
0.0
  0
VERTEX
  5
1C5
330
1A0
100
AcDbEntity
  8
CSLAYER1
  6
CONTINUOUS
 62
     4
100
AcDbVertex
100
AcDb2dVertex
 10
159.922315
 20
130.2678459999998
 30
0.0
  0
VERTEX
  5
1C6
330
1A0
100
AcDbEntity
  8
CSLAYER1
  6
CONTINUOUS
 62
     4
100
AcDbVertex
100
AcDb2dVertex
 10
160.321924
 20
130.285921
 30
0.0
  0
VERTEX
  5
1C7
330
1A0
100
AcDbEntity
  8
CSLAYER1
  6
CONTINUOUS
 62
     4
100
AcDbVertex
100
AcDb2dVertex
 10
160.7184919999999
 20
130.340009
 30
0.0
  0
VERTEX
  5
1C8
330
1A0
100
AcDbEntity
  8
CSLAYER1
  6
CONTINUOUS
 62
     4
100
AcDbVertex
100
AcDb2dVertex
 10
161.109
 20
130.4296979999999
 30
0.0
  0
VERTEX
  5
1C9
330
1A0
100
AcDbEntity
  8
CSLAYER1
  6
CONTINUOUS
 62
     4
100
AcDbVertex
100
AcDb2dVertex
 10
161.490477
 20
130.5543059999999
 30
0.0
  0
VERTEX
  5
1CA
330
1A0
100
AcDbEntity
  8
CSLAYER1
  6
CONTINUOUS
 62
     4
100
AcDbVertex
100
AcDb2dVertex
 10
161.8600199999999
 20
130.712884
 30
0.0
  0
VERTEX
  5
1CB
330
1A0
100
AcDbEntity
  8
CSLAYER1
  6
CONTINUOUS
 62
     4
100
AcDbVertex
100
AcDb2dVertex
 10
162.2148149999999
 20
130.904225
 30
0.0
  0
VERTEX
  5
1CC
330
1A0
100
AcDbEntity
  8
CSLAYER1
  6
CONTINUOUS
 62
     4
100
AcDbVertex
100
AcDb2dVertex
 10
162.5521629999999
 20
131.1268739999998
 30
0.0
  0
VERTEX
  5
1CD
330
1A0
100
AcDbEntity
  8
CSLAYER1
  6
CONTINUOUS
 62
     4
100
AcDbVertex
100
AcDb2dVertex
 10
162.8694959999999
 20
131.379135
 30
0.0
  0
VERTEX
  5
1CE
330
1A0
100
AcDbEntity
  8
CSLAYER1
  6
CONTINUOUS
 62
     4
100
AcDbVertex
100
AcDb2dVertex
 10
163.1644
 20
131.659089
 30
0.0
  0
VERTEX
  5
1CF
330
1A0
100
AcDbEntity
  8
CSLAYER1
  6
CONTINUOUS
 62
     4
100
AcDbVertex
100
AcDb2dVertex
 10
163.434629
 20
131.964605
 30
0.0
  0
VERTEX
  5
1D0
330
1A0
100
AcDbEntity
  8
CSLAYER1
  6
CONTINUOUS
 62
     4
100
AcDbVertex
100
AcDb2dVertex
 10
163.6781269999999
 20
132.293358
 30
0.0
  0
VERTEX
  5
1D1
330
1A0
100
AcDbEntity
  8
CSLAYER1
  6
CONTINUOUS
 62
     4
100
AcDbVertex
100
AcDb2dVertex
 10
163.8930409999999
 20
132.642846
 30
0.0
  0
VERTEX
  5
1D2
330
1A0
100
AcDbEntity
  8
CSLAYER1
  6
CONTINUOUS
 62
     4
100
AcDbVertex
100
AcDb2dVertex
 10
164.077736
 20
133.010409
 30
0.0
  0
VERTEX
  5
1D3
330
1A0
100
AcDbEntity
  8
CSLAYER1
  6
CONTINUOUS
 62
     4
100
AcDbVertex
100
AcDb2dVertex
 10
164.2308059999999
 20
133.3932499999999
 30
0.0
  0
VERTEX
  5
1D4
330
1A0
100
AcDbEntity
  8
CSLAYER1
  6
CONTINUOUS
 62
     4
100
AcDbVertex
100
AcDb2dVertex
 10
164.351085
 20
133.788455
 30
0.0
  0
VERTEX
  5
1D5
330
1A0
100
AcDbEntity
  8
CSLAYER1
  6
CONTINUOUS
 62
     4
100
AcDbVertex
100
AcDb2dVertex
 10
164.437659
 20
134.1930169999999
 30
0.0
  0
VERTEX
  5
1D6
330
1A0
100
AcDbEntity
  8
CSLAYER1
  6
CONTINUOUS
 62
     4
100
AcDbVertex
100
AcDb2dVertex
 10
164.489868
 20
134.6038559999998
 30
0.0
  0
VERTEX
  5
1D7
330
1A0
100
AcDbEntity
  8
CSLAYER1
  6
CONTINUOUS
 62
     4
100
AcDbVertex
100
AcDb2dVertex
 10
164.5073149999998
 20
135.0178459999999
 30
0.0
  0
VERTEX
  5
1D8
330
1A0
100
AcDbEntity
  8
CSLAYER1
  6
CONTINUOUS
 62
     4
100
AcDbVertex
100
AcDb2dVertex
 10
164.489868
 20
135.431836
 30
0.0
  0
VERTEX
  5
1D9
330
1A0
100
AcDbEntity
  8
CSLAYER1
  6
CONTINUOUS
 62
     4
100
AcDbVertex
100
AcDb2dVertex
 10
164.437659
 20
135.842675
 30
0.0
  0
VERTEX
  5
1DA
330
1A0
100
AcDbEntity
  8
CSLAYER1
  6
CONTINUOUS
 62
     4
100
AcDbVertex
100
AcDb2dVertex
 10
164.351085
 20
136.247236
 30
0.0
  0
VERTEX
  5
1DB
330
1A0
100
AcDbEntity
  8
CSLAYER1
  6
CONTINUOUS
 62
     4
100
AcDbVertex
100
AcDb2dVertex
 10
164.2308059999999
 20
136.642441
 30
0.0
  0
VERTEX
  5
1DC
330
1A0
100
AcDbEntity
  8
CSLAYER1
  6
CONTINUOUS
 62
     4
100
AcDbVertex
100
AcDb2dVertex
 10
164.077736
 20
137.025283
 30
0.0
  0
VERTEX
  5
1DD
330
1A0
100
AcDbEntity
  8
CSLAYER1
  6
CONTINUOUS
 62
     4
100
AcDbVertex
100
AcDb2dVertex
 10
163.8930409999999
 20
137.3928459999999
 30
0.0
  0
VERTEX
  5
1DE
330
1A0
100
AcDbEntity
  8
CSLAYER1
  6
CONTINUOUS
 62
     4
100
AcDbVertex
100
AcDb2dVertex
 10
163.6781269999999
 20
137.7423339999999
 30
0.0
  0
VERTEX
  5
1DF
330
1A0
100
AcDbEntity
  8
CSLAYER1
  6
CONTINUOUS
 62
     4
100
AcDbVertex
100
AcDb2dVertex
 10
163.434629
 20
138.071087
 30
0.0
  0
VERTEX
  5
1E0
330
1A0
100
AcDbEntity
  8
CSLAYER1
  6
CONTINUOUS
 62
     4
100
AcDbVertex
100
AcDb2dVertex
 10
163.1644
 20
138.3766029999998
 30
0.0
  0
VERTEX
  5
1E1
330
1A0
100
AcDbEntity
  8
CSLAYER1
  6
CONTINUOUS
 62
     4
100
AcDbVertex
100
AcDb2dVertex
 10
162.8694959999999
 20
138.656557
 30
0.0
  0
VERTEX
  5
1E2
330
1A0
100
AcDbEntity
  8
CSLAYER1
  6
CONTINUOUS
 62
     4
100
AcDbVertex
100
AcDb2dVertex
 10
162.5521629999999
 20
138.9088179999999
 30
0.0
  0
VERTEX
  5
1E3
330
1A0
100
AcDbEntity
  8
CSLAYER1
  6
CONTINUOUS
 62
     4
100
AcDbVertex
100
AcDb2dVertex
 10
162.2148149999999
 20
139.1314659999999
 30
0.0
  0
VERTEX
  5
1E4
330
1A0
100
AcDbEntity
  8
CSLAYER1
  6
CONTINUOUS
 62
     4
100
AcDbVertex
100
AcDb2dVertex
 10
161.8600199999999
 20
139.322808
 30
0.0
  0
VERTEX
  5
1E5
330
1A0
100
AcDbEntity
  8
CSLAYER1
  6
CONTINUOUS
 62
     4
100
AcDbVertex
100
AcDb2dVertex
 10
161.490477
 20
139.481386
 30
0.0
  0
VERTEX
  5
1E6
330
1A0
100
AcDbEntity
  8
CSLAYER1
  6
CONTINUOUS
 62
     4
100
AcDbVertex
100
AcDb2dVertex
 10
161.109
 20
139.6059929999998
 30
0.0
  0
VERTEX
  5
1E7
330
1A0
100
AcDbEntity
  8
CSLAYER1
  6
CONTINUOUS
 62
     4
100
AcDbVertex
100
AcDb2dVertex
 10
160.7184919999999
 20
139.695683
 30
0.0
  0
VERTEX
  5
1E8
330
1A0
100
AcDbEntity
  8
CSLAYER1
  6
CONTINUOUS
 62
     4
100
AcDbVertex
100
AcDb2dVertex
 10
160.321924
 20
139.749771
 30
0.0
  0
VERTEX
  5
1E9
330
1A0
100
AcDbEntity
  8
CSLAYER1
  6
CONTINUOUS
 62
     4
100
AcDbVertex
100
AcDb2dVertex
 10
159.922315
 20
139.7678459999999
 30
0.0
  0
SEQEND
  5
1EA
330
1A0
100
AcDbEntity
  8
CSLAYER1
 62
     4
  0
DIMENSION
  5
1EB
330
1E
100
AcDbEntity
  8
CSLAYER1
 62
     4
100
AcDbDimension
  2
*D0
 10
264.926733
 20
144.194417
 30
0.0
 11
264.426758
 21
129.1944269999999
 31
0.0
 70
     1
100
AcDbAlignedDimension
 13
244.5052439999999
 23
114.1944169999999
 33
0.0
 14
244.5052439999999
 24
144.194417
 34
0.0
  0
DIMENSION
  5
1EC
330
1E
100
AcDbEntity
  8
CSLAYER1
 62
     4
100
AcDbDimension
  2
*D1
 10
220.556981
 20
159.9119809999999
 30
0.0
 11
211.772095
 21
151.721878
 31
0.0
100
AcDbAlignedDimension
 13
222.789799
 23
123.989425
 33
0.0
 14
239.6796569999999
 24
141.0406919999998
 34
0.0
 50
45.379092
100
AcDbRotatedDimension
  0
INSERT
  5
1ED
330
1E
100
AcDbEntity
  8
CSLAYER1
100
AcDbBlockReference
  2
FXDIM0000
 10
0.0
 20
0.0
 30
0.0
  0
INSERT
  5
1EE
330
1E
100
AcDbEntity
  8
CSLAYER1
100
AcDbBlockReference
  2
FXDIM0001
 10
0.0
 20
0.0
 30
0.0
  0
INSERT
  5
1EF
330
1E
100
AcDbEntity
  8
CSLAYER1
100
AcDbBlockReference
  2
FXDIM0002
 10
0.0
 20
0.0
 30
0.0
  0
DIMENSION
  5
1F1
330
1E
100
AcDbEntity
  8
CSLAYER1
 62
     4
100
AcDbDimension
  2
*D6
 10
149.9223149999999
 20
166.331991
 30
0.0
 11
103.422318
 21
166.8320009999999
 31
0.0
100
AcDbAlignedDimension
 13
56.922315
 23
137.1944169999999
 33
0.0
 14
149.9223149999999
 24
147.1944169999999
 34
0.0
100
AcDbRotatedDimension
  0
DIMENSION
  5
1F2
330
1E
100
AcDbEntity
  8
CSLAYER1
 62
     4
100
AcDbDimension
  2
*D7
 10
169.9223149999999
 20
166.331991
 30
0.0
 11
159.9223179999999
 21
166.8320009999999
 31
0.0
100
AcDbAlignedDimension
 13
149.9223149999999
 23
147.1944169999999
 33
0.0
 14
169.9223149999999
 24
142.6944169999998
 34
0.0
100
AcDbRotatedDimension
  0
DIMENSION
  5
1F3
330
1E
100
AcDbEntity
  8
CSLAYER1
 62
     4
100
AcDbDimension
  2
*D8
 10
63.92231500000001
 20
160.3319909999999
 30
0.0
 11
60.422314
 21
160.8320009999999
 31
0.0
100
AcDbAlignedDimension
 13
56.922315
 23
137.1944169999999
 33
0.0
 14
63.92231500000001
 24
141.564703
 34
0.0
100
AcDbRotatedDimension
  0
DIMENSION
  5
1F4
330
1E
100
AcDbEntity
  8
CSLAYER1
 62
     4
100
AcDbDimension
  2
*D9
 10
149.9223149999999
 20
160.3319909999999
 30
0.0
 11
118.9223179999999
 21
160.8320009999999
 31
0.0
100
AcDbAlignedDimension
 13
87.92231499999997
 23
147.1944169999999
 33
0.0
 14
149.9223149999999
 24
148.194417
 34
0.0
100
AcDbRotatedDimension
  0
DIMENSION
  5
1F5
330
1E
100
AcDbEntity
  8
CSLAYER1
 62
     4
100
AcDbDimension
  2
*D10
 10
38.383113
 20
139.1944169999999
 30
0.0
 11
37.88311399999999
 21
129.1944269999999
 31
0.0
 70
     1
100
AcDbAlignedDimension
 13
58.92231500000001
 23
119.1944169999999
 33
0.0
 14
58.92231500000001
 24
139.1944169999999
 34
0.0
  0
DIMENSION
  5
1F6
330
1E
100
AcDbEntity
  8
CSLAYER1
 62
     4
100
AcDbDimension
  2
*D11
 10
44.383113
 20
135.1944169999999
 30
0.0
 11
43.883114
 21
129.1944269999999
 31
0.0
 70
     1
100
AcDbAlignedDimension
 13
56.922315
 23
123.194417
 33
0.0
 14
56.922315
 24
135.1944169999999
 34
0.0
  0
DIMENSION
  5
1F7
330
1E
100
AcDbEntity
  8
CSLAYER1
 62
     4
100
AcDbDimension
  2
*D12
 10
38.383113
 20
78.439534
 30
0.0
 11
37.88311399999999
 21
60.439537
 31
0.0
 70
     1
100
AcDbAlignedDimension
 13
87.92231499999997
 23
42.439534
 33
0.0
 14
87.92231499999997
 24
78.439534
 34
0.0
  0
DIMENSION
  5
1F8
330
1E
100
AcDbEntity
  8
CSLAYER1
 62
     4
100
AcDbDimension
  2
*D13
 10
169.9223149999999
 20
94.293615
 30
0.0
 11
113.4223179999999
 21
94.793617
 31
0.0
100
AcDbAlignedDimension
 13
56.922315
 23
67.329572
 33
0.0
 14
169.9223149999999
 24
76.93953399999998
 34
0.0
100
AcDbRotatedDimension
  0
DIMENSION
  5
1F9
330
1E
100
AcDbEntity
  8
CSLAYER1
 62
     4
100
AcDbDimension
  2
*D14
 10
63.92231500000001
 20
88.293615
 30
0.0
 11
60.422314
 21
88.793617
 31
0.0
100
AcDbAlignedDimension
 13
56.922315
 23
67.329572
 33
0.0
 14
63.92231500000001
 24
65.51824100000001
 34
0.0
100
AcDbRotatedDimension
  0
DIMENSION
  5
1FA
330
1E
100
AcDbEntity
  8
CSLAYER1
 62
     4
100
AcDbDimension
  2
*D15
 10
75.273204
 20
105.1944169999998
 30
0.0
 11
79.87245899999997
 21
110.4950639999999
 31
0.0
 70
     4
100
AcDbRadialDimension
 15
85.178411
 25
115.0881979999999
 35
0.0
 40
0.0
  0
INSERT
  5
1FB
330
1E
100
AcDbEntity
  8
CSLAYER1
100
AcDbBlockReference
  2
FXDIM0003
 10
0.0
 20
0.0
 30
0.0
  0
LINE
  5
1FC
330
1E
100
AcDbEntity
  8
CSLAYER1
  6
DOT
 62
     3
100
AcDbLine
 10
4.0
 20
1.0
 30
0.0
 11
283.0
 21
1.0
 31
0.0
  0
LINE
  5
1FD
330
1E
100
AcDbEntity
  8
CSLAYER1
  6
DOT
 62
     3
100
AcDbLine
 10
283.0
 20
1.0
 30
0.0
 11
283.0
 21
195.0
 31
0.0
  0
LINE
  5
1FE
330
1E
100
AcDbEntity
  8
CSLAYER1
  6
DOT
 62
     3
100
AcDbLine
 10
283.0
 20
195.0
 30
0.0
 11
4.0
 21
195.0
 31
0.0
  0
LINE
  5
1FF
330
1E
100
AcDbEntity
  8
CSLAYER1
  6
DOT
 62
     3
100
AcDbLine
 10
4.0
 20
195.0
 30
0.0
 11
4.0
 21
1.0
 31
0.0
  0
ENDSEC
  0
SECTION
  2
OBJECTS
  0
DICTIONARY
  5
C
330
0
100
AcDbDictionary
  3
ACAD_GROUP
350
D
  3
ACAD_LAYOUT
350
19
  3
ACAD_MLINESTYLE
350
16
  3
ACAD_PLOTSETTINGS
350
18
1001
ACAD
1000
TREAT_AS_HARD
1070
     0
1000
TREAT_AS_HARD
1070
     0
  0
DICTIONARY
  5
209
330
1E
100
AcDbDictionary
  3
ACAD_LAYOUTSELFREF
350
228
1001
ACAD
1000
TREAT_AS_HARD
1070
     0
  0
DICTIONARY
  5
207
330
1A
100
AcDbDictionary
  3
ACAD_LAYOUTSELFREF
350
227
1001
ACAD
1000
TREAT_AS_HARD
1070
     0
  0
DICTIONARY
  5
D
102
{ACAD_REACTORS
330
C
102
}
330
C
100
AcDbDictionary
1001
ACAD
1000
TREAT_AS_HARD
1070
     0
1000
TREAT_AS_HARD
1070
     0
  0
DICTIONARY
  5
19
102
{ACAD_REACTORS
330
C
102
}
330
C
100
AcDbDictionary
1001
ACAD
1000
TREAT_AS_HARD
1070
     0
1000
TREAT_AS_HARD
1070
     0
  0
DICTIONARY
  5
16
102
{ACAD_REACTORS
330
C
102
}
330
C
100
AcDbDictionary
  3
STANDARD
350
17
1001
ACAD
1000
TREAT_AS_HARD
1070
     0
1000
TREAT_AS_HARD
1070
     0
  0
DICTIONARY
  5
18
102
{ACAD_REACTORS
330
C
102
}
330
C
100
AcDbDictionary
1001
ACAD
1000
TREAT_AS_HARD
1070
     0
1000
TREAT_AS_HARD
1070
     0
  0
XRECORD
  5
228
102
{ACAD_REACTORS
330
209
102
}
330
209
100
AcDbXrecord
340
1E
  0
XRECORD
  5
227
102
{ACAD_REACTORS
330
207
102
}
330
207
100
AcDbXrecord
340
1A
  0
MLINESTYLE
  5
17
102
{ACAD_REACTORS
330
16
102
}
330
16
100
AcDbMlineStyle
  2
STANDARD
 70
     0
  3

 62
   256
 51
90.0
 52
90.0
 71
     2
 49
0.5
 62
   256
  6
BYLAYER
 49
-0.5
 62
   256
  6
BYLAYER
  0
ENDSEC
  0
EOF
