  0
SECTION
  2
HEADER
  9
$ACADVER
  1
AC1012
  9
$DWGCODEPAGE
  3
dos932
  9
$INSBASE
 10
0.0
 20
0.0
 30
0.0
  9
$EXTMIN
 10
10.0
 20
3.0
 30
0.0
  9
$EXTMAX
 10
395.0
 20
275.0
 30
0.0
  9
$LIMMIN
 10
0.0
 20
0.0
  9
$LIMMAX
 10
420.0
 20
297.0
  9
$ORTHOMODE
 70
     0
  9
$REGENMODE
 70
     1
  9
$FILLMODE
 70
     1
  9
$QTEXTMODE
 70
     0
  9
$MIRRTEXT
 70
     1
  9
$DRAGMODE
 70
     2
  9
$LTSCALE
 40
15.0
  9
$OSMODE
 70
    37
  9
$ATTMODE
 70
     1
  9
$TEXTSIZE
 40
0.2
  9
$TRACEWID
 40
0.05
  9
$TEXTSTYLE
  7
GOTHIC
  9
$CLAYER
  8
CSLAYER17
  9
$CELTYPE
  6
BYLAYER
  9
$CECOLOR
 62
   256
  9
$CELTSCALE
 40
1.0
  9
$DELOBJ
 70
     1
  9
$DISPSILH
 70
     0
  9
$DIMSCALE
 40
1.0
  9
$DIMASZ
 40
0.18
  9
$DIMEXO
 40
0.0625
  9
$DIMDLI
 40
0.38
  9
$DIMRND
 40
0.0
  9
$DIMDLE
 40
0.0
  9
$DIMEXE
 40
0.18
  9
$DIMTP
 40
0.0
  9
$DIMTM
 40
0.0
  9
$DIMTXT
 40
0.18
  9
$DIMCEN
 40
0.09
  9
$DIMTSZ
 40
0.0
  9
$DIMTOL
 70
     0
  9
$DIMLIM
 70
     0
  9
$DIMTIH
 70
     1
  9
$DIMTOH
 70
     1
  9
$DIMSE1
 70
     0
  9
$DIMSE2
 70
     0
  9
$DIMTAD
 70
     0
  9
$DIMZIN
 70
     0
  9
$DIMBLK
  1

  9
$DIMASO
 70
     1
  9
$DIMSHO
 70
     1
  9
$DIMPOST
  1

  9
$DIMAPOST
  1

  9
$DIMALT
 70
     0
  9
$DIMALTD
 70
     2
  9
$DIMALTF
 40
25.4
  9
$DIMLFAC
 40
1.0
  9
$DIMTOFL
 70
     0
  9
$DIMTVP
 40
0.0
  9
$DIMTIX
 70
     0
  9
$DIMSOXD
 70
     0
  9
$DIMSAH
 70
     0
  9
$DIMBLK1
  1

  9
$DIMBLK2
  1

  9
$DIMSTYLE
  2
STANDARD
  9
$DIMCLRD
 70
     0
  9
$DIMCLRE
 70
     0
  9
$DIMCLRT
 70
     0
  9
$DIMTFAC
 40
1.0
  9
$DIMGAP
 40
0.09
  9
$DIMJUST
 70
     0
  9
$DIMSD1
 70
     0
  9
$DIMSD2
 70
     0
  9
$DIMTOLJ
 70
     1
  9
$DIMTZIN
 70
     0
  9
$DIMALTZ
 70
     0
  9
$DIMALTTZ
 70
     0
  9
$DIMFIT
 70
     3
  9
$DIMUPT
 70
     0
  9
$DIMUNIT
 70
     2
  9
$DIMDEC
 70
     4
  9
$DIMTDEC
 70
     4
  9
$DIMALTU
 70
     2
  9
$DIMALTTD
 70
     2
  9
$DIMTXSTY
  7
STANDARD
  9
$DIMAUNIT
 70
     0
  9
$LUNITS
 70
     2
  9
$LUPREC
 70
     4
  9
$SKETCHINC
 40
0.1
  9
$FILLETRAD
 40
0.0
  9
$AUNITS
 70
     0
  9
$AUPREC
 70
     0
  9
$MENU
  1
ACAD
  9
$ELEVATION
 40
0.0
  9
$PELEVATION
 40
0.0
  9
$THICKNESS
 40
0.0
  9
$LIMCHECK
 70
     0
  9
$BLIPMODE
 70
     1
  9
$CHAMFERA
 40
0.0
  9
$CHAMFERB
 40
0.0
  9
$CHAMFERC
 40
0.0
  9
$CHAMFERD
 40
0.0
  9
$SKPOLY
 70
     0
  9
$TDCREATE
 40
2453483.000000000
  9
$TDUPDATE
 40
2453483.000000000
  9
$TDINDWG
 40
0.0000042824
  9
$TDUSRTIMER
 40
0.0000042824
  9
$USRTIMER
 70
     1
  9
$ANGBASE
 50
0.0
  9
$ANGDIR
 70
     0
  9
$PDMODE
 70
     0
  9
$PDSIZE
 40
0.0
  9
$PLINEWID
 40
0.0
  9
$COORDS
 70
     2
  9
$SPLFRAME
 70
     0
  9
$SPLINETYPE
 70
     6
  9
$SPLINESEGS
 70
     8
  9
$ATTDIA
 70
     0
  9
$ATTREQ
 70
     1
  9
$HANDLING
 70
 22529
  9
$HANDSEED
  5
40C
  9
$SURFTAB1
 70
     6
  9
$SURFTAB2
 70
     6
  9
$SURFTYPE
 70
     6
  9
$SURFU
 70
     6
  9
$SURFV
 70
     6
  9
$UCSNAME
  2

  9
$UCSORG
 10
0.0
 20
0.0
 30
0.0
  9
$UCSXDIR
 10
1.0
 20
0.0
 30
0.0
  9
$UCSYDIR
 10
0.0
 20
1.0
 30
0.0
  9
$PUCSNAME
  2

  9
$PUCSORG
 10
0.0
 20
0.0
 30
0.0
  9
$PUCSXDIR
 10
1.0
 20
0.0
 30
0.0
  9
$PUCSYDIR
 10
0.0
 20
1.0
 30
0.0
  9
$USERI1
 70
     0
  9
$USERI2
 70
     0
  9
$USERI3
 70
     0
  9
$USERI4
 70
     0
  9
$USERI5
 70
     0
  9
$USERR1
 40
0.0
  9
$USERR2
 40
0.0
  9
$USERR3
 40
0.0
  9
$USERR4
 40
0.0
  9
$USERR5
 40
0.0
  9
$WORLDVIEW
 70
     1
  9
$SHADEDGE
 70
     3
  9
$SHADEDIF
 70
    70
  9
$TILEMODE
 70
     1
  9
$MAXACTVP
 70
    64
  9
$PINSBASE
 10
0.0
 20
0.0
 30
0.0
  9
$PLIMCHECK
 70
     0
  9
$PEXTMIN
 10
1.000000000000000E+20
 20
1.000000000000000E+20
 30
1.000000000000000E+20
  9
$PEXTMAX
 10
-1.000000000000000E+20
 20
-1.000000000000000E+20
 30
-1.000000000000000E+20
  9
$PLIMMIN
 10
0.0
 20
0.0
  9
$PLIMMAX
 10
12.0
 20
9.0
  9
$UNITMODE
 70
     0
  9
$VISRETAIN
 70
     1
  9
$PLINEGEN
 70
     0
  9
$PSLTSCALE
 70
     1
  9
$TREEDEPTH
 70
  3020
  9
$PICKSTYLE
 70
     3
  9
$CMLSTYLE
  2
STANDARD
  9
$CMLJUST
 70
     0
  9
$CMLSCALE
 40
1.0
  9
$SAVEIMAGES
 70
     1
  0
ENDSEC
  0
SECTION
  2
CLASSES
  0
CLASS
  1
ACDBDICTIONARYWDFLT
  2
AcDbDictionaryWithDefault
  3
AutoCAD 2000
 90
    32768
280
     0
281
     0
  0
CLASS
  1
ACDBPLACEHOLDER
  2
AcDbPlaceHolder
  3
AutoCAD 2000
 90
    32768
280
     0
281
     0
  0
CLASS
  1
LAYOUT
  2
AcDbLayout
  3
AutoCAD 2000
 90
    32768
280
     0
281
     0
  0
CLASS
  1
DICTIONARYVAR
  2
AcDbDictionaryVar
  3
AutoCAD 2000
 90
    32768
280
     0
281
     0
  0
CLASS
  1
LONG_TRANSACTION
  2
AcDbLongTransaction
  3
AutoCAD 2000
 90
    32768
280
     0
281
     0
  0
CLASS
  1
LWPOLYLINE
  2
AcDbPolyline
  3
AutoCAD 2000
 90
    32768
280
     0
281
     1
  0
CLASS
  1
HATCH
  2
AcDbHatch
  3
AutoCAD 2000
 90
    32768
280
     0
281
     1
  0
CLASS
  1
XRECORD
  2
AcDbXrecord
  3
AutoCAD 2000
 90
    32768
280
     0
281
     0
  0
ENDSEC
  0
SECTION
  2
TABLES
  0
TABLE
  2
VPORT
  5
8
330
0
100
AcDbSymbolTable
 70
     2
  0
VPORT
  5
407
330
8
100
AcDbSymbolTableRecord
100
AcDbViewportTableRecord
  2
*ACTIVE
 70
     0
 10
0.0
 20
0.0
 11
1.0
 21
1.0
 12
202.5018320238472
 22
138.9944235930386
 13
0.0
 23
0.0
 14
1.0
 24
1.0
 15
0.0
 25
0.0
 16
0.0
 26
0.0
 36
1.0
 17
0.0
 27
0.0
 37
0.0
 40
274.1445922558548
 41
1.637191157347204
 42
50.0
 43
0.0
 44
0.0
 50
0.0
 51
0.0
 71
     0
 72
   100
 73
     1
 74
     1
 75
     0
 76
     0
 77
     0
 78
     0
  0
ENDTAB
  0
TABLE
  2
LTYPE
  5
5
330
0
100
AcDbSymbolTable
 70
     9
  0
LTYPE
  5
13
330
5
100
AcDbSymbolTableRecord
100
AcDbLinetypeTableRecord
  2
BYBLOCK
 70
     0
  3

 72
    65
 73
     0
 40
0.0
  0
LTYPE
  5
14
330
5
100
AcDbSymbolTableRecord
100
AcDbLinetypeTableRecord
  2
BYLAYER
 70
     0
  3

 72
    65
 73
     0
 40
0.0
  0
LTYPE
  5
15
330
5
100
AcDbSymbolTableRecord
100
AcDbLinetypeTableRecord
  2
CONTINUOUS
 70
     0
  3
Solid line
 72
    65
 73
     0
 40
0.0
  0
LTYPE
  5
23
330
5
100
AcDbSymbolTableRecord
100
AcDbLinetypeTableRecord
  2
DASHED
 70
     0
  3
__ __ __ __ __ __ __ __ __ __ __ __ __ __ __
 72
    65
 73
     2
 40
0.75
 49
0.5
 74
     0
 49
-0.25
 74
     0
  0
LTYPE
  5
25
330
5
100
AcDbSymbolTableRecord
100
AcDbLinetypeTableRecord
  2
DOT
 70
     0
  3
...............................................
 72
    65
 73
     2
 40
0.25
 49
0.0
 74
     0
 49
-0.25
 74
     0
  0
LTYPE
  5
28
330
5
100
AcDbSymbolTableRecord
100
AcDbLinetypeTableRecord
  2
CENTER
 70
     0
  3
____ _ ____ _ ____ _ ____ _ ____ _ ____ _ ____ 
 72
    65
 73
     4
 40
2.0
 49
1.25
 74
     0
 49
-0.25
 74
     0
 49
0.25
 74
     0
 49
-0.25
 74
     0
  0
ENDTAB
  0
TABLE
  2
LAYER
  5
2
330
0
100
AcDbSymbolTable
 70
    18
  0
LAYER
  5
10
330
2
100
AcDbSymbolTableRecord
100
AcDbLayerTableRecord
  2
0
 70
     0
 62
     7
  6
CONTINUOUS
  0
LAYER
  5
22
330
2
100
AcDbSymbolTableRecord
100
AcDbLayerTableRecord
  2
CSLAYER17
 70
     0
 62
     7
  6
CONTINUOUS
  0
LAYER
  5
2B
330
2
100
AcDbSymbolTableRecord
100
AcDbLayerTableRecord
  2
CSLAYER1
 70
     0
 62
     7
  6
CONTINUOUS
  0
ENDTAB
  0
TABLE
  2
STYLE
  5
3
330
0
100
AcDbSymbolTable
 70
     3
  0
STYLE
  5
11
330
3
100
AcDbSymbolTableRecord
100
AcDbTextStyleTableRecord
  2
STANDARD
 70
     0
 40
0.0
 41
1.0
 50
0.0
 71
     0
 42
0.2
  3
txt
  4
extfont.shx
  0
STYLE
  5
3B
330
3
100
AcDbSymbolTableRecord
100
AcDbTextStyleTableRecord
  2
FX_FONT
 70
     0
 40
1.0
 41
1.0
 50
0.0
 71
     0
 42
1.0
  3
monotxt
  4
bigfont
  0
STYLE
  5
404
330
3
100
AcDbSymbolTableRecord
100
AcDbTextStyleTableRecord
  2
GOTHIC
 70
     0
 40
0.0
 41
1.0
 50
0.0
 71
     0
 42
0.2
  3
txt.shx
  4
extfont.shx
  0
ENDTAB
  0
TABLE
  2
VIEW
  5
6
330
0
100
AcDbSymbolTable
 70
     0
  0
ENDTAB
  0
TABLE
  2
UCS
  5
7
330
0
100
AcDbSymbolTable
 70
     0
  0
ENDTAB
  0
TABLE
  2
APPID
  5
9
330
0
100
AcDbSymbolTable
 70
     1
  0
APPID
  5
12
330
9
100
AcDbSymbolTableRecord
100
AcDbRegAppTableRecord
  2
ACAD
 70
     0
  0
ENDTAB
  0
TABLE
  2
DIMSTYLE
  5
A
330
0
100
AcDbSymbolTable
 70
     1
  0
DIMSTYLE
105
401
330
A
100
AcDbSymbolTableRecord
100
AcDbDimStyleTableRecord
  2
STANDARD
 70
     0
  3

  4

  5

  6

  7

 40
1.0
 41
0.18
 42
0.0625
 43
0.38
 44
0.18
 45
0.0
 46
0.0
 47
0.0
 48
0.0
140
0.18
141
0.09
142
0.0
143
25.4
144
1.0
145
0.0
146
1.0
147
0.09
 71
     0
 72
     0
 73
     1
 74
     1
 75
     0
 76
     0
 77
     0
 78
     0
170
     0
171
     2
172
     0
173
     0
174
     0
175
     0
176
     0
177
     0
178
     0
270
     2
271
     4
272
     4
273
     2
274
     2
340
11
275
     0
280
     0
281
     0
282
     0
283
     1
284
     0
285
     0
286
     0
287
     3
288
     0
  0
ENDTAB
  0
TABLE
  2
BLOCK_RECORD
  5
1
330
0
100
AcDbSymbolTable
 70
    31
  0
BLOCK_RECORD
  5
1E
102
{ACAD_XDICTIONARY
360
40A
102
}
330
1
100
AcDbSymbolTableRecord
100
AcDbBlockTableRecord
  2
*MODEL_SPACE
  0
BLOCK_RECORD
  5
1A
102
{ACAD_XDICTIONARY
360
408
102
}
330
1
100
AcDbSymbolTableRecord
100
AcDbBlockTableRecord
  2
*PAPER_SPACE
  0
BLOCK_RECORD
  5
40
330
1
100
AcDbSymbolTableRecord
100
AcDbBlockTableRecord
  2
FXDIM0000
  0
BLOCK_RECORD
  5
48
330
1
100
AcDbSymbolTableRecord
100
AcDbBlockTableRecord
  2
*D1
  0
BLOCK_RECORD
  5
51
330
1
100
AcDbSymbolTableRecord
100
AcDbBlockTableRecord
  2
*D2
  0
BLOCK_RECORD
  5
5B
330
1
100
AcDbSymbolTableRecord
100
AcDbBlockTableRecord
  2
*D3
  0
BLOCK_RECORD
  5
66
330
1
100
AcDbSymbolTableRecord
100
AcDbBlockTableRecord
  2
*D4
  0
BLOCK_RECORD
  5
70
330
1
100
AcDbSymbolTableRecord
100
AcDbBlockTableRecord
  2
*D5
  0
BLOCK_RECORD
  5
7A
330
1
100
AcDbSymbolTableRecord
100
AcDbBlockTableRecord
  2
*D6
  0
BLOCK_RECORD
  5
82
330
1
100
AcDbSymbolTableRecord
100
AcDbBlockTableRecord
  2
*D7
  0
BLOCK_RECORD
  5
88
330
1
100
AcDbSymbolTableRecord
100
AcDbBlockTableRecord
  2
*D8
  0
BLOCK_RECORD
  5
93
330
1
100
AcDbSymbolTableRecord
100
AcDbBlockTableRecord
  2
*D9
  0
BLOCK_RECORD
  5
9E
330
1
100
AcDbSymbolTableRecord
100
AcDbBlockTableRecord
  2
FXDIM0001
  0
BLOCK_RECORD
  5
A6
330
1
100
AcDbSymbolTableRecord
100
AcDbBlockTableRecord
  2
*D11
  0
BLOCK_RECORD
  5
B1
330
1
100
AcDbSymbolTableRecord
100
AcDbBlockTableRecord
  2
*D12
  0
BLOCK_RECORD
  5
BC
330
1
100
AcDbSymbolTableRecord
100
AcDbBlockTableRecord
  2
*D13
  0
BLOCK_RECORD
  5
C7
330
1
100
AcDbSymbolTableRecord
100
AcDbBlockTableRecord
  2
*D14
  0
BLOCK_RECORD
  5
D2
330
1
100
AcDbSymbolTableRecord
100
AcDbBlockTableRecord
  2
*D15
  0
BLOCK_RECORD
  5
DB
330
1
100
AcDbSymbolTableRecord
100
AcDbBlockTableRecord
  2
*D16
  0
BLOCK_RECORD
  5
E8
330
1
100
AcDbSymbolTableRecord
100
AcDbBlockTableRecord
  2
*D17
  0
BLOCK_RECORD
  5
F1
330
1
100
AcDbSymbolTableRecord
100
AcDbBlockTableRecord
  2
*D18
  0
BLOCK_RECORD
  5
F7
330
1
100
AcDbSymbolTableRecord
100
AcDbBlockTableRecord
  2
*D19
  0
BLOCK_RECORD
  5
102
330
1
100
AcDbSymbolTableRecord
100
AcDbBlockTableRecord
  2
*D20
  0
BLOCK_RECORD
  5
10C
330
1
100
AcDbSymbolTableRecord
100
AcDbBlockTableRecord
  2
*D21
  0
BLOCK_RECORD
  5
112
330
1
100
AcDbSymbolTableRecord
100
AcDbBlockTableRecord
  2
*D22
  0
BLOCK_RECORD
  5
11C
330
1
100
AcDbSymbolTableRecord
100
AcDbBlockTableRecord
  2
*D23
  0
BLOCK_RECORD
  5
127
330
1
100
AcDbSymbolTableRecord
100
AcDbBlockTableRecord
  2
*D24
  0
BLOCK_RECORD
  5
132
330
1
100
AcDbSymbolTableRecord
100
AcDbBlockTableRecord
  2
FXDIM0002
  0
BLOCK_RECORD
  5
13A
330
1
100
AcDbSymbolTableRecord
100
AcDbBlockTableRecord
  2
*D26
  0
BLOCK_RECORD
  5
147
330
1
100
AcDbSymbolTableRecord
100
AcDbBlockTableRecord
  2
BLKF0000
  0
BLOCK_RECORD
  5
155
330
1
100
AcDbSymbolTableRecord
100
AcDbBlockTableRecord
  2
BLKF0001
  0
BLOCK_RECORD
  5
162
330
1
100
AcDbSymbolTableRecord
100
AcDbBlockTableRecord
  2
BLKF0002
  0
BLOCK_RECORD
  5
16F
330
1
100
AcDbSymbolTableRecord
100
AcDbBlockTableRecord
  2
BLKF0003
  0
ENDTAB
  0
ENDSEC
  0
SECTION
  2
BLOCKS
  0
BLOCK
  5
1F
330
1E
100
AcDbEntity
  8
0
100
AcDbBlockBegin
  2
*MODEL_SPACE
 70
     0
 10
0.0
 20
0.0
 30
0.0
  3
*MODEL_SPACE
  1

  0
ENDBLK
  5
20
330
1E
100
AcDbEntity
  8
0
100
AcDbBlockEnd
  0
BLOCK
  5
1B
330
1A
100
AcDbEntity
 67
     1
  8
0
100
AcDbBlockBegin
  2
*PAPER_SPACE
 70
     0
 10
0.0
 20
0.0
 30
0.0
  3
*PAPER_SPACE
  1

  0
ENDBLK
  5
1C
330
1A
100
AcDbEntity
 67
     1
  8
0
100
AcDbBlockEnd
  0
BLOCK
  5
41
330
40
100
AcDbEntity
  8
CSLAYER1
100
AcDbBlockBegin
  2
FXDIM0000
 70
     0
 10
0.0
 20
0.0
 30
0.0
  3
FXDIM0000
  1

  0
LINE
  5
42
330
40
100
AcDbEntity
  8
CSLAYER1
  6
CONTINUOUS
 62
     4
100
AcDbLine
 10
178.435806
 20
85.46889699999999
 30
0.0
 11
123.058415
 21
97.28246099999999
 31
0.0
  0
LINE
  5
43
330
40
100
AcDbEntity
  8
CSLAYER1
  6
CONTINUOUS
 62
     4
100
AcDbLine
 10
178.435806
 20
85.46889699999999
 30
0.0
 11
175.439802
 21
85.314101
 31
0.0
  0
LINE
  5
44
330
40
100
AcDbEntity
  8
CSLAYER1
  6
CONTINUOUS
 62
     4
100
AcDbLine
 10
178.435806
 20
85.46889699999999
 30
0.0
 11
175.763793
 21
86.83284200000001
 31
0.0
  0
LINE
  5
45
330
40
100
AcDbEntity
  8
CSLAYER1
  6
CONTINUOUS
 62
     4
100
AcDbLine
 10
123.058415
 20
97.28246099999999
 30
0.0
 11
98.65841500000001
 21
97.28246099999999
 31
0.0
  0
TEXT
  5
46
330
40
100
AcDbEntity
  8
CSLAYER1
 62
     4
100
AcDbText
 10
99.65837500000001
 20
97.782455
 30
0.0
 40
3.2
  1
Rc1/8ネジ
 41
0.9813084550233643
 51
15.0
  7
FX_FONT
 72
     5
 11
122.058376
 21
97.782455
 31
0.0
100
AcDbText
  0
ENDBLK
  5
47
330
40
100
AcDbEntity
  8
0
100
AcDbBlockEnd
  0
BLOCK
  5
49
330
48
100
AcDbEntity
  8
CSLAYER1
100
AcDbBlockBegin
  2
*D1
 70
     1
 10
0.0
 20
0.0
 30
0.0
  3
*D1
  1

  0
TEXT
  5
4A
330
48
100
AcDbEntity
  8
CSLAYER1
 62
     4
100
AcDbText
 10
133.3645629999999
 20
154.679462
 30
0.0
 40
3.2
  1
170
 50
90.0
 41
1.125000000000002
 51
15.0
  7
FX_FONT
 72
     5
 11
133.3645629999999
 21
164.279462
 31
0.0
100
AcDbText
  0
LINE
  5
4B
330
48
100
AcDbEntity
  8
CSLAYER1
  6
CONTINUOUS
 62
     4
100
AcDbLine
 10
133.864562
 20
74.47946299999999
 30
0.0
 11
133.864562
 21
244.479463
 31
0.0
  0
LINE
  5
4C
330
48
100
AcDbEntity
  8
CSLAYER1
  6
CONTINUOUS
 62
     4
100
AcDbLine
 10
133.864562
 20
74.47946299999999
 30
0.0
 11
133.088105
 21
77.377241
 31
0.0
  0
LINE
  5
4D
330
48
100
AcDbEntity
  8
CSLAYER1
  6
CONTINUOUS
 62
     4
100
AcDbLine
 10
133.864562
 20
74.47946299999999
 30
0.0
 11
134.641019
 21
77.377241
 31
0.0
  0
LINE
  5
4E
330
48
100
AcDbEntity
  8
CSLAYER1
  6
CONTINUOUS
 62
     4
100
AcDbLine
 10
133.864562
 20
244.479463
 30
0.0
 11
133.088105
 21
241.581686
 31
0.0
  0
LINE
  5
4F
330
48
100
AcDbEntity
  8
CSLAYER1
  6
CONTINUOUS
 62
     4
100
AcDbLine
 10
133.864562
 20
244.479463
 30
0.0
 11
134.641019
 21
241.581686
 31
0.0
  0
ENDBLK
  5
50
330
48
100
AcDbEntity
  8
0
100
AcDbBlockEnd
  0
BLOCK
  5
52
330
51
100
AcDbEntity
  8
CSLAYER1
100
AcDbBlockBegin
  2
*D2
 70
     1
 10
0.0
 20
0.0
 30
0.0
  3
*D2
  1

  0
TEXT
  5
53
330
51
100
AcDbEntity
  8
CSLAYER1
 62
     4
100
AcDbText
 10
139.3645629999999
 20
233.779462
 30
0.0
 40
3.2
  1
15
 50
90.0
 41
1.199999999999995
 51
15.0
  7
FX_FONT
 72
     5
 11
139.3645629999999
 21
240.1794619999999
 31
0.0
100
AcDbText
  0
LINE
  5
54
330
51
100
AcDbEntity
  8
CSLAYER1
  6
CONTINUOUS
 62
     4
100
AcDbLine
 10
139.864562
 20
229.4794629999999
 30
0.0
 11
139.864562
 21
244.479463
 31
0.0
  0
LINE
  5
55
330
51
100
AcDbEntity
  8
CSLAYER1
  6
CONTINUOUS
 62
     4
100
AcDbLine
 10
139.864562
 20
229.4794629999999
 30
0.0
 11
139.088105
 21
232.377241
 31
0.0
  0
LINE
  5
56
330
51
100
AcDbEntity
  8
CSLAYER1
  6
CONTINUOUS
 62
     4
100
AcDbLine
 10
139.864562
 20
229.4794629999999
 30
0.0
 11
140.641019
 21
232.377241
 31
0.0
  0
LINE
  5
57
330
51
100
AcDbEntity
  8
CSLAYER1
  6
CONTINUOUS
 62
     4
100
AcDbLine
 10
139.864562
 20
244.479463
 30
0.0
 11
139.088105
 21
241.581686
 31
0.0
  0
LINE
  5
58
330
51
100
AcDbEntity
  8
CSLAYER1
  6
CONTINUOUS
 62
     4
100
AcDbLine
 10
139.864562
 20
244.479463
 30
0.0
 11
140.641019
 21
241.581686
 31
0.0
  0
LINE
  5
59
330
51
100
AcDbEntity
  8
CSLAYER1
  6
CONTINUOUS
 62
     4
100
AcDbLine
 10
149.973035
 20
229.4794629999999
 30
0.0
 11
138.864562
 21
229.4794629999999
 31
0.0
  0
ENDBLK
  5
5A
330
51
100
AcDbEntity
  8
0
100
AcDbBlockEnd
  0
BLOCK
  5
5C
330
5B
100
AcDbEntity
  8
CSLAYER1
100
AcDbBlockBegin
  2
*D3
 70
     1
 10
0.0
 20
0.0
 30
0.0
  3
*D3
  1

  0
TEXT
  5
5D
330
5B
100
AcDbEntity
  8
CSLAYER1
 62
     4
100
AcDbText
 10
127.3645629999999
 20
139.679462
 30
0.0
 40
3.2
  1
200
 50
90.0
 41
1.125000000000002
 51
15.0
  7
FX_FONT
 72
     5
 11
127.3645629999999
 21
149.279462
 31
0.0
100
AcDbText
  0
LINE
  5
5E
330
5B
100
AcDbEntity
  8
CSLAYER1
  6
CONTINUOUS
 62
     4
100
AcDbLine
 10
127.864562
 20
44.479463
 30
0.0
 11
127.864562
 21
244.479463
 31
0.0
  0
LINE
  5
5F
330
5B
100
AcDbEntity
  8
CSLAYER1
  6
CONTINUOUS
 62
     4
100
AcDbLine
 10
127.864562
 20
44.479463
 30
0.0
 11
127.088105
 21
47.377241
 31
0.0
  0
LINE
  5
60
330
5B
100
AcDbEntity
  8
CSLAYER1
  6
CONTINUOUS
 62
     4
100
AcDbLine
 10
127.864562
 20
44.479463
 30
0.0
 11
128.641019
 21
47.377241
 31
0.0
  0
LINE
  5
61
330
5B
100
AcDbEntity
  8
CSLAYER1
  6
CONTINUOUS
 62
     4
100
AcDbLine
 10
127.864562
 20
244.479463
 30
0.0
 11
127.088105
 21
241.581686
 31
0.0
  0
LINE
  5
62
330
5B
100
AcDbEntity
  8
CSLAYER1
  6
CONTINUOUS
 62
     4
100
AcDbLine
 10
127.864562
 20
244.479463
 30
0.0
 11
128.641019
 21
241.581686
 31
0.0
  0
LINE
  5
63
330
5B
100
AcDbEntity
  8
CSLAYER1
  6
CONTINUOUS
 62
     4
100
AcDbLine
 10
156.326953
 20
44.479463
 30
0.0
 11
126.864562
 21
44.479463
 31
0.0
  0
LINE
  5
64
330
5B
100
AcDbEntity
  8
CSLAYER1
  6
CONTINUOUS
 62
     4
100
AcDbLine
 10
156.826953
 20
244.479463
 30
0.0
 11
126.864562
 21
244.479463
 31
0.0
  0
ENDBLK
  5
65
330
5B
100
AcDbEntity
  8
0
100
AcDbBlockEnd
  0
BLOCK
  5
67
330
66
100
AcDbEntity
  8
CSLAYER1
100
AcDbBlockBegin
  2
*D4
 70
     1
 10
0.0
 20
0.0
 30
0.0
  3
*D4
  1

  0
TEXT
  5
68
330
66
100
AcDbEntity
  8
CSLAYER1
 62
     4
100
AcDbText
 10
133.3645629999999
 20
45.879462
 30
0.0
 40
3.2
  1
6
 50
90.0
 41
1.500000000000001
 51
15.0
  7
FX_FONT
 72
     5
 11
133.3645629999999
 21
49.079462
 31
0.0
100
AcDbText
  0
LINE
  5
69
330
66
100
AcDbEntity
  8
CSLAYER1
  6
CONTINUOUS
 62
     4
100
AcDbLine
 10
133.864562
 20
44.479463
 30
0.0
 11
133.864562
 21
50.479463
 31
0.0
  0
LINE
  5
6A
330
66
100
AcDbEntity
  8
CSLAYER1
  6
CONTINUOUS
 62
     4
100
AcDbLine
 10
133.864562
 20
44.479463
 30
0.0
 11
133.088105
 21
47.377241
 31
0.0
  0
LINE
  5
6B
330
66
100
AcDbEntity
  8
CSLAYER1
  6
CONTINUOUS
 62
     4
100
AcDbLine
 10
133.864562
 20
44.479463
 30
0.0
 11
134.641019
 21
47.377241
 31
0.0
  0
LINE
  5
6C
330
66
100
AcDbEntity
  8
CSLAYER1
  6
CONTINUOUS
 62
     4
100
AcDbLine
 10
133.864562
 20
50.479463
 30
0.0
 11
133.088105
 21
47.581686
 31
0.0
  0
LINE
  5
6D
330
66
100
AcDbEntity
  8
CSLAYER1
  6
CONTINUOUS
 62
     4
100
AcDbLine
 10
133.864562
 20
50.479463
 30
0.0
 11
134.641019
 21
47.581686
 31
0.0
  0
LINE
  5
6E
330
66
100
AcDbEntity
  8
CSLAYER1
  6
CONTINUOUS
 62
     4
100
AcDbLine
 10
156.326953
 20
50.479463
 30
0.0
 11
132.864562
 21
50.479463
 31
0.0
  0
ENDBLK
  5
6F
330
66
100
AcDbEntity
  8
0
100
AcDbBlockEnd
  0
BLOCK
  5
71
330
70
100
AcDbEntity
  8
CSLAYER1
100
AcDbBlockBegin
  2
*D5
 70
     1
 10
0.0
 20
0.0
 30
0.0
  3
*D5
  1

  0
TEXT
  5
72
330
70
100
AcDbEntity
  8
CSLAYER1
 62
     4
100
AcDbText
 10
133.3645629999999
 20
54.279462
 30
0.0
 40
3.2
  1
14
 50
90.0
 41
1.199999999999999
 51
15.0
  7
FX_FONT
 72
     5
 11
133.3645629999999
 21
60.679462
 31
0.0
100
AcDbText
  0
LINE
  5
73
330
70
100
AcDbEntity
  8
CSLAYER1
  6
CONTINUOUS
 62
     4
100
AcDbLine
 10
133.864562
 20
50.479463
 30
0.0
 11
133.864562
 21
64.47946299999999
 31
0.0
  0
LINE
  5
74
330
70
100
AcDbEntity
  8
CSLAYER1
  6
CONTINUOUS
 62
     4
100
AcDbLine
 10
133.864562
 20
50.479463
 30
0.0
 11
133.088105
 21
53.377241
 31
0.0
  0
LINE
  5
75
330
70
100
AcDbEntity
  8
CSLAYER1
  6
CONTINUOUS
 62
     4
100
AcDbLine
 10
133.864562
 20
50.479463
 30
0.0
 11
134.641019
 21
53.377241
 31
0.0
  0
LINE
  5
76
330
70
100
AcDbEntity
  8
CSLAYER1
  6
CONTINUOUS
 62
     4
100
AcDbLine
 10
133.864562
 20
64.47946299999999
 30
0.0
 11
133.088105
 21
61.58168599999999
 31
0.0
  0
LINE
  5
77
330
70
100
AcDbEntity
  8
CSLAYER1
  6
CONTINUOUS
 62
     4
100
AcDbLine
 10
133.864562
 20
64.47946299999999
 30
0.0
 11
134.641019
 21
61.58168599999999
 31
0.0
  0
LINE
  5
78
330
70
100
AcDbEntity
  8
CSLAYER1
  6
CONTINUOUS
 62
     4
100
AcDbLine
 10
156.326953
 20
64.47946299999999
 30
0.0
 11
132.864562
 21
64.47946299999999
 31
0.0
  0
ENDBLK
  5
79
330
70
100
AcDbEntity
  8
0
100
AcDbBlockEnd
  0
BLOCK
  5
7B
330
7A
100
AcDbEntity
  8
CSLAYER1
100
AcDbBlockBegin
  2
*D6
 70
     1
 10
0.0
 20
0.0
 30
0.0
  3
*D6
  1

  0
TEXT
  5
7C
330
7A
100
AcDbEntity
  8
CSLAYER1
 62
     4
100
AcDbText
 10
133.3645629999999
 20
65.87946200000001
 30
0.0
 40
3.2
  1
6
 50
90.0
 41
1.500000000000001
 51
15.0
  7
FX_FONT
 72
     5
 11
133.3645629999999
 21
69.07946200000001
 31
0.0
100
AcDbText
  0
LINE
  5
7D
330
7A
100
AcDbEntity
  8
CSLAYER1
  6
CONTINUOUS
 62
     4
100
AcDbLine
 10
133.864562
 20
64.47946299999999
 30
0.0
 11
133.864562
 21
70.47946299999999
 31
0.0
  0
CIRCLE
  5
7E
330
7A
100
AcDbEntity
  8
CSLAYER1
  6
CONTINUOUS
 62
     4
100
AcDbCircle
 10
133.864562
 20
70.47946299999999
 30
0.0
 40
0.3
  0
CIRCLE
  5
7F
330
7A
100
AcDbEntity
  8
CSLAYER1
  6
CONTINUOUS
 62
     4
100
AcDbCircle
 10
133.864562
 20
70.47946299999999
 30
0.0
 40
0.15
  0
LINE
  5
80
330
7A
100
AcDbEntity
  8
CSLAYER1
  6
CONTINUOUS
 62
     4
100
AcDbLine
 10
156.326953
 20
70.47946299999999
 30
0.0
 11
132.864562
 21
70.47946299999999
 31
0.0
  0
ENDBLK
  5
81
330
7A
100
AcDbEntity
  8
0
100
AcDbBlockEnd
  0
BLOCK
  5
83
330
82
100
AcDbEntity
  8
CSLAYER1
100
AcDbBlockBegin
  2
*D7
 70
     1
 10
0.0
 20
0.0
 30
0.0
  3
*D7
  1

  0
TEXT
  5
84
330
82
100
AcDbEntity
  8
CSLAYER1
 62
     4
100
AcDbText
 10
133.3645629999999
 20
70.87946200000001
 30
0.0
 40
3.2
  1
4
 50
90.0
 41
1.500000000000001
 51
15.0
  7
FX_FONT
 72
     5
 11
133.3645629999999
 21
74.07946200000001
 31
0.0
100
AcDbText
  0
LINE
  5
85
330
82
100
AcDbEntity
  8
CSLAYER1
  6
CONTINUOUS
 62
     4
100
AcDbLine
 10
133.864562
 20
70.47946299999999
 30
0.0
 11
133.864562
 21
74.47946299999999
 31
0.0
  0
LINE
  5
86
330
82
100
AcDbEntity
  8
CSLAYER1
  6
CONTINUOUS
 62
     4
100
AcDbLine
 10
153.326953
 20
74.47946299999999
 30
0.0
 11
132.864562
 21
74.47946299999999
 31
0.0
  0
ENDBLK
  5
87
330
82
100
AcDbEntity
  8
0
100
AcDbBlockEnd
  0
BLOCK
  5
89
330
88
100
AcDbEntity
  8
CSLAYER1
100
AcDbBlockBegin
  2
*D8
 70
     1
 10
0.0
 20
0.0
 30
0.0
  3
*D8
  1

  0
TEXT
  5
8A
330
88
100
AcDbEntity
  8
CSLAYER1
 62
     4
100
AcDbText
 10
315.40379
 20
261.9625849999999
 30
0.0
 40
3.2
  1
56
 41
1.199999999999995
 51
15.0
  7
FX_FONT
 72
     5
 11
321.80379
 21
261.9625849999999
 31
0.0
100
AcDbText
  0
LINE
  5
8B
330
88
100
AcDbEntity
  8
CSLAYER1
  6
CONTINUOUS
 62
     4
100
AcDbLine
 10
290.603764
 20
261.462589
 30
0.0
 11
346.603764
 21
261.462589
 31
0.0
  0
LINE
  5
8C
330
88
100
AcDbEntity
  8
CSLAYER1
  6
CONTINUOUS
 62
     4
100
AcDbLine
 10
290.603764
 20
261.462589
 30
0.0
 11
293.501541
 21
262.2390459999999
 31
0.0
  0
LINE
  5
8D
330
88
100
AcDbEntity
  8
CSLAYER1
  6
CONTINUOUS
 62
     4
100
AcDbLine
 10
290.603764
 20
261.462589
 30
0.0
 11
293.501541
 21
260.6861319999999
 31
0.0
  0
LINE
  5
8E
330
88
100
AcDbEntity
  8
CSLAYER1
  6
CONTINUOUS
 62
     4
100
AcDbLine
 10
346.603764
 20
261.462589
 30
0.0
 11
343.705986
 21
262.2390459999999
 31
0.0
  0
LINE
  5
8F
330
88
100
AcDbEntity
  8
CSLAYER1
  6
CONTINUOUS
 62
     4
100
AcDbLine
 10
346.603764
 20
261.462589
 30
0.0
 11
343.705986
 21
260.6861319999999
 31
0.0
  0
LINE
  5
90
330
88
100
AcDbEntity
  8
CSLAYER1
  6
CONTINUOUS
 62
     4
100
AcDbLine
 10
290.603764
 20
209.4794629999999
 30
0.0
 11
290.603764
 21
262.462589
 31
0.0
  0
LINE
  5
91
330
88
100
AcDbEntity
  8
CSLAYER1
  6
CONTINUOUS
 62
     4
100
AcDbLine
 10
346.603764
 20
209.4794629999999
 30
0.0
 11
346.603764
 21
262.462589
 31
0.0
  0
ENDBLK
  5
92
330
88
100
AcDbEntity
  8
0
100
AcDbBlockEnd
  0
BLOCK
  5
94
330
93
100
AcDbEntity
  8
CSLAYER1
100
AcDbBlockBegin
  2
*D9
 70
     1
 10
0.0
 20
0.0
 30
0.0
  3
*D9
  1

  0
TEXT
  5
95
330
93
100
AcDbEntity
  8
CSLAYER1
 62
     4
100
AcDbText
 10
315.40379
 20
255.962585
 30
0.0
 40
3.2
  1
28
 41
1.199999999999995
 51
15.0
  7
FX_FONT
 72
     5
 11
321.80379
 21
255.962585
 31
0.0
100
AcDbText
  0
LINE
  5
96
330
93
100
AcDbEntity
  8
CSLAYER1
  6
CONTINUOUS
 62
     4
100
AcDbLine
 10
304.603764
 20
255.462589
 30
0.0
 11
332.603764
 21
255.462589
 31
0.0
  0
LINE
  5
97
330
93
100
AcDbEntity
  8
CSLAYER1
  6
CONTINUOUS
 62
     4
100
AcDbLine
 10
304.603764
 20
255.462589
 30
0.0
 11
307.501541
 21
256.2390459999999
 31
0.0
  0
LINE
  5
98
330
93
100
AcDbEntity
  8
CSLAYER1
  6
CONTINUOUS
 62
     4
100
AcDbLine
 10
304.603764
 20
255.462589
 30
0.0
 11
307.501541
 21
254.686132
 31
0.0
  0
LINE
  5
99
330
93
100
AcDbEntity
  8
CSLAYER1
  6
CONTINUOUS
 62
     4
100
AcDbLine
 10
332.603764
 20
255.462589
 30
0.0
 11
329.705986
 21
256.2390459999999
 31
0.0
  0
LINE
  5
9A
330
93
100
AcDbEntity
  8
CSLAYER1
  6
CONTINUOUS
 62
     4
100
AcDbLine
 10
332.603764
 20
255.462589
 30
0.0
 11
329.705986
 21
254.686132
 31
0.0
  0
LINE
  5
9B
330
93
100
AcDbEntity
  8
CSLAYER1
  6
CONTINUOUS
 62
     4
100
AcDbLine
 10
304.603764
 20
244.479463
 30
0.0
 11
304.603764
 21
256.462589
 31
0.0
  0
LINE
  5
9C
330
93
100
AcDbEntity
  8
CSLAYER1
  6
CONTINUOUS
 62
     4
100
AcDbLine
 10
332.603764
 20
244.479463
 30
0.0
 11
332.603764
 21
256.462589
 31
0.0
  0
ENDBLK
  5
9D
330
93
100
AcDbEntity
  8
0
100
AcDbBlockEnd
  0
BLOCK
  5
9F
330
9E
100
AcDbEntity
  8
CSLAYER1
100
AcDbBlockBegin
  2
FXDIM0001
 70
     0
 10
0.0
 20
0.0
 30
0.0
  3
FXDIM0001
  1

  0
LINE
  5
A0
330
9E
100
AcDbEntity
  8
CSLAYER1
  6
CONTINUOUS
 62
     4
100
AcDbLine
 10
307.2676009999999
 20
68.534933
 30
0.0
 11
312.770755
 21
35.835121
 31
0.0
  0
LINE
  5
A1
330
9E
100
AcDbEntity
  8
CSLAYER1
  6
CONTINUOUS
 62
     4
100
AcDbLine
 10
307.2676009999999
 20
68.534933
 30
0.0
 11
308.514204
 21
65.806201
 31
0.0
  0
LINE
  5
A2
330
9E
100
AcDbEntity
  8
CSLAYER1
  6
CONTINUOUS
 62
     4
100
AcDbLine
 10
307.2676009999999
 20
68.534933
 30
0.0
 11
306.982825
 21
65.54847999999999
 31
0.0
  0
LINE
  5
A3
330
9E
100
AcDbEntity
  8
CSLAYER1
  6
CONTINUOUS
 62
     4
100
AcDbLine
 10
312.770755
 20
35.835121
 30
0.0
 11
340.370755
 21
35.835121
 31
0.0
  0
TEXT
  5
A4
330
9E
100
AcDbEntity
  8
CSLAYER1
 62
     4
100
AcDbText
 10
313.77074
 20
36.33511
 30
0.0
 40
3.2
  1
ストッパーボルト
 41
0.8759124087591249
 51
15.0
  7
FX_FONT
 72
     5
 11
339.37074
 21
36.33511
 31
0.0
100
AcDbText
  0
ENDBLK
  5
A5
330
9E
100
AcDbEntity
  8
0
100
AcDbBlockEnd
  0
BLOCK
  5
A7
330
A6
100
AcDbEntity
  8
CSLAYER17
100
AcDbBlockBegin
  2
*D11
 70
     1
 10
0.0
 20
0.0
 30
0.0
  3
*D11
  1

  0
TEXT
  5
A8
330
A6
100
AcDbEntity
  8
CSLAYER17
 62
     4
100
AcDbText
 10
15.421963
 20
167.857281
 30
0.0
 40
3.2
  1
84
 50
90.0
 41
1.2000001875
 51
15.0
  7
FX_FONT
 72
     5
 11
15.421963
 21
174.257282
 31
0.0
100
AcDbText
  0
LINE
  5
A9
330
A6
100
AcDbEntity
  8
CSLAYER17
  6
CONTINUOUS
 62
     4
100
AcDbLine
 10
15.92196099999999
 20
129.0572799999999
 30
0.0
 11
15.92196099999999
 21
213.0572799999999
 31
0.0
  0
LINE
  5
AA
330
A6
100
AcDbEntity
  8
CSLAYER17
  6
CONTINUOUS
 62
     4
100
AcDbLine
 10
15.92196099999999
 20
129.0572799999999
 30
0.0
 11
15.145504
 21
131.955057
 31
0.0
  0
LINE
  5
AB
330
A6
100
AcDbEntity
  8
CSLAYER17
  6
CONTINUOUS
 62
     4
100
AcDbLine
 10
15.92196099999999
 20
129.0572799999999
 30
0.0
 11
16.698419
 21
131.955057
 31
0.0
  0
LINE
  5
AC
330
A6
100
AcDbEntity
  8
CSLAYER17
  6
CONTINUOUS
 62
     4
100
AcDbLine
 10
15.92196099999999
 20
213.0572799999999
 30
0.0
 11
15.145504
 21
210.1595029999999
 31
0.0
  0
LINE
  5
AD
330
A6
100
AcDbEntity
  8
CSLAYER17
  6
CONTINUOUS
 62
     4
100
AcDbLine
 10
15.92196099999999
 20
213.0572799999999
 30
0.0
 11
16.698419
 21
210.1595029999999
 31
0.0
  0
LINE
  5
AE
330
A6
100
AcDbEntity
  8
CSLAYER17
  6
CONTINUOUS
 62
     4
100
AcDbLine
 10
53.522493
 20
129.0572799999999
 30
0.0
 11
14.92196099999999
 21
129.0572799999999
 31
0.0
  0
LINE
  5
AF
330
A6
100
AcDbEntity
  8
CSLAYER17
  6
CONTINUOUS
 62
     4
100
AcDbLine
 10
53.522493
 20
213.0572799999999
 30
0.0
 11
14.92196099999999
 21
213.0572799999999
 31
0.0
  0
ENDBLK
  5
B0
330
A6
100
AcDbEntity
  8
0
100
AcDbBlockEnd
  0
BLOCK
  5
B2
330
B1
100
AcDbEntity
  8
CSLAYER17
100
AcDbBlockBegin
  2
*D12
 70
     1
 10
0.0
 20
0.0
 30
0.0
  3
*D12
  1

  0
TEXT
  5
B3
330
B1
100
AcDbEntity
  8
CSLAYER17
 62
     4
100
AcDbText
 10
21.421963
 20
167.857281
 30
0.0
 40
3.2
  1
68
 50
90.0
 41
1.2000001875
 51
15.0
  7
FX_FONT
 72
     5
 11
21.421963
 21
174.257282
 31
0.0
100
AcDbText
  0
LINE
  5
B4
330
B1
100
AcDbEntity
  8
CSLAYER17
  6
CONTINUOUS
 62
     4
100
AcDbLine
 10
21.92196099999999
 20
137.0572799999999
 30
0.0
 11
21.92196099999999
 21
205.0572799999999
 31
0.0
  0
LINE
  5
B5
330
B1
100
AcDbEntity
  8
CSLAYER17
  6
CONTINUOUS
 62
     4
100
AcDbLine
 10
21.92196099999999
 20
137.0572799999999
 30
0.0
 11
21.145504
 21
139.955057
 31
0.0
  0
LINE
  5
B6
330
B1
100
AcDbEntity
  8
CSLAYER17
  6
CONTINUOUS
 62
     4
100
AcDbLine
 10
21.92196099999999
 20
137.0572799999999
 30
0.0
 11
22.698419
 21
139.955057
 31
0.0
  0
LINE
  5
B7
330
B1
100
AcDbEntity
  8
CSLAYER17
  6
CONTINUOUS
 62
     4
100
AcDbLine
 10
21.92196099999999
 20
205.0572799999999
 30
0.0
 11
21.145504
 21
202.1595029999999
 31
0.0
  0
LINE
  5
B8
330
B1
100
AcDbEntity
  8
CSLAYER17
  6
CONTINUOUS
 62
     4
100
AcDbLine
 10
21.92196099999999
 20
205.0572799999999
 30
0.0
 11
22.698419
 21
202.1595029999999
 31
0.0
  0
LINE
  5
B9
330
B1
100
AcDbEntity
  8
CSLAYER17
  6
CONTINUOUS
 62
     4
100
AcDbLine
 10
64.75165
 20
137.0572799999999
 30
0.0
 11
20.921961
 21
137.0572799999999
 31
0.0
  0
LINE
  5
BA
330
B1
100
AcDbEntity
  8
CSLAYER17
  6
CONTINUOUS
 62
     4
100
AcDbLine
 10
64.75165
 20
205.0572799999999
 30
0.0
 11
20.921961
 21
205.0572799999999
 31
0.0
  0
ENDBLK
  5
BB
330
B1
100
AcDbEntity
  8
0
100
AcDbBlockEnd
  0
BLOCK
  5
BD
330
BC
100
AcDbEntity
  8
CSLAYER17
100
AcDbBlockBegin
  2
*D13
 70
     1
 10
0.0
 20
0.0
 30
0.0
  3
*D13
  1

  0
TEXT
  5
BE
330
BC
100
AcDbEntity
  8
CSLAYER17
 62
     4
100
AcDbText
 10
27.421961
 20
167.857281
 30
0.0
 40
3.2
  1
56
 50
90.0
 41
1.2000001875
 51
15.0
  7
FX_FONT
 72
     5
 11
27.421961
 21
174.257282
 31
0.0
100
AcDbText
  0
LINE
  5
BF
330
BC
100
AcDbEntity
  8
CSLAYER17
  6
CONTINUOUS
 62
     4
100
AcDbLine
 10
27.92196099999999
 20
143.05728
 30
0.0
 11
27.92196099999999
 21
199.0572799999999
 31
0.0
  0
LINE
  5
C0
330
BC
100
AcDbEntity
  8
CSLAYER17
  6
CONTINUOUS
 62
     4
100
AcDbLine
 10
27.92196099999999
 20
143.05728
 30
0.0
 11
27.145504
 21
145.955057
 31
0.0
  0
LINE
  5
C1
330
BC
100
AcDbEntity
  8
CSLAYER17
  6
CONTINUOUS
 62
     4
100
AcDbLine
 10
27.92196099999999
 20
143.05728
 30
0.0
 11
28.698419
 21
145.955057
 31
0.0
  0
LINE
  5
C2
330
BC
100
AcDbEntity
  8
CSLAYER17
  6
CONTINUOUS
 62
     4
100
AcDbLine
 10
27.92196099999999
 20
199.0572799999999
 30
0.0
 11
27.145504
 21
196.1595029999999
 31
0.0
  0
LINE
  5
C3
330
BC
100
AcDbEntity
  8
CSLAYER17
  6
CONTINUOUS
 62
     4
100
AcDbLine
 10
27.92196099999999
 20
199.0572799999999
 30
0.0
 11
28.698419
 21
196.1595029999999
 31
0.0
  0
LINE
  5
C4
330
BC
100
AcDbEntity
  8
CSLAYER17
  6
CONTINUOUS
 62
     4
100
AcDbLine
 10
30.022493
 20
143.05728
 30
0.0
 11
26.921961
 21
143.05728
 31
0.0
  0
LINE
  5
C5
330
BC
100
AcDbEntity
  8
CSLAYER17
  6
CONTINUOUS
 62
     4
100
AcDbLine
 10
30.022493
 20
199.0572799999999
 30
0.0
 11
26.921961
 21
199.0572799999999
 31
0.0
  0
ENDBLK
  5
C6
330
BC
100
AcDbEntity
  8
0
100
AcDbBlockEnd
  0
BLOCK
  5
C8
330
C7
100
AcDbEntity
  8
CSLAYER17
100
AcDbBlockBegin
  2
*D14
 70
     1
 10
0.0
 20
0.0
 30
0.0
  3
*D14
  1

  0
TEXT
  5
C9
330
C7
100
AcDbEntity
  8
CSLAYER17
 62
     4
100
AcDbText
 10
70.322499
 20
194.311096
 30
0.0
 40
3.2
  1
12
 41
1.200000000000001
 51
15.0
  7
FX_FONT
 72
     5
 11
76.722499
 21
194.311096
 31
0.0
100
AcDbText
  0
LINE
  5
CA
330
C7
100
AcDbEntity
  8
CSLAYER17
  6
CONTINUOUS
 62
     4
100
AcDbLine
 10
67.52249300000001
 20
193.811102
 30
0.0
 11
79.52249300000001
 21
193.811102
 31
0.0
  0
LINE
  5
CB
330
C7
100
AcDbEntity
  8
CSLAYER17
  6
CONTINUOUS
 62
     4
100
AcDbLine
 10
67.52249300000001
 20
193.811102
 30
0.0
 11
70.420271
 21
194.5875589999999
 31
0.0
  0
LINE
  5
CC
330
C7
100
AcDbEntity
  8
CSLAYER17
  6
CONTINUOUS
 62
     4
100
AcDbLine
 10
67.52249300000001
 20
193.811102
 30
0.0
 11
70.420271
 21
193.0346449999999
 31
0.0
  0
LINE
  5
CD
330
C7
100
AcDbEntity
  8
CSLAYER17
  6
CONTINUOUS
 62
     4
100
AcDbLine
 10
79.52249300000001
 20
193.811102
 30
0.0
 11
76.624716
 21
194.5875589999999
 31
0.0
  0
LINE
  5
CE
330
C7
100
AcDbEntity
  8
CSLAYER17
  6
CONTINUOUS
 62
     4
100
AcDbLine
 10
79.52249300000001
 20
193.811102
 30
0.0
 11
76.624716
 21
193.0346449999999
 31
0.0
  0
LINE
  5
CF
330
C7
100
AcDbEntity
  8
CSLAYER17
  6
CONTINUOUS
 62
     4
100
AcDbLine
 10
67.52249300000001
 20
204.05728
 30
0.0
 11
67.52249300000001
 21
192.811102
 31
0.0
  0
LINE
  5
D0
330
C7
100
AcDbEntity
  8
CSLAYER17
  6
CONTINUOUS
 62
     4
100
AcDbLine
 10
79.52249300000001
 20
204.05728
 30
0.0
 11
79.52249300000001
 21
192.811102
 31
0.0
  0
ENDBLK
  5
D1
330
C7
100
AcDbEntity
  8
0
100
AcDbBlockEnd
  0
BLOCK
  5
D3
330
D2
100
AcDbEntity
  8
CSLAYER17
100
AcDbBlockBegin
  2
*D15
 70
     1
 10
0.0
 20
0.0
 30
0.0
  3
*D15
  1

  0
TEXT
  5
D4
330
D2
100
AcDbEntity
  8
CSLAYER17
 62
     4
100
AcDbText
 10
94.32249099999999
 20
194.311096
 30
0.0
 40
3.2
  1
36
 41
1.2000001875
 51
15.0
  7
FX_FONT
 72
     5
 11
100.722492
 21
194.311096
 31
0.0
100
AcDbText
  0
LINE
  5
D5
330
D2
100
AcDbEntity
  8
CSLAYER17
  6
CONTINUOUS
 62
     4
100
AcDbLine
 10
79.52249300000001
 20
193.811102
 30
0.0
 11
115.5224929999999
 21
193.811102
 31
0.0
  0
LINE
  5
D6
330
D2
100
AcDbEntity
  8
CSLAYER17
  6
CONTINUOUS
 62
     4
100
AcDbLine
 10
79.52249300000001
 20
193.811102
 30
0.0
 11
82.42027099999999
 21
194.5875589999999
 31
0.0
  0
LINE
  5
D7
330
D2
100
AcDbEntity
  8
CSLAYER17
  6
CONTINUOUS
 62
     4
100
AcDbLine
 10
79.52249300000001
 20
193.811102
 30
0.0
 11
82.42027099999999
 21
193.0346449999999
 31
0.0
  0
LINE
  5
D8
330
D2
100
AcDbEntity
  8
CSLAYER17
  6
CONTINUOUS
 62
     4
100
AcDbLine
 10
115.5224929999999
 20
193.811102
 30
0.0
 11
112.6247159999999
 21
194.5875589999999
 31
0.0
  0
LINE
  5
D9
330
D2
100
AcDbEntity
  8
CSLAYER17
  6
CONTINUOUS
 62
     4
100
AcDbLine
 10
115.5224929999999
 20
193.811102
 30
0.0
 11
112.6247159999999
 21
193.0346449999999
 31
0.0
  0
ENDBLK
  5
DA
330
D2
100
AcDbEntity
  8
0
100
AcDbBlockEnd
  0
BLOCK
  5
DC
330
DB
100
AcDbEntity
  8
CSLAYER17
100
AcDbBlockBegin
  2
*D16
 70
     1
 10
0.0
 20
0.0
 30
0.0
  3
*D16
  1

  0
TEXT
  5
DD
330
DB
100
AcDbEntity
  8
CSLAYER17
 62
     4
100
AcDbText
 10
92.062927
 20
199.804935
 30
0.0
 40
3.2
  1
6.5
 50
90.0
 41
1.125000000000002
 51
15.0
  7
FX_FONT
 72
     5
 11
92.062927
 21
209.404935
 31
0.0
100
AcDbText
  0
LINE
  5
DE
330
DB
100
AcDbEntity
  8
CSLAYER17
  6
CONTINUOUS
 62
     4
100
AcDbLine
 10
86.96347499999999
 20
201.80728
 30
0.0
 11
86.96347499999999
 21
208.30728
 31
0.0
  0
LINE
  5
DF
330
DB
100
AcDbEntity
  8
CSLAYER17
  6
CONTINUOUS
 62
     4
100
AcDbLine
 10
77.27249300000001
 20
201.80728
 30
0.0
 11
87.96347500000001
 21
201.80728
 31
0.0
  0
LINE
  5
E0
330
DB
100
AcDbEntity
  8
CSLAYER17
  6
CONTINUOUS
 62
     4
100
AcDbLine
 10
77.27249300000001
 20
208.30728
 30
0.0
 11
87.96347500000001
 21
208.30728
 31
0.0
  0
LINE
  5
E1
330
DB
100
AcDbEntity
  8
CSLAYER17
  6
CONTINUOUS
 62
     4
100
AcDbLine
 10
86.96347499999999
 20
198.8072799999999
 30
0.0
 11
86.96347499999999
 21
201.80728
 31
0.0
  0
LINE
  5
E2
330
DB
100
AcDbEntity
  8
CSLAYER17
  6
CONTINUOUS
 62
     4
100
AcDbLine
 10
86.96347499999999
 20
201.80728
 30
0.0
 11
86.187017
 21
198.909503
 31
0.0
  0
LINE
  5
E3
330
DB
100
AcDbEntity
  8
CSLAYER17
  6
CONTINUOUS
 62
     4
100
AcDbLine
 10
86.96347499999999
 20
201.80728
 30
0.0
 11
87.73993199999999
 21
198.909503
 31
0.0
  0
LINE
  5
E4
330
DB
100
AcDbEntity
  8
CSLAYER17
  6
CONTINUOUS
 62
     4
100
AcDbLine
 10
86.96347499999999
 20
208.30728
 30
0.0
 11
86.96347499999999
 21
211.3072799999999
 31
0.0
  0
LINE
  5
E5
330
DB
100
AcDbEntity
  8
CSLAYER17
  6
CONTINUOUS
 62
     4
100
AcDbLine
 10
86.96347499999999
 20
208.30728
 30
0.0
 11
86.187017
 21
211.205057
 31
0.0
  0
LINE
  5
E6
330
DB
100
AcDbEntity
  8
CSLAYER17
  6
CONTINUOUS
 62
     4
100
AcDbLine
 10
86.96347499999999
 20
208.30728
 30
0.0
 11
87.73993199999999
 21
211.205057
 31
0.0
  0
ENDBLK
  5
E7
330
DB
100
AcDbEntity
  8
0
100
AcDbBlockEnd
  0
BLOCK
  5
E9
330
E8
100
AcDbEntity
  8
CSLAYER17
100
AcDbBlockBegin
  2
*D17
 70
     1
 10
0.0
 20
0.0
 30
0.0
  3
*D17
  1

  0
TEXT
  5
EA
330
E8
100
AcDbEntity
  8
CSLAYER17
 62
     4
100
AcDbText
 10
240.1769499999999
 20
262.962585
 30
0.0
 40
3.2
  1
28.5
 41
1.090909090909089
 51
15.0
  7
FX_FONT
 72
     5
 11
252.97695
 21
262.962585
 31
0.0
100
AcDbText
  0
LINE
  5
EB
330
E8
100
AcDbEntity
  8
CSLAYER17
  6
CONTINUOUS
 62
     4
100
AcDbLine
 10
232.3269529999999
 20
262.462589
 30
0.0
 11
260.826953
 21
262.462589
 31
0.0
  0
LINE
  5
EC
330
E8
100
AcDbEntity
  8
CSLAYER17
  6
CONTINUOUS
 62
     4
100
AcDbLine
 10
232.3269529999999
 20
262.462589
 30
0.0
 11
235.224731
 21
263.2390459999999
 31
0.0
  0
LINE
  5
ED
330
E8
100
AcDbEntity
  8
CSLAYER17
  6
CONTINUOUS
 62
     4
100
AcDbLine
 10
232.3269529999999
 20
262.462589
 30
0.0
 11
235.224731
 21
261.6861319999999
 31
0.0
  0
LINE
  5
EE
330
E8
100
AcDbEntity
  8
CSLAYER17
  6
CONTINUOUS
 62
     4
100
AcDbLine
 10
260.826953
 20
262.462589
 30
0.0
 11
257.9291759999999
 21
263.2390459999999
 31
0.0
  0
LINE
  5
EF
330
E8
100
AcDbEntity
  8
CSLAYER17
  6
CONTINUOUS
 62
     4
100
AcDbLine
 10
260.826953
 20
262.462589
 30
0.0
 11
257.9291759999999
 21
261.6861319999999
 31
0.0
  0
ENDBLK
  5
F0
330
E8
100
AcDbEntity
  8
0
100
AcDbBlockEnd
  0
BLOCK
  5
F2
330
F1
100
AcDbEntity
  8
CSLAYER17
100
AcDbBlockBegin
  2
*D18
 70
     1
 10
0.0
 20
0.0
 30
0.0
  3
*D18
  1

  0
TEXT
  5
F3
330
F1
100
AcDbEntity
  8
CSLAYER17
 62
     4
100
AcDbText
 10
227.72695
 20
262.962585
 30
0.0
 40
3.2
  1
6
 41
1.500000000000007
 51
15.0
  7
FX_FONT
 72
     5
 11
230.92695
 21
262.962585
 31
0.0
100
AcDbText
  0
LINE
  5
F4
330
F1
100
AcDbEntity
  8
CSLAYER17
  6
CONTINUOUS
 62
     4
100
AcDbLine
 10
226.3269529999999
 20
262.462589
 30
0.0
 11
232.3269529999999
 21
262.462589
 31
0.0
  0
LINE
  5
F5
330
F1
100
AcDbEntity
  8
CSLAYER17
  6
CONTINUOUS
 62
     4
100
AcDbLine
 10
232.3269529999999
 20
120.479463
 30
0.0
 11
232.3269529999999
 21
263.462589
 31
0.0
  0
ENDBLK
  5
F6
330
F1
100
AcDbEntity
  8
0
100
AcDbBlockEnd
  0
BLOCK
  5
F8
330
F7
100
AcDbEntity
  8
CSLAYER17
100
AcDbBlockBegin
  2
*D19
 70
     1
 10
0.0
 20
0.0
 30
0.0
  3
*D19
  1

  0
TEXT
  5
F9
330
F7
100
AcDbEntity
  8
CSLAYER17
 62
     4
100
AcDbText
 10
200.0269499999999
 20
268.962585
 30
0.0
 40
3.2
  1
114
 41
1.124999999999999
 51
15.0
  7
FX_FONT
 72
     5
 11
209.62695
 21
268.962585
 31
0.0
100
AcDbText
  0
LINE
  5
FA
330
F7
100
AcDbEntity
  8
CSLAYER17
  6
CONTINUOUS
 62
     4
100
AcDbLine
 10
147.826953
 20
268.462589
 30
0.0
 11
261.826953
 21
268.462589
 31
0.0
  0
LINE
  5
FB
330
F7
100
AcDbEntity
  8
CSLAYER17
  6
CONTINUOUS
 62
     4
100
AcDbLine
 10
147.826953
 20
268.462589
 30
0.0
 11
150.724731
 21
269.2390459999999
 31
0.0
  0
LINE
  5
FC
330
F7
100
AcDbEntity
  8
CSLAYER17
  6
CONTINUOUS
 62
     4
100
AcDbLine
 10
147.826953
 20
268.462589
 30
0.0
 11
150.724731
 21
267.6861319999999
 31
0.0
  0
LINE
  5
FD
330
F7
100
AcDbEntity
  8
CSLAYER17
  6
CONTINUOUS
 62
     4
100
AcDbLine
 10
261.826953
 20
268.462589
 30
0.0
 11
258.929176
 21
269.2390459999999
 31
0.0
  0
LINE
  5
FE
330
F7
100
AcDbEntity
  8
CSLAYER17
  6
CONTINUOUS
 62
     4
100
AcDbLine
 10
261.826953
 20
268.462589
 30
0.0
 11
258.929176
 21
267.6861319999999
 31
0.0
  0
LINE
  5
FF
330
F7
100
AcDbEntity
  8
CSLAYER17
  6
CONTINUOUS
 62
     4
100
AcDbLine
 10
147.826953
 20
210.4794629999999
 30
0.0
 11
147.826953
 21
269.462589
 31
0.0
  0
LINE
  5
100
330
F7
100
AcDbEntity
  8
CSLAYER17
  6
CONTINUOUS
 62
     4
100
AcDbLine
 10
261.826953
 20
120.479463
 30
0.0
 11
261.826953
 21
269.462589
 31
0.0
  0
ENDBLK
  5
101
330
F7
100
AcDbEntity
  8
0
100
AcDbBlockEnd
  0
BLOCK
  5
103
330
102
100
AcDbEntity
  8
CSLAYER17
100
AcDbBlockBegin
  2
*D20
 70
     1
 10
0.0
 20
0.0
 30
0.0
  3
*D20
  1

  0
TEXT
  5
104
330
102
100
AcDbEntity
  8
CSLAYER17
 62
     4
100
AcDbText
 10
172.6269499999999
 20
262.962585
 30
0.0
 40
3.2
  1
56
 41
1.200000000000001
 51
15.0
  7
FX_FONT
 72
     5
 11
179.0269499999999
 21
262.962585
 31
0.0
100
AcDbText
  0
LINE
  5
105
330
102
100
AcDbEntity
  8
CSLAYER17
  6
CONTINUOUS
 62
     4
100
AcDbLine
 10
147.826953
 20
262.462589
 30
0.0
 11
203.8269529999999
 21
262.462589
 31
0.0
  0
LINE
  5
106
330
102
100
AcDbEntity
  8
CSLAYER17
  6
CONTINUOUS
 62
     4
100
AcDbLine
 10
147.826953
 20
262.462589
 30
0.0
 11
150.724731
 21
263.2390459999999
 31
0.0
  0
LINE
  5
107
330
102
100
AcDbEntity
  8
CSLAYER17
  6
CONTINUOUS
 62
     4
100
AcDbLine
 10
147.826953
 20
262.462589
 30
0.0
 11
150.724731
 21
261.6861319999999
 31
0.0
  0
LINE
  5
108
330
102
100
AcDbEntity
  8
CSLAYER17
  6
CONTINUOUS
 62
     4
100
AcDbLine
 10
203.8269529999999
 20
262.462589
 30
0.0
 11
200.9291759999999
 21
263.2390459999999
 31
0.0
  0
LINE
  5
109
330
102
100
AcDbEntity
  8
CSLAYER17
  6
CONTINUOUS
 62
     4
100
AcDbLine
 10
203.8269529999999
 20
262.462589
 30
0.0
 11
200.9291759999999
 21
261.6861319999999
 31
0.0
  0
LINE
  5
10A
330
102
100
AcDbEntity
  8
CSLAYER17
  6
CONTINUOUS
 62
     4
100
AcDbLine
 10
203.8269529999999
 20
210.4794629999999
 30
0.0
 11
203.8269529999999
 21
263.462589
 31
0.0
  0
ENDBLK
  5
10B
330
102
100
AcDbEntity
  8
0
100
AcDbBlockEnd
  0
BLOCK
  5
10D
330
10C
100
AcDbEntity
  8
CSLAYER17
100
AcDbBlockBegin
  2
*D21
 70
     1
 10
0.0
 20
0.0
 30
0.0
  3
*D21
  1

  0
TEXT
  5
10E
330
10C
100
AcDbEntity
  8
CSLAYER17
 62
     4
100
AcDbText
 10
205.2269499999999
 20
262.962585
 30
0.0
 40
3.2
  1
6
 41
1.500000000000007
 51
15.0
  7
FX_FONT
 72
     5
 11
208.4269499999999
 21
262.962585
 31
0.0
100
AcDbText
  0
LINE
  5
10F
330
10C
100
AcDbEntity
  8
CSLAYER17
  6
CONTINUOUS
 62
     4
100
AcDbLine
 10
203.8269529999999
 20
262.462589
 30
0.0
 11
209.8269529999999
 21
262.462589
 31
0.0
  0
LINE
  5
110
330
10C
100
AcDbEntity
  8
CSLAYER17
  6
CONTINUOUS
 62
     4
100
AcDbLine
 10
209.8269529999999
 20
182.4794629999999
 30
0.0
 11
209.8269529999999
 21
263.462589
 31
0.0
  0
ENDBLK
  5
111
330
10C
100
AcDbEntity
  8
0
100
AcDbBlockEnd
  0
BLOCK
  5
113
330
112
100
AcDbEntity
  8
CSLAYER17
100
AcDbBlockBegin
  2
*D22
 70
     1
 10
0.0
 20
0.0
 30
0.0
  3
*D22
  1

  0
TEXT
  5
114
330
112
100
AcDbEntity
  8
CSLAYER17
 62
     4
100
AcDbText
 10
211.67695
 20
262.962585
 30
0.0
 40
3.2
  1
16.5
 41
1.090909090909089
 51
15.0
  7
FX_FONT
 72
     5
 11
224.4769499999999
 21
262.962585
 31
0.0
100
AcDbText
  0
LINE
  5
115
330
112
100
AcDbEntity
  8
CSLAYER17
  6
CONTINUOUS
 62
     4
100
AcDbLine
 10
209.8269529999999
 20
262.462589
 30
0.0
 11
226.3269529999999
 21
262.462589
 31
0.0
  0
LINE
  5
116
330
112
100
AcDbEntity
  8
CSLAYER17
  6
CONTINUOUS
 62
     4
100
AcDbLine
 10
209.8269529999999
 20
262.462589
 30
0.0
 11
212.724731
 21
263.2390459999999
 31
0.0
  0
LINE
  5
117
330
112
100
AcDbEntity
  8
CSLAYER17
  6
CONTINUOUS
 62
     4
100
AcDbLine
 10
209.8269529999999
 20
262.462589
 30
0.0
 11
212.724731
 21
261.6861319999999
 31
0.0
  0
LINE
  5
118
330
112
100
AcDbEntity
  8
CSLAYER17
  6
CONTINUOUS
 62
     4
100
AcDbLine
 10
226.3269529999999
 20
262.462589
 30
0.0
 11
223.429176
 21
263.2390459999999
 31
0.0
  0
LINE
  5
119
330
112
100
AcDbEntity
  8
CSLAYER17
  6
CONTINUOUS
 62
     4
100
AcDbLine
 10
226.3269529999999
 20
262.462589
 30
0.0
 11
223.429176
 21
261.6861319999999
 31
0.0
  0
LINE
  5
11A
330
112
100
AcDbEntity
  8
CSLAYER17
  6
CONTINUOUS
 62
     4
100
AcDbLine
 10
226.3269529999999
 20
117.479463
 30
0.0
 11
226.3269529999999
 21
263.462589
 31
0.0
  0
ENDBLK
  5
11B
330
112
100
AcDbEntity
  8
0
100
AcDbBlockEnd
  0
BLOCK
  5
11D
330
11C
100
AcDbEntity
  8
CSLAYER17
100
AcDbBlockBegin
  2
*D23
 70
     1
 10
0.0
 20
0.0
 30
0.0
  3
*D23
  1

  0
TEXT
  5
11E
330
11C
100
AcDbEntity
  8
CSLAYER17
 62
     4
100
AcDbText
 10
172.6269499999999
 20
256.9625849999999
 30
0.0
 40
3.2
  1
36
 41
1.200000000000001
 51
15.0
  7
FX_FONT
 72
     5
 11
179.0269499999999
 21
256.9625849999999
 31
0.0
100
AcDbText
  0
LINE
  5
11F
330
11C
100
AcDbEntity
  8
CSLAYER17
  6
CONTINUOUS
 62
     4
100
AcDbLine
 10
157.826953
 20
256.462589
 30
0.0
 11
193.826953
 21
256.462589
 31
0.0
  0
LINE
  5
120
330
11C
100
AcDbEntity
  8
CSLAYER17
  6
CONTINUOUS
 62
     4
100
AcDbLine
 10
157.826953
 20
256.462589
 30
0.0
 11
160.724731
 21
257.2390459999999
 31
0.0
  0
LINE
  5
121
330
11C
100
AcDbEntity
  8
CSLAYER17
  6
CONTINUOUS
 62
     4
100
AcDbLine
 10
157.826953
 20
256.462589
 30
0.0
 11
160.724731
 21
255.6861319999999
 31
0.0
  0
LINE
  5
122
330
11C
100
AcDbEntity
  8
CSLAYER17
  6
CONTINUOUS
 62
     4
100
AcDbLine
 10
193.826953
 20
256.462589
 30
0.0
 11
190.929176
 21
257.2390459999999
 31
0.0
  0
LINE
  5
123
330
11C
100
AcDbEntity
  8
CSLAYER17
  6
CONTINUOUS
 62
     4
100
AcDbLine
 10
193.826953
 20
256.462589
 30
0.0
 11
190.929176
 21
255.6861319999999
 31
0.0
  0
LINE
  5
124
330
11C
100
AcDbEntity
  8
CSLAYER17
  6
CONTINUOUS
 62
     4
100
AcDbLine
 10
157.826953
 20
245.4794629999999
 30
0.0
 11
157.826953
 21
257.462589
 31
0.0
  0
LINE
  5
125
330
11C
100
AcDbEntity
  8
CSLAYER17
  6
CONTINUOUS
 62
     4
100
AcDbLine
 10
193.826953
 20
245.4794629999999
 30
0.0
 11
193.826953
 21
257.462589
 31
0.0
  0
ENDBLK
  5
126
330
11C
100
AcDbEntity
  8
0
100
AcDbBlockEnd
  0
BLOCK
  5
128
330
127
100
AcDbEntity
  8
CSLAYER17
100
AcDbBlockBegin
  2
*D24
 70
     1
 10
0.0
 20
0.0
 30
0.0
  3
*D24
  1

  0
TEXT
  5
129
330
127
100
AcDbEntity
  8
CSLAYER17
 62
     4
100
AcDbText
 10
172.6269499999999
 20
250.962585
 30
0.0
 40
3.2
  1
17
 41
1.200000000000001
 51
15.0
  7
FX_FONT
 72
     5
 11
179.0269499999999
 21
250.962585
 31
0.0
100
AcDbText
  0
LINE
  5
12A
330
127
100
AcDbEntity
  8
CSLAYER17
  6
CONTINUOUS
 62
     4
100
AcDbLine
 10
167.3269529999999
 20
250.462589
 30
0.0
 11
184.326953
 21
250.462589
 31
0.0
  0
LINE
  5
12B
330
127
100
AcDbEntity
  8
CSLAYER17
  6
CONTINUOUS
 62
     4
100
AcDbLine
 10
167.3269529999999
 20
250.462589
 30
0.0
 11
170.224731
 21
251.239046
 31
0.0
  0
LINE
  5
12C
330
127
100
AcDbEntity
  8
CSLAYER17
  6
CONTINUOUS
 62
     4
100
AcDbLine
 10
167.3269529999999
 20
250.462589
 30
0.0
 11
170.224731
 21
249.6861319999999
 31
0.0
  0
LINE
  5
12D
330
127
100
AcDbEntity
  8
CSLAYER17
  6
CONTINUOUS
 62
     4
100
AcDbLine
 10
184.326953
 20
250.462589
 30
0.0
 11
181.429176
 21
251.239046
 31
0.0
  0
LINE
  5
12E
330
127
100
AcDbEntity
  8
CSLAYER17
  6
CONTINUOUS
 62
     4
100
AcDbLine
 10
184.326953
 20
250.462589
 30
0.0
 11
181.429176
 21
249.6861319999999
 31
0.0
  0
LINE
  5
12F
330
127
100
AcDbEntity
  8
CSLAYER17
  6
CONTINUOUS
 62
     4
100
AcDbLine
 10
167.3269529999999
 20
245.4794629999999
 30
0.0
 11
167.3269529999999
 21
251.462589
 31
0.0
  0
LINE
  5
130
330
127
100
AcDbEntity
  8
CSLAYER17
  6
CONTINUOUS
 62
     4
100
AcDbLine
 10
184.326953
 20
245.4794629999999
 30
0.0
 11
184.326953
 21
251.462589
 31
0.0
  0
ENDBLK
  5
131
330
127
100
AcDbEntity
  8
0
100
AcDbBlockEnd
  0
BLOCK
  5
133
330
132
100
AcDbEntity
  8
CSLAYER1
100
AcDbBlockBegin
  2
FXDIM0002
 70
     0
 10
0.0
 20
0.0
 30
0.0
  3
FXDIM0002
  1

  0
LINE
  5
134
330
132
100
AcDbEntity
  8
CSLAYER1
  6
CONTINUOUS
 62
     4
100
AcDbLine
 10
242.2307219999999
 20
99.14854
 30
0.0
 11
251.9322869999999
 21
74.127081
 31
0.0
  0
LINE
  5
135
330
132
100
AcDbEntity
  8
CSLAYER1
  6
CONTINUOUS
 62
     4
100
AcDbLine
 10
242.2307219999999
 20
99.14854
 30
0.0
 11
244.002234
 21
96.72743699999999
 31
0.0
  0
LINE
  5
136
330
132
100
AcDbEntity
  8
CSLAYER1
  6
CONTINUOUS
 62
     4
100
AcDbLine
 10
242.2307219999999
 20
99.14854
 30
0.0
 11
242.554345
 21
96.16604699999999
 31
0.0
  0
LINE
  5
137
330
132
100
AcDbEntity
  8
CSLAYER1
  6
CONTINUOUS
 62
     4
100
AcDbLine
 10
251.9322869999999
 20
74.127081
 30
0.0
 11
273.132287
 21
74.127081
 31
0.0
  0
TEXT
  5
138
330
132
100
AcDbEntity
  8
CSLAYER1
 62
     4
100
AcDbText
 10
252.932318
 20
74.62706
 30
0.0
 40
3.2
  1
M5X0.8
 41
1.058823529411763
 51
15.0
  7
FX_FONT
 72
     5
 11
272.132318
 21
74.62706
 31
0.0
100
AcDbText
  0
ENDBLK
  5
139
330
132
100
AcDbEntity
  8
0
100
AcDbBlockEnd
  0
BLOCK
  5
13B
330
13A
100
AcDbEntity
  8
CSLAYER17
100
AcDbBlockBegin
  2
*D26
 70
     1
 10
0.0
 20
0.0
 30
0.0
  3
*D26
  1

  0
TEXT
  5
13C
330
13A
100
AcDbEntity
  8
CSLAYER17
 62
     4
100
AcDbText
 10
134.9779239999999
 20
38.011429
 30
0.0
 40
3.2
  1
9.5
 41
1.124999999999999
 51
15.0
  7
FX_FONT
 72
     5
 11
144.577924
 21
38.011429
 31
0.0
100
AcDbText
  0
LINE
  5
13D
330
13A
100
AcDbEntity
  8
CSLAYER17
  6
CONTINUOUS
 62
     4
100
AcDbLine
 10
147.826953
 20
37.349269
 30
0.0
 11
157.326953
 21
37.349269
 31
0.0
  0
LINE
  5
13E
330
13A
100
AcDbEntity
  8
CSLAYER17
  6
CONTINUOUS
 62
     4
100
AcDbLine
 10
147.826953
 20
88.479463
 30
0.0
 11
147.826953
 21
36.34926899999999
 31
0.0
  0
LINE
  5
13F
330
13A
100
AcDbEntity
  8
CSLAYER17
  6
CONTINUOUS
 62
     4
100
AcDbLine
 10
157.326953
 20
43.479463
 30
0.0
 11
157.326953
 21
36.34926899999999
 31
0.0
  0
LINE
  5
140
330
13A
100
AcDbEntity
  8
CSLAYER17
  6
CONTINUOUS
 62
     4
100
AcDbLine
 10
144.826953
 20
37.349269
 30
0.0
 11
147.826953
 21
37.349269
 31
0.0
  0
LINE
  5
141
330
13A
100
AcDbEntity
  8
CSLAYER17
  6
CONTINUOUS
 62
     4
100
AcDbLine
 10
147.826953
 20
37.349269
 30
0.0
 11
144.929176
 21
38.125726
 31
0.0
  0
LINE
  5
142
330
13A
100
AcDbEntity
  8
CSLAYER17
  6
CONTINUOUS
 62
     4
100
AcDbLine
 10
147.826953
 20
37.349269
 30
0.0
 11
144.929176
 21
36.572811
 31
0.0
  0
LINE
  5
143
330
13A
100
AcDbEntity
  8
CSLAYER17
  6
CONTINUOUS
 62
     4
100
AcDbLine
 10
157.326953
 20
37.349269
 30
0.0
 11
160.326953
 21
37.349269
 31
0.0
  0
LINE
  5
144
330
13A
100
AcDbEntity
  8
CSLAYER17
  6
CONTINUOUS
 62
     4
100
AcDbLine
 10
157.326953
 20
37.349269
 30
0.0
 11
160.224731
 21
38.125726
 31
0.0
  0
LINE
  5
145
330
13A
100
AcDbEntity
  8
CSLAYER17
  6
CONTINUOUS
 62
     4
100
AcDbLine
 10
157.326953
 20
37.349269
 30
0.0
 11
160.224731
 21
36.572811
 31
0.0
  0
ENDBLK
  5
146
330
13A
100
AcDbEntity
  8
0
100
AcDbBlockEnd
  0
BLOCK
  5
148
330
147
100
AcDbEntity
  8
CSLAYER1
100
AcDbBlockBegin
  2
BLKF0000
 70
     0
 10
0.0
 20
0.0
 30
0.0
  3
BLKF0000
  1

  0
LINE
  5
149
330
147
100
AcDbEntity
  8
CSLAYER17
  6
CENTER
 62
     4
100
AcDbLine
 10
325.853764
 20
114.229463
 30
0.0
 11
336.515589
 21
114.229463
 31
0.0
  0
LINE
  5
14A
330
147
100
AcDbEntity
  8
CSLAYER17
  6
CENTER
 62
     4
100
AcDbLine
 10
331.353764
 20
119.729463
 30
0.0
 11
331.353764
 21
108.7294629999999
 31
0.0
  0
LINE
  5
14B
330
147
100
AcDbEntity
  8
CSLAYER17
  6
CONTINUOUS
 62
     3
100
AcDbLine
 10
329.0443629999999
 20
114.229463
 30
0.0
 11
330.1990629999999
 21
112.229463
 31
0.0
  0
LINE
  5
14C
330
147
100
AcDbEntity
  8
CSLAYER17
  6
CONTINUOUS
 62
     3
100
AcDbLine
 10
330.1990629999999
 20
112.229463
 30
0.0
 11
332.508464
 21
112.229463
 31
0.0
  0
LINE
  5
14D
330
147
100
AcDbEntity
  8
CSLAYER17
  6
CONTINUOUS
 62
     3
100
AcDbLine
 10
332.508464
 20
112.229463
 30
0.0
 11
333.663165
 21
114.229463
 31
0.0
  0
LINE
  5
14E
330
147
100
AcDbEntity
  8
CSLAYER17
  6
CONTINUOUS
 62
     3
100
AcDbLine
 10
333.663165
 20
114.229463
 30
0.0
 11
332.508464
 21
116.2294629999999
 31
0.0
  0
LINE
  5
14F
330
147
100
AcDbEntity
  8
CSLAYER17
  6
CONTINUOUS
 62
     3
100
AcDbLine
 10
332.508464
 20
116.2294629999999
 30
0.0
 11
330.1990629999999
 21
116.2294629999999
 31
0.0
  0
LINE
  5
150
330
147
100
AcDbEntity
  8
CSLAYER17
  6
CONTINUOUS
 62
     3
100
AcDbLine
 10
330.1990629999999
 20
116.2294629999999
 30
0.0
 11
329.0443629999999
 21
114.229463
 31
0.0
  0
CIRCLE
  5
151
330
147
100
AcDbEntity
  8
CSLAYER17
  6
CONTINUOUS
 62
     3
100
AcDbCircle
 10
331.353764
 20
114.229463
 30
0.0
 40
4.25
  0
CIRCLE
  5
152
330
147
100
AcDbEntity
  8
CSLAYER17
  6
CONTINUOUS
 62
     3
100
AcDbCircle
 10
331.353764
 20
114.229463
 30
0.0
 40
3.75
  0
LINE
  5
153
330
147
100
AcDbEntity
  8
CSLAYER17
  6
CENTER
 62
     4
100
AcDbLine
 10
336.603764
 20
114.229463
 30
0.0
 11
336.8537639999999
 21
114.229463
 31
0.0
  0
ENDBLK
  5
154
330
147
100
AcDbEntity
  8
0
100
AcDbBlockEnd
  0
BLOCK
  5
156
330
155
100
AcDbEntity
  8
CSLAYER1
100
AcDbBlockBegin
  2
BLKF0001
 70
     0
 10
0.0
 20
0.0
 30
0.0
  3
BLKF0001
  1

  0
LINE
  5
157
330
155
100
AcDbEntity
  8
CSLAYER17
  6
CENTER
 62
     4
100
AcDbLine
 10
311.353764
 20
114.229463
 30
0.0
 11
300.353764
 21
114.229463
 31
0.0
  0
LINE
  5
158
330
155
100
AcDbEntity
  8
CSLAYER17
  6
CENTER
 62
     4
100
AcDbLine
 10
305.853764
 20
119.729463
 30
0.0
 11
305.853764
 21
108.7294629999999
 31
0.0
  0
LINE
  5
159
330
155
100
AcDbEntity
  8
CSLAYER17
  6
CONTINUOUS
 62
     3
100
AcDbLine
 10
308.1631649999999
 20
114.229463
 30
0.0
 11
307.008464
 21
112.229463
 31
0.0
  0
LINE
  5
15A
330
155
100
AcDbEntity
  8
CSLAYER17
  6
CONTINUOUS
 62
     3
100
AcDbLine
 10
307.008464
 20
112.229463
 30
0.0
 11
304.6990629999999
 21
112.229463
 31
0.0
  0
LINE
  5
15B
330
155
100
AcDbEntity
  8
CSLAYER17
  6
CONTINUOUS
 62
     3
100
AcDbLine
 10
304.6990629999999
 20
112.229463
 30
0.0
 11
303.5443629999999
 21
114.229463
 31
0.0
  0
LINE
  5
15C
330
155
100
AcDbEntity
  8
CSLAYER17
  6
CONTINUOUS
 62
     3
100
AcDbLine
 10
303.5443629999999
 20
114.229463
 30
0.0
 11
304.6990629999999
 21
116.2294629999999
 31
0.0
  0
LINE
  5
15D
330
155
100
AcDbEntity
  8
CSLAYER17
  6
CONTINUOUS
 62
     3
100
AcDbLine
 10
304.6990629999999
 20
116.2294629999999
 30
0.0
 11
307.008464
 21
116.2294629999999
 31
0.0
  0
LINE
  5
15E
330
155
100
AcDbEntity
  8
CSLAYER17
  6
CONTINUOUS
 62
     3
100
AcDbLine
 10
307.008464
 20
116.2294629999999
 30
0.0
 11
308.1631649999999
 21
114.229463
 31
0.0
  0
CIRCLE
  5
15F
330
155
100
AcDbEntity
  8
CSLAYER17
  6
CONTINUOUS
 62
     3
100
AcDbCircle
 10
305.853764
 20
114.229463
 30
0.0
 40
4.25
  0
CIRCLE
  5
160
330
155
100
AcDbEntity
  8
CSLAYER17
  6
CONTINUOUS
 62
     3
100
AcDbCircle
 10
305.853764
 20
114.229463
 30
0.0
 40
3.75
  0
ENDBLK
  5
161
330
155
100
AcDbEntity
  8
0
100
AcDbBlockEnd
  0
BLOCK
  5
163
330
162
100
AcDbEntity
  8
CSLAYER1
100
AcDbBlockBegin
  2
BLKF0002
 70
     0
 10
0.0
 20
0.0
 30
0.0
  3
BLKF0002
  1

  0
LINE
  5
164
330
162
100
AcDbEntity
  8
CSLAYER17
  6
CENTER
 62
     4
100
AcDbLine
 10
325.853764
 20
88.729463
 30
0.0
 11
336.8537639999999
 21
88.729463
 31
0.0
  0
LINE
  5
165
330
162
100
AcDbEntity
  8
CSLAYER17
  6
CENTER
 62
     4
100
AcDbLine
 10
331.353764
 20
83.22946299999999
 30
0.0
 11
331.353764
 21
94.22946299999999
 31
0.0
  0
LINE
  5
166
330
162
100
AcDbEntity
  8
CSLAYER17
  6
CONTINUOUS
 62
     3
100
AcDbLine
 10
329.0443629999999
 20
88.729463
 30
0.0
 11
330.1990629999999
 21
90.72946299999999
 31
0.0
  0
LINE
  5
167
330
162
100
AcDbEntity
  8
CSLAYER17
  6
CONTINUOUS
 62
     3
100
AcDbLine
 10
330.1990629999999
 20
90.72946299999999
 30
0.0
 11
332.508464
 21
90.72946299999999
 31
0.0
  0
LINE
  5
168
330
162
100
AcDbEntity
  8
CSLAYER17
  6
CONTINUOUS
 62
     3
100
AcDbLine
 10
332.508464
 20
90.72946299999999
 30
0.0
 11
333.663165
 21
88.729463
 31
0.0
  0
LINE
  5
169
330
162
100
AcDbEntity
  8
CSLAYER17
  6
CONTINUOUS
 62
     3
100
AcDbLine
 10
333.663165
 20
88.729463
 30
0.0
 11
332.508464
 21
86.72946299999999
 31
0.0
  0
LINE
  5
16A
330
162
100
AcDbEntity
  8
CSLAYER17
  6
CONTINUOUS
 62
     3
100
AcDbLine
 10
332.508464
 20
86.72946299999999
 30
0.0
 11
330.1990629999999
 21
86.72946299999999
 31
0.0
  0
LINE
  5
16B
330
162
100
AcDbEntity
  8
CSLAYER17
  6
CONTINUOUS
 62
     3
100
AcDbLine
 10
330.1990629999999
 20
86.72946299999999
 30
0.0
 11
329.0443629999999
 21
88.729463
 31
0.0
  0
CIRCLE
  5
16C
330
162
100
AcDbEntity
  8
CSLAYER17
  6
CONTINUOUS
 62
     3
100
AcDbCircle
 10
331.353764
 20
88.729463
 30
0.0
 40
4.25
  0
CIRCLE
  5
16D
330
162
100
AcDbEntity
  8
CSLAYER17
  6
CONTINUOUS
 62
     3
100
AcDbCircle
 10
331.353764
 20
88.729463
 30
0.0
 40
3.75
  0
ENDBLK
  5
16E
330
162
100
AcDbEntity
  8
0
100
AcDbBlockEnd
  0
BLOCK
  5
170
330
16F
100
AcDbEntity
  8
CSLAYER1
100
AcDbBlockBegin
  2
BLKF0003
 70
     0
 10
0.0
 20
0.0
 30
0.0
  3
BLKF0003
  1

  0
LINE
  5
171
330
16F
100
AcDbEntity
  8
CSLAYER17
  6
CENTER
 62
     4
100
AcDbLine
 10
311.353764
 20
88.729463
 30
0.0
 11
300.353764
 21
88.729463
 31
0.0
  0
LINE
  5
172
330
16F
100
AcDbEntity
  8
CSLAYER17
  6
CENTER
 62
     4
100
AcDbLine
 10
305.853764
 20
83.22946299999999
 30
0.0
 11
305.853764
 21
94.22946299999999
 31
0.0
  0
LINE
  5
173
330
16F
100
AcDbEntity
  8
CSLAYER17
  6
CONTINUOUS
 62
     3
100
AcDbLine
 10
308.1631649999999
 20
88.729463
 30
0.0
 11
307.008464
 21
90.72946299999999
 31
0.0
  0
LINE
  5
174
330
16F
100
AcDbEntity
  8
CSLAYER17
  6
CONTINUOUS
 62
     3
100
AcDbLine
 10
307.008464
 20
90.72946299999999
 30
0.0
 11
304.6990629999999
 21
90.72946299999999
 31
0.0
  0
LINE
  5
175
330
16F
100
AcDbEntity
  8
CSLAYER17
  6
CONTINUOUS
 62
     3
100
AcDbLine
 10
304.6990629999999
 20
90.72946299999999
 30
0.0
 11
303.5443629999999
 21
88.729463
 31
0.0
  0
LINE
  5
176
330
16F
100
AcDbEntity
  8
CSLAYER17
  6
CONTINUOUS
 62
     3
100
AcDbLine
 10
303.5443629999999
 20
88.729463
 30
0.0
 11
304.6990629999999
 21
86.72946299999999
 31
0.0
  0
LINE
  5
177
330
16F
100
AcDbEntity
  8
CSLAYER17
  6
CONTINUOUS
 62
     3
100
AcDbLine
 10
304.6990629999999
 20
86.72946299999999
 30
0.0
 11
307.008464
 21
86.72946299999999
 31
0.0
  0
LINE
  5
178
330
16F
100
AcDbEntity
  8
CSLAYER17
  6
CONTINUOUS
 62
     3
100
AcDbLine
 10
307.008464
 20
86.72946299999999
 30
0.0
 11
308.1631649999999
 21
88.729463
 31
0.0
  0
CIRCLE
  5
179
330
16F
100
AcDbEntity
  8
CSLAYER17
  6
CONTINUOUS
 62
     3
100
AcDbCircle
 10
305.853764
 20
88.729463
 30
0.0
 40
4.25
  0
CIRCLE
  5
17A
330
16F
100
AcDbEntity
  8
CSLAYER17
  6
CONTINUOUS
 62
     3
100
AcDbCircle
 10
305.853764
 20
88.729463
 30
0.0
 40
3.75
  0
ENDBLK
  5
17B
330
16F
100
AcDbEntity
  8
0
100
AcDbBlockEnd
  0
ENDSEC
  0
SECTION
  2
ENTITIES
  0
LINE
  5
17C
330
1E
100
AcDbEntity
  8
CSLAYER1
  6
CONTINUOUS
 62
     3
100
AcDbLine
 10
360.603764
 20
44.479463
 30
0.0
 11
360.603764
 21
105.4794629999999
 31
0.0
  0
LINE
  5
17D
330
1E
100
AcDbEntity
  8
CSLAYER1
  6
CONTINUOUS
 62
     3
100
AcDbLine
 10
276.6037639999999
 20
105.4794629999999
 30
0.0
 11
276.6037639999999
 21
44.479463
 31
0.0
  0
LINE
  5
17E
330
1E
100
AcDbEntity
  8
CSLAYER1
  6
CONTINUOUS
 62
     3
100
AcDbLine
 10
313.103764
 20
68.726687
 30
0.0
 11
313.103764
 21
76.23224
 31
0.0
  0
LINE
  5
17F
330
1E
100
AcDbEntity
  8
CSLAYER1
  6
CONTINUOUS
 62
     3
100
AcDbLine
 10
313.103764
 20
76.23224
 30
0.0
 11
306.603764
 21
79.985017
 31
0.0
  0
LINE
  5
180
330
1E
100
AcDbEntity
  8
CSLAYER1
  6
CONTINUOUS
 62
     3
100
AcDbLine
 10
306.603764
 20
79.985017
 30
0.0
 11
300.103764
 21
76.23224
 31
0.0
  0
LINE
  5
181
330
1E
100
AcDbEntity
  8
CSLAYER1
  6
CONTINUOUS
 62
     3
100
AcDbLine
 10
300.103764
 20
76.23224
 30
0.0
 11
300.103764
 21
68.726687
 31
0.0
  0
LINE
  5
182
330
1E
100
AcDbEntity
  8
CSLAYER1
  6
CONTINUOUS
 62
     3
100
AcDbLine
 10
300.103764
 20
68.726687
 30
0.0
 11
306.603764
 21
64.97391
 31
0.0
  0
LINE
  5
183
330
1E
100
AcDbEntity
  8
CSLAYER1
  6
CONTINUOUS
 62
     3
100
AcDbLine
 10
306.603764
 20
64.97391
 30
0.0
 11
313.103764
 21
68.726687
 31
0.0
  0
LINE
  5
184
330
1E
100
AcDbEntity
  8
CSLAYER1
  6
CONTINUOUS
 62
     3
100
AcDbLine
 10
308.603764
 20
71.324763
 30
0.0
 11
308.603764
 21
73.634164
 31
0.0
  0
LINE
  5
185
330
1E
100
AcDbEntity
  8
CSLAYER1
  6
CONTINUOUS
 62
     3
100
AcDbLine
 10
308.603764
 20
73.634164
 30
0.0
 11
306.603764
 21
74.788865
 31
0.0
  0
LINE
  5
186
330
1E
100
AcDbEntity
  8
CSLAYER1
  6
CONTINUOUS
 62
     3
100
AcDbLine
 10
306.603764
 20
74.788865
 30
0.0
 11
304.603764
 21
73.634164
 31
0.0
  0
LINE
  5
187
330
1E
100
AcDbEntity
  8
CSLAYER1
  6
CONTINUOUS
 62
     3
100
AcDbLine
 10
304.603764
 20
73.634164
 30
0.0
 11
304.603764
 21
71.324763
 31
0.0
  0
LINE
  5
188
330
1E
100
AcDbEntity
  8
CSLAYER1
  6
CONTINUOUS
 62
     3
100
AcDbLine
 10
304.603764
 20
71.324763
 30
0.0
 11
306.603764
 21
70.170062
 31
0.0
  0
LINE
  5
189
330
1E
100
AcDbEntity
  8
CSLAYER1
  6
CONTINUOUS
 62
     3
100
AcDbLine
 10
306.603764
 20
70.170062
 30
0.0
 11
308.603764
 21
71.324763
 31
0.0
  0
CIRCLE
  5
18A
330
1E
100
AcDbEntity
  8
CSLAYER1
  6
CONTINUOUS
 62
     3
100
AcDbCircle
 10
306.603764
 20
72.47946299999999
 30
0.0
 40
6.5
  0
CIRCLE
  5
18B
330
1E
100
AcDbEntity
  8
CSLAYER1
  6
CONTINUOUS
 62
     3
100
AcDbCircle
 10
306.603764
 20
72.47946299999999
 30
0.0
 40
4.0
  0
LINE
  5
18C
330
1E
100
AcDbEntity
  8
CSLAYER1
  6
CONTINUOUS
 62
     3
100
AcDbLine
 10
335.617679
 20
72.47946299999999
 30
0.0
 11
336.610721
 21
70.759463
 31
0.0
  0
LINE
  5
18D
330
1E
100
AcDbEntity
  8
CSLAYER1
  6
CONTINUOUS
 62
     3
100
AcDbLine
 10
336.610721
 20
70.759463
 30
0.0
 11
338.596806
 21
70.759463
 31
0.0
  0
LINE
  5
18E
330
1E
100
AcDbEntity
  8
CSLAYER1
  6
CONTINUOUS
 62
     3
100
AcDbLine
 10
338.596806
 20
70.759463
 30
0.0
 11
339.589849
 21
72.47946299999999
 31
0.0
  0
LINE
  5
18F
330
1E
100
AcDbEntity
  8
CSLAYER1
  6
CONTINUOUS
 62
     3
100
AcDbLine
 10
339.589849
 20
72.47946299999999
 30
0.0
 11
338.596806
 21
74.19946299999999
 31
0.0
  0
LINE
  5
190
330
1E
100
AcDbEntity
  8
CSLAYER1
  6
CONTINUOUS
 62
     3
100
AcDbLine
 10
338.596806
 20
74.19946299999999
 30
0.0
 11
336.610721
 21
74.19946299999999
 31
0.0
  0
LINE
  5
191
330
1E
100
AcDbEntity
  8
CSLAYER1
  6
CONTINUOUS
 62
     3
100
AcDbLine
 10
336.610721
 20
74.19946299999999
 30
0.0
 11
335.617679
 21
72.47946299999999
 31
0.0
  0
CIRCLE
  5
192
330
1E
100
AcDbEntity
  8
CSLAYER1
  6
CONTINUOUS
 62
     3
100
AcDbCircle
 10
337.603764
 20
72.47946299999999
 30
0.0
 40
4.5
  0
CIRCLE
  5
193
330
1E
100
AcDbEntity
  8
CSLAYER1
  6
CONTINUOUS
 62
     3
100
AcDbCircle
 10
337.603764
 20
72.47946299999999
 30
0.0
 40
5.0
  0
LINE
  5
194
330
1E
100
AcDbEntity
  8
CSLAYER1
  6
CONTINUOUS
 62
     3
100
AcDbLine
 10
346.603764
 20
119.479463
 30
0.0
 11
346.603764
 21
208.4794629999999
 31
0.0
  0
LINE
  5
195
330
1E
100
AcDbEntity
  8
CSLAYER1
  6
CONTINUOUS
 62
     3
100
AcDbLine
 10
346.603764
 20
208.4794629999999
 30
0.0
 11
332.603764
 21
243.4794629999999
 31
0.0
  0
LINE
  5
196
330
1E
100
AcDbEntity
  8
CSLAYER1
  6
CONTINUOUS
 62
     3
100
AcDbLine
 10
332.603764
 20
243.4794629999999
 30
0.0
 11
304.603764
 21
243.4794629999999
 31
0.0
  0
LINE
  5
197
330
1E
100
AcDbEntity
  8
CSLAYER1
  6
CONTINUOUS
 62
     3
100
AcDbLine
 10
304.603764
 20
243.4794629999999
 30
0.0
 11
290.603764
 21
208.4794629999999
 31
0.0
  0
LINE
  5
198
330
1E
100
AcDbEntity
  8
CSLAYER1
  6
CONTINUOUS
 62
     3
100
AcDbLine
 10
290.603764
 20
208.4794629999999
 30
0.0
 11
290.603764
 21
119.479463
 31
0.0
  0
LINE
  5
199
330
1E
100
AcDbEntity
  8
CSLAYER1
  6
CONTINUOUS
 62
     3
100
AcDbLine
 10
295.603764
 20
111.170062
 30
0.0
 11
293.603764
 21
112.3247629999999
 31
0.0
  0
LINE
  5
19A
330
1E
100
AcDbEntity
  8
CSLAYER1
  6
CONTINUOUS
 62
     3
100
AcDbLine
 10
293.603764
 20
112.3247629999999
 30
0.0
 11
293.603764
 21
114.6341639999999
 31
0.0
  0
LINE
  5
19B
330
1E
100
AcDbEntity
  8
CSLAYER1
  6
CONTINUOUS
 62
     3
100
AcDbLine
 10
293.603764
 20
114.6341639999999
 30
0.0
 11
295.603764
 21
115.7888649999999
 31
0.0
  0
LINE
  5
19C
330
1E
100
AcDbEntity
  8
CSLAYER1
  6
CONTINUOUS
 62
     3
100
AcDbLine
 10
295.603764
 20
115.7888649999999
 30
0.0
 11
297.603764
 21
114.6341639999999
 31
0.0
  0
LINE
  5
19D
330
1E
100
AcDbEntity
  8
CSLAYER1
  6
CONTINUOUS
 62
     3
100
AcDbLine
 10
297.603764
 20
114.6341639999999
 30
0.0
 11
297.603764
 21
112.3247629999999
 31
0.0
  0
LINE
  5
19E
330
1E
100
AcDbEntity
  8
CSLAYER1
  6
CONTINUOUS
 62
     3
100
AcDbLine
 10
297.603764
 20
112.3247629999999
 30
0.0
 11
295.603764
 21
111.170062
 31
0.0
  0
CIRCLE
  5
19F
330
1E
100
AcDbEntity
  8
CSLAYER1
  6
CONTINUOUS
 62
     3
100
AcDbCircle
 10
295.603764
 20
113.479463
 30
0.0
 40
4.25
  0
CIRCLE
  5
1A0
330
1E
100
AcDbEntity
  8
CSLAYER1
  6
CONTINUOUS
 62
     3
100
AcDbCircle
 10
295.603764
 20
113.479463
 30
0.0
 40
3.730385
  0
CIRCLE
  5
1A1
330
1E
100
AcDbEntity
  8
CSLAYER17
  6
CONTINUOUS
 62
     3
100
AcDbCircle
 10
295.603764
 20
113.479463
 30
0.0
 40
4.599999999999999
  0
LINE
  5
1A2
330
1E
100
AcDbEntity
  8
CSLAYER1
  6
CONTINUOUS
 62
     3
100
AcDbLine
 10
226.3269529999999
 20
116.479463
 30
0.0
 11
226.3269529999999
 21
56.479463
 31
0.0
  0
LINE
  5
1A3
330
1E
100
AcDbEntity
  8
CSLAYER1
  6
CONTINUOUS
 62
     3
100
AcDbLine
 10
220.3269529999999
 20
50.479463
 30
0.0
 11
157.326953
 21
50.479463
 31
0.0
  0
LINE
  5
1A4
330
1E
100
AcDbEntity
  8
CSLAYER1
  6
CONTINUOUS
 62
     3
100
AcDbLine
 10
157.326953
 20
53.479463
 30
0.0
 11
201.326953
 21
53.479463
 31
0.0
  0
LINE
  5
1A5
330
1E
100
AcDbEntity
  8
CSLAYER1
  6
CONTINUOUS
 62
     3
100
AcDbLine
 10
201.326953
 20
53.479463
 30
0.0
 11
201.326953
 21
64.47946299999999
 31
0.0
  0
LINE
  5
1A6
330
1E
100
AcDbEntity
  8
CSLAYER1
  6
CONTINUOUS
 62
     3
100
AcDbLine
 10
201.326953
 20
58.479463
 30
0.0
 11
211.3269529999999
 21
58.479463
 31
0.0
  0
LINE
  5
1A7
330
1E
100
AcDbEntity
  8
CSLAYER1
  6
CONTINUOUS
 62
     3
100
AcDbLine
 10
211.3269529999999
 20
58.479463
 30
0.0
 11
211.3269529999999
 21
50.479463
 31
0.0
  0
LINE
  5
1A8
330
1E
100
AcDbEntity
  8
CSLAYER1
  6
CONTINUOUS
 62
     3
100
AcDbLine
 10
209.8269529999999
 20
181.4794629999999
 30
0.0
 11
203.8269529999999
 21
181.4794629999999
 31
0.0
  0
CIRCLE
  5
1A9
330
1E
100
AcDbEntity
  8
CSLAYER1
  6
CONTINUOUS
 62
     3
100
AcDbCircle
 10
198.826953
 20
184.4794629999999
 30
0.0
 40
2.1
  0
LINE
  5
1AA
330
1E
100
AcDbEntity
  8
CSLAYER1
  6
CONTINUOUS
 62
     3
100
AcDbLine
 10
203.8269529999999
 20
169.4794629999999
 30
0.0
 11
147.826953
 21
169.4794629999999
 31
0.0
  0
CIRCLE
  5
1AB
330
1E
100
AcDbEntity
  8
CSLAYER1
  6
CONTINUOUS
 62
     3
100
AcDbCircle
 10
152.826953
 20
184.4794629999999
 30
0.0
 40
2.1
  0
LINE
  5
1AC
330
1E
100
AcDbEntity
  8
CSLAYER1
  6
CONTINUOUS
 62
     3
100
AcDbLine
 10
167.3269529999999
 20
198.2794629999999
 30
0.0
 11
184.326953
 21
198.2794629999999
 31
0.0
  0
LINE
  5
1AD
330
1E
100
AcDbEntity
  8
CSLAYER1
  6
CONTINUOUS
 62
     3
100
AcDbLine
 10
184.326953
 20
198.2794629999999
 30
0.0
 11
184.326953
 21
244.479463
 31
0.0
  0
LINE
  5
1AE
330
1E
100
AcDbEntity
  8
CSLAYER1
  6
CONTINUOUS
 62
     3
100
AcDbLine
 10
184.326953
 20
244.479463
 30
0.0
 11
193.826953
 21
244.479463
 31
0.0
  0
LINE
  5
1AF
330
1E
100
AcDbEntity
  8
CSLAYER1
  6
CONTINUOUS
 62
     3
100
AcDbLine
 10
193.826953
 20
244.479463
 30
0.0
 11
193.826953
 21
222.895871
 31
0.0
  0
ARC
  5
1B0
330
1E
100
AcDbEntity
  8
CSLAYER1
  6
CONTINUOUS
 62
     3
100
AcDbCircle
 10
207.826953
 20
222.895871
 30
0.0
 40
14.0
100
AcDbArc
 50
180.0
 51
253.3984499999999
  0
LINE
  5
1B1
330
1E
100
AcDbEntity
  8
CSLAYER1
  6
CONTINUOUS
 62
     3
100
AcDbLine
 10
211.1269529999999
 20
108.8794629999999
 30
0.0
 11
209.8269529999999
 21
108.8794629999999
 31
0.0
  0
LINE
  5
1B2
330
1E
100
AcDbEntity
  8
CSLAYER1
  6
CONTINUOUS
 62
     3
100
AcDbLine
 10
211.1269529999999
 20
108.8794629999999
 30
0.0
 11
211.1269529999999
 21
118.0794629999999
 31
0.0
  0
LINE
  5
1B3
330
1E
100
AcDbEntity
  8
CSLAYER1
  6
CONTINUOUS
 62
     3
100
AcDbLine
 10
211.1269529999999
 20
118.0794629999999
 30
0.0
 11
209.8269529999999
 21
118.0794629999999
 31
0.0
  0
LINE
  5
1B4
330
1E
100
AcDbEntity
  8
CSLAYER1
  6
CONTINUOUS
 62
     3
100
AcDbLine
 10
211.1269529999999
 20
117.729463
 30
0.0
 11
215.8269529999999
 21
117.729463
 31
0.0
  0
LINE
  5
1B5
330
1E
100
AcDbEntity
  8
CSLAYER1
  6
CONTINUOUS
 62
     3
100
AcDbLine
 10
215.8269529999999
 20
117.729463
 30
0.0
 11
215.8269529999999
 21
109.229463
 31
0.0
  0
LINE
  5
1B6
330
1E
100
AcDbEntity
  8
CSLAYER1
  6
CONTINUOUS
 62
     3
100
AcDbLine
 10
215.8269529999999
 20
109.229463
 30
0.0
 11
211.1269529999999
 21
109.229463
 31
0.0
  0
LINE
  5
1B7
330
1E
100
AcDbEntity
  8
CSLAYER1
  6
CONTINUOUS
 62
     3
100
AcDbLine
 10
215.8269529999999
 20
109.229463
 30
0.0
 11
216.1269529999999
 21
109.749079
 31
0.0
  0
LINE
  5
1B8
330
1E
100
AcDbEntity
  8
CSLAYER1
  6
CONTINUOUS
 62
     3
100
AcDbLine
 10
216.1269529999999
 20
109.749079
 30
0.0
 11
216.1269529999999
 21
117.209848
 31
0.0
  0
LINE
  5
1B9
330
1E
100
AcDbEntity
  8
CSLAYER1
  6
CONTINUOUS
 62
     3
100
AcDbLine
 10
216.1269529999999
 20
117.209848
 30
0.0
 11
215.8269529999999
 21
117.729463
 31
0.0
  0
LINE
  5
1BA
330
1E
100
AcDbEntity
  8
CSLAYER1
  6
CONTINUOUS
 62
     3
100
AcDbLine
 10
203.8269529999999
 20
109.4794629999999
 30
0.0
 11
188.597283
 21
109.4794629999999
 31
0.0
  0
ARC
  5
1BB
330
1E
100
AcDbEntity
  8
CSLAYER1
  6
CONTINUOUS
 62
     3
100
AcDbCircle
 10
188.597283
 20
107.4794629999999
 30
0.0
 40
2.0
100
AcDbArc
 50
90.0
 51
180.0
  0
LINE
  5
1BC
330
1E
100
AcDbEntity
  8
CSLAYER1
  6
CONTINUOUS
 62
     3
100
AcDbLine
 10
186.597283
 20
107.4794629999999
 30
0.0
 11
186.597283
 21
95.47946299999999
 31
0.0
  0
LINE
  5
1BD
330
1E
100
AcDbEntity
  8
CSLAYER1
  6
CONTINUOUS
 62
     3
100
AcDbLine
 10
186.597283
 20
95.47946299999999
 30
0.0
 11
165.056624
 21
95.47946299999999
 31
0.0
  0
LINE
  5
1BE
330
1E
100
AcDbEntity
  8
CSLAYER1
  6
CONTINUOUS
 62
     3
100
AcDbLine
 10
165.056624
 20
95.47946299999999
 30
0.0
 11
165.056624
 21
107.4794629999999
 31
0.0
  0
ARC
  5
1BF
330
1E
100
AcDbEntity
  8
CSLAYER1
  6
CONTINUOUS
 62
     3
100
AcDbCircle
 10
163.056624
 20
107.4794629999999
 30
0.0
 40
2.0
100
AcDbArc
 50
0.0
 51
90.0
  0
LINE
  5
1C0
330
1E
100
AcDbEntity
  8
CSLAYER1
  6
CONTINUOUS
 62
     3
100
AcDbLine
 10
163.056624
 20
109.4794629999999
 30
0.0
 11
147.826953
 21
109.4794629999999
 31
0.0
  0
LINE
  5
1C1
330
1E
100
AcDbEntity
  8
CSLAYER1
  6
CONTINUOUS
 62
     3
100
AcDbLine
 10
147.826953
 20
94.47946299999999
 30
0.0
 11
203.8269529999999
 21
94.47946299999999
 31
0.0
  0
LINE
  5
1C2
330
1E
100
AcDbEntity
  8
CSLAYER1
  6
CONTINUOUS
 62
     3
100
AcDbLine
 10
203.8269529999999
 20
89.47946299999999
 30
0.0
 11
200.826953
 21
89.47946299999999
 31
0.0
  0
ARC
  5
1C3
330
1E
100
AcDbEntity
  8
CSLAYER1
  6
CONTINUOUS
 62
     3
100
AcDbCircle
 10
200.826953
 20
87.479463
 30
0.0
 40
2.0
100
AcDbArc
 50
90.0
 51
180.0
  0
LINE
  5
1C4
330
1E
100
AcDbEntity
  8
CSLAYER1
  6
CONTINUOUS
 62
     3
100
AcDbLine
 10
198.826953
 20
87.479463
 30
0.0
 11
198.826953
 21
75.979463
 31
0.0
  0
LINE
  5
1C5
330
1E
100
AcDbEntity
  8
CSLAYER1
  6
CONTINUOUS
 62
     3
100
AcDbLine
 10
198.826953
 20
75.979463
 30
0.0
 11
197.3269529999999
 21
74.47946299999999
 31
0.0
  0
LINE
  5
1C6
330
1E
100
AcDbEntity
  8
CSLAYER1
  6
CONTINUOUS
 62
     3
100
AcDbLine
 10
197.3269529999999
 20
74.47946299999999
 30
0.0
 11
154.326953
 21
74.47946299999999
 31
0.0
  0
LINE
  5
1C7
330
1E
100
AcDbEntity
  8
CSLAYER1
  6
CONTINUOUS
 62
     3
100
AcDbLine
 10
154.326953
 20
74.47946299999999
 30
0.0
 11
152.826953
 21
75.979463
 31
0.0
  0
LINE
  5
1C8
330
1E
100
AcDbEntity
  8
CSLAYER1
  6
CONTINUOUS
 62
     3
100
AcDbLine
 10
152.826953
 20
75.979463
 30
0.0
 11
152.826953
 21
87.479463
 31
0.0
  0
ARC
  5
1C9
330
1E
100
AcDbEntity
  8
CSLAYER1
  6
CONTINUOUS
 62
     3
100
AcDbCircle
 10
150.8269529999999
 20
87.479463
 30
0.0
 40
2.0
100
AcDbArc
 50
0.0
 51
90.0
  0
LINE
  5
1CA
330
1E
100
AcDbEntity
  8
CSLAYER1
  6
CONTINUOUS
 62
     3
100
AcDbLine
 10
150.8269529999999
 20
89.47946299999999
 30
0.0
 11
147.826953
 21
89.47946299999999
 31
0.0
  0
LINE
  5
1CB
330
1E
100
AcDbEntity
  8
CSLAYER1
  6
CONTINUOUS
 62
     3
100
AcDbLine
 10
147.826953
 20
89.47946299999999
 30
0.0
 11
147.826953
 21
209.4794629999999
 31
0.0
  0
ARC
  5
1CC
330
1E
100
AcDbEntity
  8
CSLAYER1
  6
CONTINUOUS
 62
     3
100
AcDbCircle
 10
143.826953
 20
222.895871
 30
0.0
 40
14.0
100
AcDbArc
 50
286.6015499999999
 51
0.0
  0
LINE
  5
1CD
330
1E
100
AcDbEntity
  8
CSLAYER1
  6
CONTINUOUS
 62
     3
100
AcDbLine
 10
157.826953
 20
222.895871
 30
0.0
 11
157.826953
 21
244.479463
 31
0.0
  0
LINE
  5
1CE
330
1E
100
AcDbEntity
  8
CSLAYER1
  6
CONTINUOUS
 62
     3
100
AcDbLine
 10
157.826953
 20
244.479463
 30
0.0
 11
167.3269529999999
 21
244.479463
 31
0.0
  0
LINE
  5
1CF
330
1E
100
AcDbEntity
  8
CSLAYER1
  6
CONTINUOUS
 62
     3
100
AcDbLine
 10
167.3269529999999
 20
244.479463
 30
0.0
 11
167.3269529999999
 21
198.2794629999999
 31
0.0
  0
LINE
  5
1D0
330
1E
100
AcDbEntity
  8
CSLAYER1
  6
CONTINUOUS
 62
     3
100
AcDbLine
 10
167.3269529999999
 20
209.4794629999999
 30
0.0
 11
147.826953
 21
209.4794629999999
 31
0.0
  0
LINE
  5
1D1
330
1E
100
AcDbEntity
  8
CSLAYER1
  6
CONTINUOUS
 62
     3
100
AcDbLine
 10
157.126953
 20
222.9794629999999
 30
0.0
 11
156.826953
 21
223.2794629999999
 31
0.0
  0
LINE
  5
1D2
330
1E
100
AcDbEntity
  8
CSLAYER1
  6
CONTINUOUS
 62
     3
100
AcDbLine
 10
156.826953
 20
223.2794629999999
 30
0.0
 11
156.826953
 21
235.679463
 31
0.0
  0
LINE
  5
1D3
330
1E
100
AcDbEntity
  8
CSLAYER1
  6
CONTINUOUS
 62
     3
100
AcDbLine
 10
156.826953
 20
235.679463
 30
0.0
 11
157.126953
 21
235.9794629999999
 31
0.0
  0
LINE
  5
1D4
330
1E
100
AcDbEntity
  8
CSLAYER1
  6
CONTINUOUS
 62
     3
100
AcDbLine
 10
157.126953
 20
235.9794629999999
 30
0.0
 11
157.826953
 21
235.9794629999999
 31
0.0
  0
LINE
  5
1D5
330
1E
100
AcDbEntity
  8
CSLAYER1
  6
CONTINUOUS
 62
     3
100
AcDbLine
 10
157.126953
 20
235.9794629999999
 30
0.0
 11
157.126953
 21
222.9794629999999
 31
0.0
  0
LINE
  5
1D6
330
1E
100
AcDbEntity
  8
CSLAYER1
  6
CONTINUOUS
 62
     3
100
AcDbLine
 10
157.126953
 20
222.9794629999999
 30
0.0
 11
157.826953
 21
222.9794629999999
 31
0.0
  0
LINE
  5
1D7
330
1E
100
AcDbEntity
  8
CSLAYER1
  6
CONTINUOUS
 62
     3
100
AcDbLine
 10
184.326953
 20
209.4794629999999
 30
0.0
 11
203.8269529999999
 21
209.4794629999999
 31
0.0
  0
LINE
  5
1D8
330
1E
100
AcDbEntity
  8
CSLAYER1
  6
CONTINUOUS
 62
     3
100
AcDbLine
 10
194.526953
 20
222.9794629999999
 30
0.0
 11
193.826953
 21
222.9794629999999
 31
0.0
  0
LINE
  5
1D9
330
1E
100
AcDbEntity
  8
CSLAYER1
  6
CONTINUOUS
 62
     3
100
AcDbLine
 10
194.526953
 20
222.9794629999999
 30
0.0
 11
194.526953
 21
235.9794629999999
 31
0.0
  0
LINE
  5
1DA
330
1E
100
AcDbEntity
  8
CSLAYER1
  6
CONTINUOUS
 62
     3
100
AcDbLine
 10
194.526953
 20
235.9794629999999
 30
0.0
 11
193.826953
 21
235.9794629999999
 31
0.0
  0
LINE
  5
1DB
330
1E
100
AcDbEntity
  8
CSLAYER1
  6
CONTINUOUS
 62
     3
100
AcDbLine
 10
194.526953
 20
235.9794629999999
 30
0.0
 11
194.826953
 21
235.679463
 31
0.0
  0
LINE
  5
1DC
330
1E
100
AcDbEntity
  8
CSLAYER1
  6
CONTINUOUS
 62
     3
100
AcDbLine
 10
194.826953
 20
235.679463
 30
0.0
 11
194.826953
 21
223.2794629999999
 31
0.0
  0
LINE
  5
1DD
330
1E
100
AcDbEntity
  8
CSLAYER1
  6
CONTINUOUS
 62
     3
100
AcDbLine
 10
194.826953
 20
223.2794629999999
 30
0.0
 11
194.526953
 21
222.9794629999999
 31
0.0
  0
LINE
  5
1DE
330
1E
100
AcDbEntity
  8
CSLAYER1
  6
CONTINUOUS
 62
     3
100
AcDbLine
 10
115.5224929999999
 20
129.0572799999999
 30
0.0
 11
54.522493
 21
129.0572799999999
 31
0.0
  0
LINE
  5
1DF
330
1E
100
AcDbEntity
  8
CSLAYER17
  6
CONTINUOUS
 62
     3
100
AcDbLine
 10
54.522493
 20
129.0572799999999
 30
0.0
 11
40.52249299999999
 21
143.05728
 31
0.0
  0
LINE
  5
1E0
330
1E
100
AcDbEntity
  8
CSLAYER17
  6
CONTINUOUS
 62
     3
100
AcDbLine
 10
40.52249299999999
 20
143.05728
 30
0.0
 11
40.52249299999999
 21
199.0572799999999
 31
0.0
  0
LINE
  5
1E1
330
1E
100
AcDbEntity
  8
CSLAYER17
  6
CONTINUOUS
 62
     3
100
AcDbLine
 10
40.52249299999999
 20
199.0572799999999
 30
0.0
 11
54.522493
 21
213.0572799999999
 31
0.0
  0
LINE
  5
1E2
330
1E
100
AcDbEntity
  8
CSLAYER1
  6
CONTINUOUS
 62
     3
100
AcDbLine
 10
54.522493
 20
213.0572799999999
 30
0.0
 11
115.5224929999999
 21
213.0572799999999
 31
0.0
  0
LINE
  5
1E3
330
1E
100
AcDbEntity
  8
CSLAYER1
  6
CONTINUOUS
 62
     3
100
AcDbLine
 10
76.27249300000001
 20
208.30728
 30
0.0
 11
70.77249300000001
 21
208.30728
 31
0.0
  0
ARC
  5
1E4
330
1E
100
AcDbEntity
  8
CSLAYER17
  6
CONTINUOUS
 62
     3
100
AcDbCircle
 10
70.77249300000001
 20
205.0572799999999
 30
0.0
 40
3.25
100
AcDbArc
 50
90.0
 51
270.0
  0
LINE
  5
1E5
330
1E
100
AcDbEntity
  8
CSLAYER1
  6
CONTINUOUS
 62
     3
100
AcDbLine
 10
70.77249300000001
 20
201.80728
 30
0.0
 11
76.27249300000001
 21
201.80728
 31
0.0
  0
ARC
  5
1E6
330
1E
100
AcDbEntity
  8
CSLAYER17
  6
CONTINUOUS
 62
     3
100
AcDbCircle
 10
76.27249300000001
 20
205.0572799999999
 30
0.0
 40
3.25
100
AcDbArc
 50
270.0
 51
90.0
  0
CIRCLE
  5
1E7
330
1E
100
AcDbEntity
  8
CSLAYER17
  6
CONTINUOUS
 62
     3
100
AcDbCircle
 10
87.522493
 20
171.05728
 30
0.0
 40
1.649999999999999
  0
CIRCLE
  5
1E8
330
1E
100
AcDbEntity
  8
CSLAYER17
  6
CONTINUOUS
 62
     3
100
AcDbCircle
 10
47.52249299999999
 20
171.05728
 30
0.0
 40
1.649999999999999
  0
LINE
  5
1E9
330
1E
100
AcDbEntity
  8
CSLAYER1
  6
CONTINUOUS
 62
     3
100
AcDbLine
 10
153.8269529999999
 20
227.4794629999999
 30
0.0
 11
154.326953
 21
226.9794629999999
 31
0.0
  0
LINE
  5
1EA
330
1E
100
AcDbEntity
  8
CSLAYER1
  6
CONTINUOUS
 62
     3
100
AcDbLine
 10
154.326953
 20
226.9794629999999
 30
0.0
 11
155.326953
 21
226.9794629999999
 31
0.0
  0
LINE
  5
1EB
330
1E
100
AcDbEntity
  8
CSLAYER1
  6
CONTINUOUS
 62
     3
100
AcDbLine
 10
155.326953
 20
226.9794629999999
 30
0.0
 11
155.326953
 21
230.9794629999999
 31
0.0
  0
ARC
  5
1EC
330
1E
100
AcDbEntity
  8
CSLAYER1
  6
CONTINUOUS
 62
     3
100
AcDbCircle
 10
155.826953
 20
230.9794629999999
 30
0.0
 40
0.5
100
AcDbArc
 50
0.0
 51
180.0
  0
LINE
  5
1ED
330
1E
100
AcDbEntity
  8
CSLAYER1
  6
CONTINUOUS
 62
     3
100
AcDbLine
 10
156.326953
 20
230.9794629999999
 30
0.0
 11
156.326953
 21
226.9794629999999
 31
0.0
  0
LINE
  5
1EE
330
1E
100
AcDbEntity
  8
CSLAYER1
  6
CONTINUOUS
 62
     3
100
AcDbLine
 10
156.326953
 20
226.9794629999999
 30
0.0
 11
156.826953
 21
226.9794629999999
 31
0.0
  0
ARC
  5
1EF
330
1E
100
AcDbEntity
  8
CSLAYER1
  6
CONTINUOUS
 62
     3
100
AcDbCircle
 10
155.826953
 20
226.9794629999999
 30
0.0
 40
0.5
100
AcDbArc
 50
180.0
 51
0.0
  0
LINE
  5
1F0
330
1E
100
AcDbEntity
  8
CSLAYER1
  6
CONTINUOUS
 62
     3
100
AcDbLine
 10
154.326953
 20
226.9794629999999
 30
0.0
 11
154.326953
 21
231.979463
 31
0.0
  0
LINE
  5
1F1
330
1E
100
AcDbEntity
  8
CSLAYER1
  6
CONTINUOUS
 62
     3
100
AcDbLine
 10
154.326953
 20
231.979463
 30
0.0
 11
153.8269529999999
 21
231.4794629999999
 31
0.0
  0
LINE
  5
1F2
330
1E
100
AcDbEntity
  8
CSLAYER1
  6
CONTINUOUS
 62
     3
100
AcDbLine
 10
153.8269529999999
 20
231.4794629999999
 30
0.0
 11
153.8269529999999
 21
227.4794629999999
 31
0.0
  0
ARC
  5
1F3
330
1E
100
AcDbEntity
  8
CSLAYER1
  6
CONTINUOUS
 62
     3
100
AcDbCircle
 10
155.826953
 20
229.4794629999999
 30
0.0
 40
0.6
100
AcDbArc
 50
146.44269
 51
213.55731
  0
ARC
  5
1F4
330
1E
100
AcDbEntity
  8
CSLAYER1
  6
CONTINUOUS
 62
     3
100
AcDbCircle
 10
155.826953
 20
229.4794629999999
 30
0.0
 40
0.6
100
AcDbArc
 50
326.44269
 51
33.55731
  0
LINE
  5
1F5
330
1E
100
AcDbEntity
  8
CSLAYER1
  6
CONTINUOUS
 62
     3
100
AcDbLine
 10
156.826953
 20
231.979463
 30
0.0
 11
154.326953
 21
231.979463
 31
0.0
  0
LINE
  5
1F6
330
1E
100
AcDbEntity
  8
CSLAYER1
  6
CONTINUOUS
 62
     3
100
AcDbLine
 10
167.3269529999999
 20
231.979463
 30
0.0
 11
184.326953
 21
231.979463
 31
0.0
  0
LINE
  5
1F7
330
1E
100
AcDbEntity
  8
CSLAYER1
  6
CONTINUOUS
 62
     3
100
AcDbLine
 10
184.326953
 20
226.9794629999999
 30
0.0
 11
167.3269529999999
 21
226.9794629999999
 31
0.0
  0
LINE
  5
1F8
330
1E
100
AcDbEntity
  8
CSLAYER1
  6
CONTINUOUS
 62
     3
100
AcDbLine
 10
194.826953
 20
226.9794629999999
 30
0.0
 11
195.326953
 21
226.9794629999999
 31
0.0
  0
ARC
  5
1F9
330
1E
100
AcDbEntity
  8
CSLAYER1
  6
CONTINUOUS
 62
     3
100
AcDbCircle
 10
195.826953
 20
227.979463
 30
0.0
 40
0.5
100
AcDbArc
 50
0.0
 51
180.0
  0
LINE
  5
1FA
330
1E
100
AcDbEntity
  8
CSLAYER1
  6
CONTINUOUS
 62
     3
100
AcDbLine
 10
196.3269529999999
 20
227.979463
 30
0.0
 11
196.3269529999999
 21
225.979463
 31
0.0
  0
CIRCLE
  5
1FB
330
1E
100
AcDbEntity
  8
CSLAYER1
  6
CONTINUOUS
 62
     3
100
AcDbCircle
 10
195.826953
 20
225.979463
 30
0.0
 40
0.5
  0
LINE
  5
1FC
330
1E
100
AcDbEntity
  8
CSLAYER1
  6
CONTINUOUS
 62
     3
100
AcDbLine
 10
195.326953
 20
225.979463
 30
0.0
 11
195.326953
 21
227.979463
 31
0.0
  0
LINE
  5
1FD
330
1E
100
AcDbEntity
  8
CSLAYER1
  6
CONTINUOUS
 62
     3
100
AcDbLine
 10
196.3269529999999
 20
226.9794629999999
 30
0.0
 11
197.3269529999999
 21
226.9794629999999
 31
0.0
  0
LINE
  5
1FE
330
1E
100
AcDbEntity
  8
CSLAYER1
  6
CONTINUOUS
 62
     3
100
AcDbLine
 10
197.3269529999999
 20
226.9794629999999
 30
0.0
 11
197.826953
 21
227.4794629999999
 31
0.0
  0
LINE
  5
1FF
330
1E
100
AcDbEntity
  8
CSLAYER1
  6
CONTINUOUS
 62
     3
100
AcDbLine
 10
197.826953
 20
227.4794629999999
 30
0.0
 11
197.826953
 21
231.4794629999999
 31
0.0
  0
LINE
  5
200
330
1E
100
AcDbEntity
  8
CSLAYER1
  6
CONTINUOUS
 62
     3
100
AcDbLine
 10
197.826953
 20
231.4794629999999
 30
0.0
 11
197.3269529999999
 21
231.979463
 31
0.0
  0
LINE
  5
201
330
1E
100
AcDbEntity
  8
CSLAYER1
  6
CONTINUOUS
 62
     3
100
AcDbLine
 10
197.3269529999999
 20
231.979463
 30
0.0
 11
194.826953
 21
231.979463
 31
0.0
  0
LINE
  5
202
330
1E
100
AcDbEntity
  8
CSLAYER1
  6
CONTINUOUS
 62
     3
100
AcDbLine
 10
197.3269529999999
 20
231.979463
 30
0.0
 11
197.3269529999999
 21
226.9794629999999
 31
0.0
  0
CIRCLE
  5
203
330
1E
100
AcDbEntity
  8
CSLAYER1
  6
CONTINUOUS
 62
     3
100
AcDbCircle
 10
195.826953
 20
229.4794629999999
 30
0.0
 40
0.6
  0
CIRCLE
  5
204
330
1E
100
AcDbEntity
  8
CSLAYER1
  6
CONTINUOUS
 62
     3
100
AcDbCircle
 10
195.826953
 20
229.4794629999999
 30
0.0
 40
0.5
  0
LINE
  5
205
330
1E
100
AcDbEntity
  8
CSLAYER1
  6
CONTINUOUS
 62
     3
100
AcDbLine
 10
209.8269529999999
 20
178.0794629999999
 30
0.0
 11
211.1269529999999
 21
178.0794629999999
 31
0.0
  0
LINE
  5
206
330
1E
100
AcDbEntity
  8
CSLAYER1
  6
CONTINUOUS
 62
     3
100
AcDbLine
 10
211.1269529999999
 20
178.0794629999999
 30
0.0
 11
211.1269529999999
 21
168.8794629999999
 31
0.0
  0
LINE
  5
207
330
1E
100
AcDbEntity
  8
CSLAYER1
  6
CONTINUOUS
 62
     3
100
AcDbLine
 10
211.1269529999999
 20
168.8794629999999
 30
0.0
 11
209.8269529999999
 21
168.8794629999999
 31
0.0
  0
LINE
  5
208
330
1E
100
AcDbEntity
  8
CSLAYER1
  6
CONTINUOUS
 62
     3
100
AcDbLine
 10
211.1269529999999
 20
169.2294629999999
 30
0.0
 11
215.8269529999999
 21
169.2294629999999
 31
0.0
  0
LINE
  5
209
330
1E
100
AcDbEntity
  8
CSLAYER1
  6
CONTINUOUS
 62
     3
100
AcDbLine
 10
215.8269529999999
 20
169.2294629999999
 30
0.0
 11
215.8269529999999
 21
177.7294629999999
 31
0.0
  0
LINE
  5
20A
330
1E
100
AcDbEntity
  8
CSLAYER1
  6
CONTINUOUS
 62
     3
100
AcDbLine
 10
215.8269529999999
 20
177.7294629999999
 30
0.0
 11
211.1269529999999
 21
177.7294629999999
 31
0.0
  0
LINE
  5
20B
330
1E
100
AcDbEntity
  8
CSLAYER1
  6
CONTINUOUS
 62
     3
100
AcDbLine
 10
215.8269529999999
 20
177.7294629999999
 30
0.0
 11
216.1269529999999
 21
177.2098479999999
 31
0.0
  0
LINE
  5
20C
330
1E
100
AcDbEntity
  8
CSLAYER1
  6
CONTINUOUS
 62
     3
100
AcDbLine
 10
216.1269529999999
 20
177.2098479999999
 30
0.0
 11
216.1269529999999
 21
169.7490789999999
 31
0.0
  0
LINE
  5
20D
330
1E
100
AcDbEntity
  8
CSLAYER1
  6
CONTINUOUS
 62
     3
100
AcDbLine
 10
216.1269529999999
 20
169.7490789999999
 30
0.0
 11
215.8269529999999
 21
169.2294629999999
 31
0.0
  0
LINE
  5
20E
330
1E
100
AcDbEntity
  8
CSLAYER17
  6
CONTINUOUS
 62
     3
100
AcDbLine
 10
290.603764
 20
181.4794629999999
 30
0.0
 11
346.603764
 21
181.4794629999999
 31
0.0
  0
LINE
  5
20F
330
1E
100
AcDbEntity
  8
CSLAYER1
  6
CONTINUOUS
 62
     3
100
AcDbLine
 10
343.603764
 20
174.6341639999999
 30
0.0
 11
343.603764
 21
172.3247629999999
 31
0.0
  0
LINE
  5
210
330
1E
100
AcDbEntity
  8
CSLAYER1
  6
CONTINUOUS
 62
     3
100
AcDbLine
 10
343.603764
 20
172.3247629999999
 30
0.0
 11
341.603764
 21
171.170062
 31
0.0
  0
LINE
  5
211
330
1E
100
AcDbEntity
  8
CSLAYER1
  6
CONTINUOUS
 62
     3
100
AcDbLine
 10
341.603764
 20
171.170062
 30
0.0
 11
339.603764
 21
172.3247629999999
 31
0.0
  0
LINE
  5
212
330
1E
100
AcDbEntity
  8
CSLAYER1
  6
CONTINUOUS
 62
     3
100
AcDbLine
 10
339.603764
 20
172.3247629999999
 30
0.0
 11
339.603764
 21
174.6341639999999
 31
0.0
  0
LINE
  5
213
330
1E
100
AcDbEntity
  8
CSLAYER1
  6
CONTINUOUS
 62
     3
100
AcDbLine
 10
339.603764
 20
174.6341639999999
 30
0.0
 11
341.603764
 21
175.7888649999999
 31
0.0
  0
LINE
  5
214
330
1E
100
AcDbEntity
  8
CSLAYER1
  6
CONTINUOUS
 62
     3
100
AcDbLine
 10
341.603764
 20
175.7888649999999
 30
0.0
 11
343.603764
 21
174.6341639999999
 31
0.0
  0
CIRCLE
  5
215
330
1E
100
AcDbEntity
  8
CSLAYER1
  6
CONTINUOUS
 62
     3
100
AcDbCircle
 10
341.603764
 20
173.4794629999999
 30
0.0
 40
4.25
  0
CIRCLE
  5
216
330
1E
100
AcDbEntity
  8
CSLAYER1
  6
CONTINUOUS
 62
     3
100
AcDbCircle
 10
341.603764
 20
173.4794629999999
 30
0.0
 40
3.730385
  0
CIRCLE
  5
217
330
1E
100
AcDbEntity
  8
CSLAYER17
  6
CONTINUOUS
 62
     3
100
AcDbCircle
 10
341.603764
 20
173.4794629999999
 30
0.0
 40
4.599999999999999
  0
LINE
  5
218
330
1E
100
AcDbEntity
  8
CSLAYER1
  6
CONTINUOUS
 62
     3
100
AcDbLine
 10
346.603764
 20
208.4794629999999
 30
0.0
 11
290.603764
 21
208.4794629999999
 31
0.0
  0
LINE
  5
219
330
1E
100
AcDbEntity
  8
CSLAYER1
  6
CONTINUOUS
 62
     3
100
AcDbLine
 10
295.603764
 20
175.7888649999999
 30
0.0
 11
293.603764
 21
174.6341639999999
 31
0.0
  0
LINE
  5
21A
330
1E
100
AcDbEntity
  8
CSLAYER1
  6
CONTINUOUS
 62
     3
100
AcDbLine
 10
293.603764
 20
174.6341639999999
 30
0.0
 11
293.603764
 21
172.3247629999999
 31
0.0
  0
LINE
  5
21B
330
1E
100
AcDbEntity
  8
CSLAYER1
  6
CONTINUOUS
 62
     3
100
AcDbLine
 10
293.603764
 20
172.3247629999999
 30
0.0
 11
295.603764
 21
171.170062
 31
0.0
  0
LINE
  5
21C
330
1E
100
AcDbEntity
  8
CSLAYER1
  6
CONTINUOUS
 62
     3
100
AcDbLine
 10
295.603764
 20
171.170062
 30
0.0
 11
297.603764
 21
172.3247629999999
 31
0.0
  0
LINE
  5
21D
330
1E
100
AcDbEntity
  8
CSLAYER1
  6
CONTINUOUS
 62
     3
100
AcDbLine
 10
297.603764
 20
172.3247629999999
 30
0.0
 11
297.603764
 21
174.6341639999999
 31
0.0
  0
LINE
  5
21E
330
1E
100
AcDbEntity
  8
CSLAYER1
  6
CONTINUOUS
 62
     3
100
AcDbLine
 10
297.603764
 20
174.6341639999999
 30
0.0
 11
295.603764
 21
175.7888649999999
 31
0.0
  0
CIRCLE
  5
21F
330
1E
100
AcDbEntity
  8
CSLAYER1
  6
CONTINUOUS
 62
     3
100
AcDbCircle
 10
295.603764
 20
173.4794629999999
 30
0.0
 40
4.25
  0
CIRCLE
  5
220
330
1E
100
AcDbEntity
  8
CSLAYER1
  6
CONTINUOUS
 62
     3
100
AcDbCircle
 10
295.603764
 20
173.4794629999999
 30
0.0
 40
3.730385
  0
CIRCLE
  5
221
330
1E
100
AcDbEntity
  8
CSLAYER17
  6
CONTINUOUS
 62
     3
100
AcDbCircle
 10
295.603764
 20
173.4794629999999
 30
0.0
 40
4.599999999999999
  0
LINE
  5
222
330
1E
100
AcDbEntity
  8
CSLAYER1
  6
CONTINUOUS
 62
     3
100
AcDbLine
 10
311.846551
 20
224.4794629999999
 30
0.0
 11
313.7194999999999
 21
226.0510539999999
 31
0.0
  0
ARC
  5
223
330
1E
100
AcDbEntity
  8
CSLAYER1
  6
CONTINUOUS
 62
     3
100
AcDbCircle
 10
314.8965449999999
 20
224.648307
 30
0.0
 40
1.831156999999999
100
AcDbArc
 50
45.941912
 51
130.0
  0
ARC
  5
224
330
1E
100
AcDbEntity
  8
CSLAYER1
  6
CONTINUOUS
 62
     3
100
AcDbCircle
 10
318.603764
 20
228.4794629999999
 30
0.0
 40
3.5
100
AcDbArc
 50
229.24837
 51
309.4129069999999
  0
ARC
  5
225
330
1E
100
AcDbEntity
  8
CSLAYER1
  6
CONTINUOUS
 62
     3
100
AcDbCircle
 10
322.7916149999999
 20
223.383431
 30
0.0
 40
3.096032
100
AcDbArc
 50
65.59546800000001
 51
129.412907
  0
ARC
  5
226
330
1E
100
AcDbEntity
  8
CSLAYER1
  6
CONTINUOUS
 62
     3
100
AcDbCircle
 10
325.103764
 20
228.4794629999999
 30
0.0
 40
2.5
100
AcDbArc
 50
245.595468
 51
154.6230659999999
  0
ARC
  5
227
330
1E
100
AcDbEntity
  8
CSLAYER1
  6
CONTINUOUS
 62
     3
100
AcDbCircle
 10
321.941486
 20
229.979463
 30
0.0
 40
1.0
100
AcDbArc
 50
270.0
 51
334.6230659999999
  0
LINE
  5
228
330
1E
100
AcDbEntity
  8
CSLAYER1
  6
CONTINUOUS
 62
     3
100
AcDbLine
 10
321.941486
 20
228.9794629999999
 30
0.0
 11
321.0532539999999
 21
228.9794629999999
 31
0.0
  0
LINE
  5
229
330
1E
100
AcDbEntity
  8
CSLAYER1
  6
CONTINUOUS
 62
     3
100
AcDbLine
 10
321.0532539999999
 20
227.979463
 30
0.0
 11
321.941486
 21
227.979463
 31
0.0
  0
ARC
  5
22A
330
1E
100
AcDbEntity
  8
CSLAYER1
  6
CONTINUOUS
 62
     3
100
AcDbCircle
 10
321.941486
 20
229.979463
 30
0.0
 40
2.0
100
AcDbArc
 50
270.0
 51
334.6230659999999
  0
ARC
  5
22B
330
1E
100
AcDbEntity
  8
CSLAYER1
  6
CONTINUOUS
 62
     3
100
AcDbCircle
 10
325.103764
 20
228.4794629999999
 30
0.0
 40
1.5
100
AcDbArc
 50
245.595468
 51
154.6230659999999
  0
ARC
  5
22C
330
1E
100
AcDbEntity
  8
CSLAYER1
  6
CONTINUOUS
 62
     3
100
AcDbCircle
 10
322.7916149999999
 20
223.383431
 30
0.0
 40
4.096032
100
AcDbArc
 50
65.59546800000001
 51
129.412907
  0
CIRCLE
  5
22D
330
1E
100
AcDbEntity
  8
CSLAYER1
  6
CONTINUOUS
 62
     3
100
AcDbCircle
 10
318.603764
 20
228.4794629999999
 30
0.0
 40
2.5
  0
CIRCLE
  5
22E
330
1E
100
AcDbEntity
  8
CSLAYER1
  6
CONTINUOUS
 62
     3
100
AcDbCircle
 10
318.603764
 20
228.4794629999999
 30
0.0
 40
2.0
  0
LINE
  5
22F
330
1E
100
AcDbEntity
  8
CSLAYER1
  6
CONTINUOUS
 62
     3
100
AcDbLine
 10
316.154274
 20
227.979463
 30
0.0
 11
309.703764
 21
227.979463
 31
0.0
  0
LINE
  5
230
330
1E
100
AcDbEntity
  8
CSLAYER1
  6
CONTINUOUS
 62
     3
100
AcDbLine
 10
309.703764
 20
227.979463
 30
0.0
 11
309.703764
 21
228.9794629999999
 31
0.0
  0
LINE
  5
231
330
1E
100
AcDbEntity
  8
CSLAYER1
  6
CONTINUOUS
 62
     3
100
AcDbLine
 10
309.703764
 20
228.9794629999999
 30
0.0
 11
316.154274
 21
228.9794629999999
 31
0.0
  0
ARC
  5
232
330
1E
100
AcDbEntity
  8
CSLAYER1
  6
CONTINUOUS
 62
     3
100
AcDbCircle
 10
314.8965449999999
 20
224.648307
 30
0.0
 40
2.831157
100
AcDbArc
 50
45.941912
 51
130.0
  0
LINE
  5
233
330
1E
100
AcDbEntity
  8
CSLAYER1
  6
CONTINUOUS
 62
     3
100
AcDbLine
 10
313.0767129999999
 20
226.817099
 30
0.0
 11
311.203764
 21
225.245508
 31
0.0
  0
LINE
  5
234
330
1E
100
AcDbEntity
  8
CSLAYER1
  6
CONTINUOUS
 62
     3
100
AcDbLine
 10
311.203764
 20
225.245508
 30
0.0
 11
311.846551
 21
224.4794629999999
 31
0.0
  0
ARC
  5
235
330
1E
100
AcDbEntity
  8
CSLAYER1
  6
CONTINUOUS
 62
     3
100
AcDbCircle
 10
318.603764
 20
228.4794629999999
 30
0.0
 40
6.5
100
AcDbArc
 50
208.649435
 51
337.825022
  0
ARC
  5
236
330
1E
100
AcDbEntity
  8
CSLAYER1
  6
CONTINUOUS
 62
     3
100
AcDbCircle
 10
318.603764
 20
228.4794629999999
 30
0.0
 40
6.2
100
AcDbArc
 50
208.092363
 51
337.45418
  0
ARC
  5
237
330
1E
100
AcDbEntity
  8
CSLAYER1
  6
CONTINUOUS
 62
     3
100
AcDbCircle
 10
318.603764
 20
228.4794629999999
 30
0.0
 40
6.5
100
AcDbArc
 50
184.4117259999999
 51
199.4724559999999
  0
ARC
  5
238
330
1E
100
AcDbEntity
  8
CSLAYER1
  6
CONTINUOUS
 62
     3
100
AcDbCircle
 10
318.603764
 20
228.4794629999999
 30
0.0
 40
6.2
100
AcDbArc
 50
184.625651
 51
198.430784
  0
ARC
  5
239
330
1E
100
AcDbEntity
  8
CSLAYER1
  6
CONTINUOUS
 62
     3
100
AcDbCircle
 10
318.603764
 20
228.4794629999999
 30
0.0
 40
6.2
100
AcDbArc
 50
22.54582
 51
175.3743489999999
  0
ARC
  5
23A
330
1E
100
AcDbEntity
  8
CSLAYER1
  6
CONTINUOUS
 62
     3
100
AcDbCircle
 10
318.603764
 20
228.4794629999999
 30
0.0
 40
6.5
100
AcDbArc
 50
22.17497799999999
 51
175.588274
  0
ARC
  5
23B
330
1E
100
AcDbEntity
  8
CSLAYER1
  6
CONTINUOUS
 62
     3
100
AcDbCircle
 10
318.603764
 20
228.4794629999999
 30
0.0
 40
6.2
100
AcDbArc
 50
346.70551
 51
13.29448999999999
  0
ARC
  5
23C
330
1E
100
AcDbEntity
  8
CSLAYER1
  6
CONTINUOUS
 62
     3
100
AcDbCircle
 10
318.603764
 20
228.4794629999999
 30
0.0
 40
6.5
100
AcDbArc
 50
346.748381
 51
13.25161899999999
  0
LINE
  5
23D
330
1E
100
AcDbEntity
  8
CSLAYER1
  6
CONTINUOUS
 62
     3
100
AcDbLine
 10
341.603764
 20
115.7888649999999
 30
0.0
 11
343.603764
 21
114.6341639999999
 31
0.0
  0
LINE
  5
23E
330
1E
100
AcDbEntity
  8
CSLAYER1
  6
CONTINUOUS
 62
     3
100
AcDbLine
 10
343.603764
 20
114.6341639999999
 30
0.0
 11
343.603764
 21
112.3247629999999
 31
0.0
  0
LINE
  5
23F
330
1E
100
AcDbEntity
  8
CSLAYER1
  6
CONTINUOUS
 62
     3
100
AcDbLine
 10
343.603764
 20
112.3247629999999
 30
0.0
 11
341.603764
 21
111.170062
 31
0.0
  0
LINE
  5
240
330
1E
100
AcDbEntity
  8
CSLAYER1
  6
CONTINUOUS
 62
     3
100
AcDbLine
 10
341.603764
 20
111.170062
 30
0.0
 11
339.603764
 21
112.3247629999999
 31
0.0
  0
LINE
  5
241
330
1E
100
AcDbEntity
  8
CSLAYER1
  6
CONTINUOUS
 62
     3
100
AcDbLine
 10
339.603764
 20
112.3247629999999
 30
0.0
 11
339.603764
 21
114.6341639999999
 31
0.0
  0
LINE
  5
242
330
1E
100
AcDbEntity
  8
CSLAYER1
  6
CONTINUOUS
 62
     3
100
AcDbLine
 10
339.603764
 20
114.6341639999999
 30
0.0
 11
341.603764
 21
115.7888649999999
 31
0.0
  0
CIRCLE
  5
243
330
1E
100
AcDbEntity
  8
CSLAYER1
  6
CONTINUOUS
 62
     3
100
AcDbCircle
 10
341.603764
 20
113.479463
 30
0.0
 40
4.25
  0
CIRCLE
  5
244
330
1E
100
AcDbEntity
  8
CSLAYER1
  6
CONTINUOUS
 62
     3
100
AcDbCircle
 10
341.603764
 20
113.479463
 30
0.0
 40
3.730385
  0
CIRCLE
  5
245
330
1E
100
AcDbEntity
  8
CSLAYER17
  6
CONTINUOUS
 62
     3
100
AcDbCircle
 10
341.603764
 20
113.479463
 30
0.0
 40
4.599999999999999
  0
LINE
  5
246
330
1E
100
AcDbEntity
  8
CSLAYER1
  6
CONTINUOUS
 62
     3
100
AcDbLine
 10
209.8269529999999
 20
64.47946299999999
 30
0.0
 11
157.326953
 21
64.47946299999999
 31
0.0
  0
LINE
  5
247
330
1E
100
AcDbEntity
  8
CSLAYER17
  6
CONTINUOUS
 62
     3
100
AcDbLine
 10
171.3269529999999
 20
50.479463
 30
0.0
 11
171.3269529999999
 21
44.479463
 31
0.0
  0
LINE
  5
248
330
1E
100
AcDbEntity
  8
CSLAYER1
  6
CONTINUOUS
 62
     3
100
AcDbLine
 10
152.826953
 20
75.979463
 30
0.0
 11
198.826953
 21
75.979463
 31
0.0
  0
LINE
  5
249
330
1E
100
AcDbEntity
  8
CSLAYER1
  6
CONTINUOUS
 62
     3
100
AcDbLine
 10
185.5972829999999
 20
94.47946299999999
 30
0.0
 11
186.597283
 21
95.47946299999999
 31
0.0
  0
LINE
  5
24A
330
1E
100
AcDbEntity
  8
CSLAYER1
  6
CONTINUOUS
 62
     3
100
AcDbLine
 10
166.056624
 20
94.47946299999999
 30
0.0
 11
165.056624
 21
95.47946299999999
 31
0.0
  0
CIRCLE
  5
24B
330
1E
100
AcDbEntity
  8
CSLAYER1
  6
CONTINUOUS
 62
     3
100
AcDbCircle
 10
152.826953
 20
124.4794629999999
 30
0.0
 40
2.1
  0
LINE
  5
24C
330
1E
100
AcDbEntity
  8
CSLAYER1
  6
CONTINUOUS
 62
     3
100
AcDbLine
 10
147.826953
 20
129.4794629999999
 30
0.0
 11
203.8269529999999
 21
129.4794629999999
 31
0.0
  0
CIRCLE
  5
24D
330
1E
100
AcDbEntity
  8
CSLAYER1
  6
CONTINUOUS
 62
     3
100
AcDbCircle
 10
198.826953
 20
124.4794629999999
 30
0.0
 40
2.1
  0
POINT
  5
24E
330
1E
100
AcDbEntity
  8
CSLAYER1
 62
     3
100
AcDbPoint
 10
10.0
 20
3.0
 30
0.0
  0
POINT
  5
24F
330
1E
100
AcDbEntity
  8
CSLAYER1
 62
     3
100
AcDbPoint
 10
365.5
 20
20.5
 30
0.0
  0
TEXT
  5
250
330
1E
100
AcDbEntity
  8
CSLAYER1
 62
     3
100
AcDbText
 10
343.1
 20
18.89999999999999
 30
0.0
 40
3.2
  1
GT-NB30LW-10TM
 41
1.024390243902437
  7
FX_FONT
 72
     5
 11
387.8999999999999
 21
18.89999999999999
 31
0.0
100
AcDbText
  0
POLYLINE
  5
251
330
1E
100
AcDbEntity
  8
CSLAYER1
  6
CONTINUOUS
 62
     3
100
AcDb2dPolyline
 66
     1
 10
0.0
 20
0.0
 30
0.0
  0
VERTEX
  5
252
330
251
100
AcDbEntity
  8
CSLAYER1
  6
CONTINUOUS
 62
     3
100
AcDbVertex
100
AcDb2dVertex
 10
187.323887
 20
84.47946299999999
 30
0.0
  0
VERTEX
  5
253
330
251
100
AcDbEntity
  8
CSLAYER1
  6
CONTINUOUS
 62
     3
100
AcDbVertex
100
AcDb2dVertex
 10
187.3077139999999
 20
84.83723799999999
 30
0.0
  0
VERTEX
  5
254
330
251
100
AcDbEntity
  8
CSLAYER1
  6
CONTINUOUS
 62
     3
100
AcDbVertex
100
AcDb2dVertex
 10
187.259319
 20
85.19228899999999
 30
0.0
  0
VERTEX
  5
255
330
251
100
AcDbEntity
  8
CSLAYER1
  6
CONTINUOUS
 62
     3
100
AcDbVertex
100
AcDb2dVertex
 10
187.1790709999999
 20
85.54191600000001
 30
0.0
  0
VERTEX
  5
256
330
251
100
AcDbEntity
  8
CSLAYER1
  6
CONTINUOUS
 62
     3
100
AcDbVertex
100
AcDb2dVertex
 10
187.0675799999999
 20
85.88345600000002
 30
0.0
  0
VERTEX
  5
257
330
251
100
AcDbEntity
  8
CSLAYER1
  6
CONTINUOUS
 62
     3
100
AcDbVertex
100
AcDb2dVertex
 10
186.925695
 20
86.214311
 30
0.0
  0
VERTEX
  5
258
330
251
100
AcDbEntity
  8
CSLAYER1
  6
CONTINUOUS
 62
     3
100
AcDbVertex
100
AcDb2dVertex
 10
186.7544939999999
 20
86.53196300000001
 30
0.0
  0
VERTEX
  5
259
330
251
100
AcDbEntity
  8
CSLAYER1
  6
CONTINUOUS
 62
     3
100
AcDbVertex
100
AcDb2dVertex
 10
186.555283
 20
86.833995
 30
0.0
  0
VERTEX
  5
25A
330
251
100
AcDbEntity
  8
CSLAYER1
  6
CONTINUOUS
 62
     3
100
AcDbVertex
100
AcDb2dVertex
 10
186.3295749999999
 20
87.11810699999999
 30
0.0
  0
VERTEX
  5
25B
330
251
100
AcDbEntity
  8
CSLAYER1
  6
CONTINUOUS
 62
     3
100
AcDbVertex
100
AcDb2dVertex
 10
186.0790899999999
 20
87.38213700000001
 30
0.0
  0
VERTEX
  5
25C
330
251
100
AcDbEntity
  8
CSLAYER1
  6
CONTINUOUS
 62
     3
100
AcDbVertex
100
AcDb2dVertex
 10
185.805734
 20
87.62407600000001
 30
0.0
  0
VERTEX
  5
25D
330
251
100
AcDbEntity
  8
CSLAYER1
  6
CONTINUOUS
 62
     3
100
AcDbVertex
100
AcDb2dVertex
 10
185.511586
 20
87.84208300000001
 30
0.0
  0
VERTEX
  5
25E
330
251
100
AcDbEntity
  8
CSLAYER1
  6
CONTINUOUS
 62
     3
100
AcDbVertex
100
AcDb2dVertex
 10
185.198887
 20
88.034498
 30
0.0
  0
VERTEX
  5
25F
330
251
100
AcDbEntity
  8
CSLAYER1
  6
CONTINUOUS
 62
     3
100
AcDbVertex
100
AcDb2dVertex
 10
184.870014
 20
88.199857
 30
0.0
  0
VERTEX
  5
260
330
251
100
AcDbEntity
  8
CSLAYER1
  6
CONTINUOUS
 62
     3
100
AcDbVertex
100
AcDb2dVertex
 10
184.5274719999999
 20
88.33690199999999
 30
0.0
  0
VERTEX
  5
261
330
251
100
AcDbEntity
  8
CSLAYER1
  6
CONTINUOUS
 62
     3
100
AcDbVertex
100
AcDb2dVertex
 10
184.1738669999999
 20
88.44458900000001
 30
0.0
  0
VERTEX
  5
262
330
251
100
AcDbEntity
  8
CSLAYER1
  6
CONTINUOUS
 62
     3
100
AcDbVertex
100
AcDb2dVertex
 10
183.811891
 20
88.522099
 30
0.0
  0
VERTEX
  5
263
330
251
100
AcDbEntity
  8
CSLAYER1
  6
CONTINUOUS
 62
     3
100
AcDbVertex
100
AcDb2dVertex
 10
183.444298
 20
88.568843
 30
0.0
  0
VERTEX
  5
264
330
251
100
AcDbEntity
  8
CSLAYER1
  6
CONTINUOUS
 62
     3
100
AcDbVertex
100
AcDb2dVertex
 10
183.073887
 20
88.584463
 30
0.0
  0
VERTEX
  5
265
330
251
100
AcDbEntity
  8
CSLAYER1
  6
CONTINUOUS
 62
     3
100
AcDbVertex
100
AcDb2dVertex
 10
182.7034749999999
 20
88.568843
 30
0.0
  0
VERTEX
  5
266
330
251
100
AcDbEntity
  8
CSLAYER1
  6
CONTINUOUS
 62
     3
100
AcDbVertex
100
AcDb2dVertex
 10
182.3358819999999
 20
88.522099
 30
0.0
  0
VERTEX
  5
267
330
251
100
AcDbEntity
  8
CSLAYER1
  6
CONTINUOUS
 62
     3
100
AcDbVertex
100
AcDb2dVertex
 10
181.973906
 20
88.44458900000001
 30
0.0
  0
VERTEX
  5
268
330
251
100
AcDbEntity
  8
CSLAYER1
  6
CONTINUOUS
 62
     3
100
AcDbVertex
100
AcDb2dVertex
 10
181.620301
 20
88.33690199999999
 30
0.0
  0
VERTEX
  5
269
330
251
100
AcDbEntity
  8
CSLAYER1
  6
CONTINUOUS
 62
     3
100
AcDbVertex
100
AcDb2dVertex
 10
181.2777589999999
 20
88.199857
 30
0.0
  0
VERTEX
  5
26A
330
251
100
AcDbEntity
  8
CSLAYER1
  6
CONTINUOUS
 62
     3
100
AcDbVertex
100
AcDb2dVertex
 10
180.948887
 20
88.034498
 30
0.0
  0
VERTEX
  5
26B
330
251
100
AcDbEntity
  8
CSLAYER1
  6
CONTINUOUS
 62
     3
100
AcDbVertex
100
AcDb2dVertex
 10
180.636187
 20
87.84208300000001
 30
0.0
  0
VERTEX
  5
26C
330
251
100
AcDbEntity
  8
CSLAYER1
  6
CONTINUOUS
 62
     3
100
AcDbVertex
100
AcDb2dVertex
 10
180.342039
 20
87.62407600000001
 30
0.0
  0
VERTEX
  5
26D
330
251
100
AcDbEntity
  8
CSLAYER1
  6
CONTINUOUS
 62
     3
100
AcDbVertex
100
AcDb2dVertex
 10
180.068683
 20
87.38213700000001
 30
0.0
  0
VERTEX
  5
26E
330
251
100
AcDbEntity
  8
CSLAYER1
  6
CONTINUOUS
 62
     3
100
AcDbVertex
100
AcDb2dVertex
 10
179.818198
 20
87.11810699999999
 30
0.0
  0
VERTEX
  5
26F
330
251
100
AcDbEntity
  8
CSLAYER1
  6
CONTINUOUS
 62
     3
100
AcDbVertex
100
AcDb2dVertex
 10
179.5924899999999
 20
86.833995
 30
0.0
  0
VERTEX
  5
270
330
251
100
AcDbEntity
  8
CSLAYER1
  6
CONTINUOUS
 62
     3
100
AcDbVertex
100
AcDb2dVertex
 10
179.393279
 20
86.53196300000001
 30
0.0
  0
VERTEX
  5
271
330
251
100
AcDbEntity
  8
CSLAYER1
  6
CONTINUOUS
 62
     3
100
AcDbVertex
100
AcDb2dVertex
 10
179.222078
 20
86.214311
 30
0.0
  0
VERTEX
  5
272
330
251
100
AcDbEntity
  8
CSLAYER1
  6
CONTINUOUS
 62
     3
100
AcDbVertex
100
AcDb2dVertex
 10
179.0801929999999
 20
85.88345600000002
 30
0.0
  0
VERTEX
  5
273
330
251
100
AcDbEntity
  8
CSLAYER1
  6
CONTINUOUS
 62
     3
100
AcDbVertex
100
AcDb2dVertex
 10
178.968702
 20
85.54191600000001
 30
0.0
  0
VERTEX
  5
274
330
251
100
AcDbEntity
  8
CSLAYER1
  6
CONTINUOUS
 62
     3
100
AcDbVertex
100
AcDb2dVertex
 10
178.8884539999999
 20
85.19228899999999
 30
0.0
  0
VERTEX
  5
275
330
251
100
AcDbEntity
  8
CSLAYER1
  6
CONTINUOUS
 62
     3
100
AcDbVertex
100
AcDb2dVertex
 10
178.840059
 20
84.83723799999999
 30
0.0
  0
VERTEX
  5
276
330
251
100
AcDbEntity
  8
CSLAYER1
  6
CONTINUOUS
 62
     3
100
AcDbVertex
100
AcDb2dVertex
 10
178.823887
 20
84.47946299999999
 30
0.0
  0
VERTEX
  5
277
330
251
100
AcDbEntity
  8
CSLAYER1
  6
CONTINUOUS
 62
     3
100
AcDbVertex
100
AcDb2dVertex
 10
178.840059
 20
84.12168900000001
 30
0.0
  0
VERTEX
  5
278
330
251
100
AcDbEntity
  8
CSLAYER1
  6
CONTINUOUS
 62
     3
100
AcDbVertex
100
AcDb2dVertex
 10
178.8884539999999
 20
83.76663800000001
 30
0.0
  0
VERTEX
  5
279
330
251
100
AcDbEntity
  8
CSLAYER1
  6
CONTINUOUS
 62
     3
100
AcDbVertex
100
AcDb2dVertex
 10
178.968702
 20
83.41701099999999
 30
0.0
  0
VERTEX
  5
27A
330
251
100
AcDbEntity
  8
CSLAYER1
  6
CONTINUOUS
 62
     3
100
AcDbVertex
100
AcDb2dVertex
 10
179.0801929999999
 20
83.07547099999998
 30
0.0
  0
VERTEX
  5
27B
330
251
100
AcDbEntity
  8
CSLAYER1
  6
CONTINUOUS
 62
     3
100
AcDbVertex
100
AcDb2dVertex
 10
179.222078
 20
82.74461499999999
 30
0.0
  0
VERTEX
  5
27C
330
251
100
AcDbEntity
  8
CSLAYER1
  6
CONTINUOUS
 62
     3
100
AcDbVertex
100
AcDb2dVertex
 10
179.393279
 20
82.426963
 30
0.0
  0
VERTEX
  5
27D
330
251
100
AcDbEntity
  8
CSLAYER1
  6
CONTINUOUS
 62
     3
100
AcDbVertex
100
AcDb2dVertex
 10
179.5924899999999
 20
82.124932
 30
0.0
  0
VERTEX
  5
27E
330
251
100
AcDbEntity
  8
CSLAYER1
  6
CONTINUOUS
 62
     3
100
AcDbVertex
100
AcDb2dVertex
 10
179.818198
 20
81.84082
 30
0.0
  0
VERTEX
  5
27F
330
251
100
AcDbEntity
  8
CSLAYER1
  6
CONTINUOUS
 62
     3
100
AcDbVertex
100
AcDb2dVertex
 10
180.068683
 20
81.57678999999999
 30
0.0
  0
VERTEX
  5
280
330
251
100
AcDbEntity
  8
CSLAYER1
  6
CONTINUOUS
 62
     3
100
AcDbVertex
100
AcDb2dVertex
 10
180.342039
 20
81.33485099999999
 30
0.0
  0
VERTEX
  5
281
330
251
100
AcDbEntity
  8
CSLAYER1
  6
CONTINUOUS
 62
     3
100
AcDbVertex
100
AcDb2dVertex
 10
180.636187
 20
81.11684399999999
 30
0.0
  0
VERTEX
  5
282
330
251
100
AcDbEntity
  8
CSLAYER1
  6
CONTINUOUS
 62
     3
100
AcDbVertex
100
AcDb2dVertex
 10
180.948887
 20
80.92442899999999
 30
0.0
  0
VERTEX
  5
283
330
251
100
AcDbEntity
  8
CSLAYER1
  6
CONTINUOUS
 62
     3
100
AcDbVertex
100
AcDb2dVertex
 10
181.2777589999999
 20
80.75906999999999
 30
0.0
  0
VERTEX
  5
284
330
251
100
AcDbEntity
  8
CSLAYER1
  6
CONTINUOUS
 62
     3
100
AcDbVertex
100
AcDb2dVertex
 10
181.620301
 20
80.62202499999999
 30
0.0
  0
VERTEX
  5
285
330
251
100
AcDbEntity
  8
CSLAYER1
  6
CONTINUOUS
 62
     3
100
AcDbVertex
100
AcDb2dVertex
 10
181.973906
 20
80.51433799999999
 30
0.0
  0
VERTEX
  5
286
330
251
100
AcDbEntity
  8
CSLAYER1
  6
CONTINUOUS
 62
     3
100
AcDbVertex
100
AcDb2dVertex
 10
182.3358819999999
 20
80.436828
 30
0.0
  0
VERTEX
  5
287
330
251
100
AcDbEntity
  8
CSLAYER1
  6
CONTINUOUS
 62
     3
100
AcDbVertex
100
AcDb2dVertex
 10
182.7034749999999
 20
80.390084
 30
0.0
  0
VERTEX
  5
288
330
251
100
AcDbEntity
  8
CSLAYER1
  6
CONTINUOUS
 62
     3
100
AcDbVertex
100
AcDb2dVertex
 10
183.073887
 20
80.374463
 30
0.0
  0
VERTEX
  5
289
330
251
100
AcDbEntity
  8
CSLAYER1
  6
CONTINUOUS
 62
     3
100
AcDbVertex
100
AcDb2dVertex
 10
183.444298
 20
80.390084
 30
0.0
  0
VERTEX
  5
28A
330
251
100
AcDbEntity
  8
CSLAYER1
  6
CONTINUOUS
 62
     3
100
AcDbVertex
100
AcDb2dVertex
 10
183.811891
 20
80.436828
 30
0.0
  0
VERTEX
  5
28B
330
251
100
AcDbEntity
  8
CSLAYER1
  6
CONTINUOUS
 62
     3
100
AcDbVertex
100
AcDb2dVertex
 10
184.1738669999999
 20
80.51433799999999
 30
0.0
  0
VERTEX
  5
28C
330
251
100
AcDbEntity
  8
CSLAYER1
  6
CONTINUOUS
 62
     3
100
AcDbVertex
100
AcDb2dVertex
 10
184.5274719999999
 20
80.62202499999999
 30
0.0
  0
VERTEX
  5
28D
330
251
100
AcDbEntity
  8
CSLAYER1
  6
CONTINUOUS
 62
     3
100
AcDbVertex
100
AcDb2dVertex
 10
184.870014
 20
80.75906999999999
 30
0.0
  0
VERTEX
  5
28E
330
251
100
AcDbEntity
  8
CSLAYER1
  6
CONTINUOUS
 62
     3
100
AcDbVertex
100
AcDb2dVertex
 10
185.198887
 20
80.92442899999999
 30
0.0
  0
VERTEX
  5
28F
330
251
100
AcDbEntity
  8
CSLAYER1
  6
CONTINUOUS
 62
     3
100
AcDbVertex
100
AcDb2dVertex
 10
185.511586
 20
81.11684399999999
 30
0.0
  0
VERTEX
  5
290
330
251
100
AcDbEntity
  8
CSLAYER1
  6
CONTINUOUS
 62
     3
100
AcDbVertex
100
AcDb2dVertex
 10
185.805734
 20
81.33485099999999
 30
0.0
  0
VERTEX
  5
291
330
251
100
AcDbEntity
  8
CSLAYER1
  6
CONTINUOUS
 62
     3
100
AcDbVertex
100
AcDb2dVertex
 10
186.0790899999999
 20
81.57678999999999
 30
0.0
  0
VERTEX
  5
292
330
251
100
AcDbEntity
  8
CSLAYER1
  6
CONTINUOUS
 62
     3
100
AcDbVertex
100
AcDb2dVertex
 10
186.3295749999999
 20
81.84082
 30
0.0
  0
VERTEX
  5
293
330
251
100
AcDbEntity
  8
CSLAYER1
  6
CONTINUOUS
 62
     3
100
AcDbVertex
100
AcDb2dVertex
 10
186.555283
 20
82.124932
 30
0.0
  0
VERTEX
  5
294
330
251
100
AcDbEntity
  8
CSLAYER1
  6
CONTINUOUS
 62
     3
100
AcDbVertex
100
AcDb2dVertex
 10
186.7544939999999
 20
82.426963
 30
0.0
  0
VERTEX
  5
295
330
251
100
AcDbEntity
  8
CSLAYER1
  6
CONTINUOUS
 62
     3
100
AcDbVertex
100
AcDb2dVertex
 10
186.925695
 20
82.74461499999999
 30
0.0
  0
VERTEX
  5
296
330
251
100
AcDbEntity
  8
CSLAYER1
  6
CONTINUOUS
 62
     3
100
AcDbVertex
100
AcDb2dVertex
 10
187.0675799999999
 20
83.07547099999998
 30
0.0
  0
VERTEX
  5
297
330
251
100
AcDbEntity
  8
CSLAYER1
  6
CONTINUOUS
 62
     3
100
AcDbVertex
100
AcDb2dVertex
 10
187.1790709999999
 20
83.41701099999999
 30
0.0
  0
VERTEX
  5
298
330
251
100
AcDbEntity
  8
CSLAYER1
  6
CONTINUOUS
 62
     3
100
AcDbVertex
100
AcDb2dVertex
 10
187.259319
 20
83.76663800000001
 30
0.0
  0
VERTEX
  5
299
330
251
100
AcDbEntity
  8
CSLAYER1
  6
CONTINUOUS
 62
     3
100
AcDbVertex
100
AcDb2dVertex
 10
187.3077139999999
 20
84.12168900000001
 30
0.0
  0
VERTEX
  5
29A
330
251
100
AcDbEntity
  8
CSLAYER1
  6
CONTINUOUS
 62
     3
100
AcDbVertex
100
AcDb2dVertex
 10
187.323887
 20
84.47946299999999
 30
0.0
  0
SEQEND
  5
29B
330
251
100
AcDbEntity
  8
CSLAYER1
 62
     3
  0
LINE
  5
29C
330
1E
100
AcDbEntity
  8
CSLAYER1
  6
CENTER
 62
     4
100
AcDbLine
 10
284.603764
 20
41.14583999999999
 30
0.0
 11
284.603764
 21
58.968783
 31
0.0
  0
CIRCLE
  5
29D
330
1E
100
AcDbEntity
  8
CSLAYER1
  6
CONTINUOUS
 62
     4
100
AcDbCircle
 10
306.603764
 20
72.47946299999999
 30
0.0
 40
3.375
  0
LINE
  5
29E
330
1E
100
AcDbEntity
  8
CSLAYER1
  6
CENTER
 62
     4
100
AcDbLine
 10
343.8041359999999
 20
72.47946299999999
 30
0.0
 11
296.1477229999999
 21
72.47946299999999
 31
0.0
  0
LINE
  5
29F
330
1E
100
AcDbEntity
  8
CSLAYER1
  6
CENTER
 62
     4
100
AcDbLine
 10
341.603764
 20
107.0874629999999
 30
0.0
 11
341.603764
 21
180.085178
 31
0.0
  0
LINE
  5
2A0
330
1E
100
AcDbEntity
  8
CSLAYER1
  6
CENTER
 62
     4
100
AcDbLine
 10
335.1575149999999
 20
173.4794629999999
 30
0.0
 11
351.296907
 21
173.4794629999999
 31
0.0
  0
LINE
  5
2A1
330
1E
100
AcDbEntity
  8
CSLAYER1
  6
CENTER
 62
     4
100
AcDbLine
 10
301.7932129999999
 20
173.4794629999999
 30
0.0
 11
285.9106209999999
 21
173.4794629999999
 31
0.0
  0
LINE
  5
2A2
330
1E
100
AcDbEntity
  8
CSLAYER1
  6
CENTER
 62
     4
100
AcDbLine
 10
295.603764
 20
180.085178
 30
0.0
 11
295.603764
 21
107.0874629999999
 31
0.0
  0
LINE
  5
2A3
330
1E
100
AcDbEntity
  8
CSLAYER1
  6
CENTER
 62
     4
100
AcDbLine
 10
288.092865
 20
113.479463
 30
0.0
 11
303.965056
 21
113.479463
 31
0.0
  0
LINE
  5
2A4
330
1E
100
AcDbEntity
  8
CSLAYER1
  6
CENTER
 62
     4
100
AcDbLine
 10
204.3269529999999
 20
42.813388
 30
0.0
 11
204.3269529999999
 21
60.037771
 31
0.0
  0
LINE
  5
2A5
330
1E
100
AcDbEntity
  8
CSLAYER1
  6
DASHED
 62
     4
100
AcDbLine
 10
201.326953
 20
58.479463
 30
0.0
 11
157.326953
 21
58.479463
 31
0.0
  0
LINE
  5
2A6
330
1E
100
AcDbEntity
  8
CSLAYER1
  6
CENTER
 62
     4
100
AcDbLine
 10
164.3269529999999
 20
60.931122
 30
0.0
 11
164.3269529999999
 21
42.049355
 31
0.0
  0
LINE
  5
2A7
330
1E
100
AcDbEntity
  8
CSLAYER1
  6
CENTER
 62
     4
100
AcDbLine
 10
171.826953
 20
58.099945
 30
0.0
 11
171.826953
 21
71.510085
 31
0.0
  0
LINE
  5
2A8
330
1E
100
AcDbEntity
  8
CSLAYER1
  6
CENTER
 62
     4
100
AcDbLine
 10
175.8269529999999
 20
71.579774
 30
0.0
 11
175.8269529999999
 21
247.7007109999999
 31
0.0
  0
LINE
  5
2A9
330
1E
100
AcDbEntity
  8
CSLAYER1
  6
CENTER
 62
     4
100
AcDbLine
 10
150.973035
 20
229.4794629999999
 30
0.0
 11
200.9709799999999
 21
229.4794629999999
 31
0.0
  0
LINE
  5
2AA
330
1E
100
AcDbEntity
  8
CSLAYER1
  6
CENTER
 62
     4
100
AcDbLine
 10
198.826953
 20
189.553302
 30
0.0
 11
198.826953
 21
117.8881159999999
 31
0.0
  0
LINE
  5
2AB
330
1E
100
AcDbEntity
  8
CSLAYER1
  6
CENTER
 62
     4
100
AcDbLine
 10
195.5006679999999
 20
113.479463
 30
0.0
 11
219.10865
 21
113.479463
 31
0.0
  0
LINE
  5
2AC
330
1E
100
AcDbEntity
  8
CSLAYER1
  6
CENTER
 62
     4
100
AcDbLine
 10
224.521287
 20
86.47946299999999
 30
0.0
 11
266.394189
 21
86.47946299999999
 31
0.0
  0
LINE
  5
2AD
330
1E
100
AcDbEntity
  8
CSLAYER1
  6
DASHED
 62
     4
100
AcDbLine
 10
226.3269529999999
 20
94.47946299999999
 30
0.0
 11
232.3269529999999
 21
94.47946299999999
 31
0.0
  0
LINE
  5
2AE
330
1E
100
AcDbEntity
  8
CSLAYER1
  6
DASHED
 62
     4
100
AcDbLine
 10
226.3269529999999
 20
108.4794629999999
 30
0.0
 11
232.3269529999999
 21
108.4794629999999
 31
0.0
  0
LINE
  5
2AF
330
1E
100
AcDbEntity
  8
CSLAYER1
  6
CENTER
 62
     4
100
AcDbLine
 10
190.049631
 20
84.47946299999999
 30
0.0
 11
175.965251
 21
84.47946299999999
 31
0.0
  0
LINE
  5
2B0
330
1E
100
AcDbEntity
  8
CSLAYER1
  6
CENTER
 62
     4
100
AcDbLine
 10
183.073887
 20
77.211252
 30
0.0
 11
183.073887
 21
91.80266999999998
 31
0.0
  0
LINE
  5
2B1
330
1E
100
AcDbEntity
  8
CSLAYER1
  6
CENTER
 62
     4
100
AcDbLine
 10
193.647981
 20
124.4794629999999
 30
0.0
 11
206.183695
 21
124.4794629999999
 31
0.0
  0
CIRCLE
  5
2B2
330
1E
100
AcDbEntity
  8
CSLAYER1
  6
CONTINUOUS
 62
     4
100
AcDbCircle
 10
198.826953
 20
124.4794629999999
 30
0.0
 40
2.5
  0
LINE
  5
2B3
330
1E
100
AcDbEntity
  8
CSLAYER1
  6
CENTER
 62
     4
100
AcDbLine
 10
158.0059259999999
 20
124.4794629999999
 30
0.0
 11
144.7571029999999
 21
124.4794629999999
 31
0.0
  0
CIRCLE
  5
2B4
330
1E
100
AcDbEntity
  8
CSLAYER1
  6
CONTINUOUS
 62
     4
100
AcDbCircle
 10
152.826953
 20
124.4794629999999
 30
0.0
 40
2.5
  0
LINE
  5
2B5
330
1E
100
AcDbEntity
  8
CSLAYER1
  6
CENTER
 62
     4
100
AcDbLine
 10
152.826953
 20
117.8881159999999
 30
0.0
 11
152.826953
 21
189.553302
 31
0.0
  0
CIRCLE
  5
2B6
330
1E
100
AcDbEntity
  8
CSLAYER1
  6
CONTINUOUS
 62
     4
100
AcDbCircle
 10
152.826953
 20
184.4794629999999
 30
0.0
 40
2.5
  0
LINE
  5
2B7
330
1E
100
AcDbEntity
  8
CSLAYER1
  6
CENTER
 62
     4
100
AcDbLine
 10
157.780563
 20
184.4794629999999
 30
0.0
 11
145.236999
 21
184.4794629999999
 31
0.0
  0
LINE
  5
2B8
330
1E
100
AcDbEntity
  8
CSLAYER1
  6
CENTER
 62
     4
100
AcDbLine
 10
120.0501239999999
 20
171.05728
 30
0.0
 11
29.365378
 21
171.05728
 31
0.0
  0
LINE
  5
2B9
330
1E
100
AcDbEntity
  8
CSLAYER1
  6
DASHED
 62
     4
100
AcDbLine
 10
40.52249299999999
 20
183.0572799999999
 30
0.0
 11
94.52249300000001
 21
183.0572799999999
 31
0.0
  0
LINE
  5
2BA
330
1E
100
AcDbEntity
  8
CSLAYER17
  6
DASHED
 62
     4
100
AcDbLine
 10
94.52249300000001
 20
183.0572799999999
 30
0.0
 11
94.52249300000001
 21
159.0572799999999
 31
0.0
  0
LINE
  5
2BB
330
1E
100
AcDbEntity
  8
CSLAYER1
  6
DASHED
 62
     4
100
AcDbLine
 10
94.52249300000001
 20
159.0572799999999
 30
0.0
 11
40.52249299999999
 21
159.0572799999999
 31
0.0
  0
LINE
  5
2BC
330
1E
100
AcDbEntity
  8
CSLAYER17
  6
CENTER
 62
     4
100
AcDbLine
 10
47.52249299999999
 20
165.739527
 30
0.0
 11
47.52249299999999
 21
176.301325
 31
0.0
  0
CIRCLE
  5
2BD
330
1E
100
AcDbEntity
  8
CSLAYER17
  6
CONTINUOUS
 62
     4
100
AcDbCircle
 10
47.52249299999999
 20
171.05728
 30
0.0
 40
2.0
  0
LINE
  5
2BE
330
1E
100
AcDbEntity
  8
CSLAYER1
  6
CENTER
 62
     4
100
AcDbLine
 10
65.75165
 20
205.0572799999999
 30
0.0
 11
81.96310699999999
 21
205.0572799999999
 31
0.0
  0
LINE
  5
2BF
330
1E
100
AcDbEntity
  8
CSLAYER17
  6
CENTER
 62
     4
100
AcDbLine
 10
73.52249300000001
 20
215.711499
 30
0.0
 11
73.52249300000001
 21
126.7852169999999
 31
0.0
  0
LINE
  5
2C0
330
1E
100
AcDbEntity
  8
CSLAYER17
  6
CONTINUOUS
 62
     4
100
AcDbLine
 10
86.61790299999999
 20
115.4202069999999
 30
0.0
 11
72.564971
 21
115.4202069999999
 31
0.0
  0
LINE
  5
2C1
330
1E
100
AcDbEntity
  8
CSLAYER17
  6
CENTER
 62
     4
100
AcDbLine
 10
87.522493
 20
165.739527
 30
0.0
 11
87.522493
 21
176.301325
 31
0.0
  0
CIRCLE
  5
2C2
330
1E
100
AcDbEntity
  8
CSLAYER17
  6
CONTINUOUS
 62
     4
100
AcDbCircle
 10
87.522493
 20
171.05728
 30
0.0
 40
2.0
  0
LINE
  5
2C3
330
1E
100
AcDbEntity
  8
CSLAYER1
  6
CENTER
 62
     4
100
AcDbLine
 10
193.873343
 20
184.4794629999999
 30
0.0
 11
206.5036249999999
 21
184.4794629999999
 31
0.0
  0
CIRCLE
  5
2C4
330
1E
100
AcDbEntity
  8
CSLAYER1
  6
CONTINUOUS
 62
     4
100
AcDbCircle
 10
198.826953
 20
184.4794629999999
 30
0.0
 40
2.5
  0
LINE
  5
2C5
330
1E
100
AcDbEntity
  8
CSLAYER1
  6
CENTER
 62
     4
100
AcDbLine
 10
197.085945
 20
173.4794629999999
 30
0.0
 11
218.5071
 21
173.4794629999999
 31
0.0
  0
LINE
  5
2C6
330
1E
100
AcDbEntity
  8
CSLAYER1
  6
CENTER
 62
     4
100
AcDbLine
 10
307.4931029999999
 20
228.4794629999999
 30
0.0
 11
329.5786059999999
 21
228.4794629999999
 31
0.0
  0
LINE
  5
2C7
330
1E
100
AcDbEntity
  8
CSLAYER1
  6
CENTER
 62
     4
100
AcDbLine
 10
318.603764
 20
249.6589209999999
 30
0.0
 11
318.603764
 21
41.51127999999999
 31
0.0
  0
LINE
  5
2C8
330
1E
100
AcDbEntity
  8
CSLAYER1
  6
CENTER
 62
     4
100
AcDbLine
 10
352.603764
 20
41.14583999999999
 30
0.0
 11
352.603764
 21
58.968783
 31
0.0
  0
LINE
  5
2C9
330
1E
100
AcDbEntity
  8
CSLAYER1
  6
DASHED
 62
     4
100
AcDbLine
 10
360.603764
 20
50.479463
 30
0.0
 11
276.6037639999999
 21
50.479463
 31
0.0
  0
LINE
  5
2CA
330
1E
100
AcDbEntity
  8
CSLAYER1
  6
CENTER
 62
     4
100
AcDbLine
 10
269.475772
 20
101.4794629999999
 30
0.0
 11
201.629833
 21
101.4794629999999
 31
0.0
  0
LINE
  5
2CB
330
1E
100
AcDbEntity
  8
CSLAYER1
  6
CENTER
 62
     4
100
AcDbLine
 10
186.826953
 20
71.554878
 30
0.0
 11
186.826953
 21
58.099945
 31
0.0
  0
LINE
  5
2CC
330
1E
100
AcDbEntity
  8
CSLAYER17
  6
CONTINUOUS
 62
     4
100
AcDbLine
 10
187.440888
 20
42.74294199999999
 30
0.0
 11
187.440888
 21
35.481227
 31
0.0
  0
LINE
  5
2CD
330
1E
100
AcDbEntity
  8
CSLAYER17
  6
CONTINUOUS
 62
     4
100
AcDbLine
 10
187.440888
 20
42.74294199999999
 30
0.0
 11
186.664431
 21
39.845164
 31
0.0
  0
LINE
  5
2CE
330
1E
100
AcDbEntity
  8
CSLAYER17
  6
CONTINUOUS
 62
     4
100
AcDbLine
 10
187.440888
 20
42.74294199999999
 30
0.0
 11
188.2173449999999
 21
39.845164
 31
0.0
  0
LINE
  5
2CF
330
1E
100
AcDbEntity
  8
CSLAYER1
  6
CENTER
 62
     4
100
AcDbLine
 10
333.242471
 20
113.479463
 30
0.0
 11
349.114662
 21
113.479463
 31
0.0
  0
POLYLINE
  5
2D0
330
1E
100
AcDbEntity
  8
CSLAYER1
  6
CONTINUOUS
 62
     4
100
AcDb2dPolyline
 66
     1
 10
0.0
 20
0.0
 30
0.0
  0
VERTEX
  5
2D1
330
2D0
100
AcDbEntity
  8
CSLAYER1
  6
CONTINUOUS
 62
     4
100
AcDbVertex
100
AcDb2dVertex
 10
187.823887
 20
84.47946299999999
 30
0.0
  0
VERTEX
  5
2D2
330
2D0
100
AcDbEntity
  8
CSLAYER1
  6
CONTINUOUS
 62
     4
100
AcDbVertex
100
AcDb2dVertex
 10
187.8058109999999
 20
84.87907299999999
 30
0.0
  0
VERTEX
  5
2D3
330
2D0
100
AcDbEntity
  8
CSLAYER1
  6
CONTINUOUS
 62
     4
100
AcDbVertex
100
AcDb2dVertex
 10
187.751723
 20
85.27563999999999
 30
0.0
  0
VERTEX
  5
2D4
330
2D0
100
AcDbEntity
  8
CSLAYER1
  6
CONTINUOUS
 62
     4
100
AcDbVertex
100
AcDb2dVertex
 10
187.662034
 20
85.66614900000001
 30
0.0
  0
VERTEX
  5
2D5
330
2D0
100
AcDbEntity
  8
CSLAYER1
  6
CONTINUOUS
 62
     4
100
AcDbVertex
100
AcDb2dVertex
 10
187.537426
 20
86.04762599999999
 30
0.0
  0
VERTEX
  5
2D6
330
2D0
100
AcDbEntity
  8
CSLAYER1
  6
CONTINUOUS
 62
     4
100
AcDbVertex
100
AcDb2dVertex
 10
187.3788479999999
 20
86.41716800000001
 30
0.0
  0
VERTEX
  5
2D7
330
2D0
100
AcDbEntity
  8
CSLAYER1
  6
CONTINUOUS
 62
     4
100
AcDbVertex
100
AcDb2dVertex
 10
187.187507
 20
86.771963
 30
0.0
  0
VERTEX
  5
2D8
330
2D0
100
AcDbEntity
  8
CSLAYER1
  6
CONTINUOUS
 62
     4
100
AcDbVertex
100
AcDb2dVertex
 10
186.964859
 20
87.10931100000001
 30
0.0
  0
VERTEX
  5
2D9
330
2D0
100
AcDbEntity
  8
CSLAYER1
  6
CONTINUOUS
 62
     4
100
AcDbVertex
100
AcDb2dVertex
 10
186.7125979999999
 20
87.426645
 30
0.0
  0
VERTEX
  5
2DA
330
2D0
100
AcDbEntity
  8
CSLAYER1
  6
CONTINUOUS
 62
     4
100
AcDbVertex
100
AcDb2dVertex
 10
186.4326439999999
 20
87.721548
 30
0.0
  0
VERTEX
  5
2DB
330
2D0
100
AcDbEntity
  8
CSLAYER1
  6
CONTINUOUS
 62
     4
100
AcDbVertex
100
AcDb2dVertex
 10
186.127128
 20
87.99177699999999
 30
0.0
  0
VERTEX
  5
2DC
330
2D0
100
AcDbEntity
  8
CSLAYER1
  6
CONTINUOUS
 62
     4
100
AcDbVertex
100
AcDb2dVertex
 10
185.798375
 20
88.235276
 30
0.0
  0
VERTEX
  5
2DD
330
2D0
100
AcDbEntity
  8
CSLAYER1
  6
CONTINUOUS
 62
     4
100
AcDbVertex
100
AcDb2dVertex
 10
185.448887
 20
88.45019
 30
0.0
  0
VERTEX
  5
2DE
330
2D0
100
AcDbEntity
  8
CSLAYER1
  6
CONTINUOUS
 62
     4
100
AcDbVertex
100
AcDb2dVertex
 10
185.0813229999999
 20
88.634885
 30
0.0
  0
VERTEX
  5
2DF
330
2D0
100
AcDbEntity
  8
CSLAYER1
  6
CONTINUOUS
 62
     4
100
AcDbVertex
100
AcDb2dVertex
 10
184.698482
 20
88.78795399999999
 30
0.0
  0
VERTEX
  5
2E0
330
2D0
100
AcDbEntity
  8
CSLAYER1
  6
CONTINUOUS
 62
     4
100
AcDbVertex
100
AcDb2dVertex
 10
184.303277
 20
88.90823299999999
 30
0.0
  0
VERTEX
  5
2E1
330
2D0
100
AcDbEntity
  8
CSLAYER1
  6
CONTINUOUS
 62
     4
100
AcDbVertex
100
AcDb2dVertex
 10
183.8987149999999
 20
88.99480699999999
 30
0.0
  0
VERTEX
  5
2E2
330
2D0
100
AcDbEntity
  8
CSLAYER1
  6
CONTINUOUS
 62
     4
100
AcDbVertex
100
AcDb2dVertex
 10
183.487876
 20
89.047016
 30
0.0
  0
VERTEX
  5
2E3
330
2D0
100
AcDbEntity
  8
CSLAYER1
  6
CONTINUOUS
 62
     4
100
AcDbVertex
100
AcDb2dVertex
 10
183.073887
 20
89.064463
 30
0.0
  0
VERTEX
  5
2E4
330
2D0
100
AcDbEntity
  8
CSLAYER1
  6
CONTINUOUS
 62
     4
100
AcDbVertex
100
AcDb2dVertex
 10
182.659897
 20
89.047016
 30
0.0
  0
VERTEX
  5
2E5
330
2D0
100
AcDbEntity
  8
CSLAYER1
  6
CONTINUOUS
 62
     4
100
AcDbVertex
100
AcDb2dVertex
 10
182.249058
 20
88.99480699999999
 30
0.0
  0
VERTEX
  5
2E6
330
2D0
100
AcDbEntity
  8
CSLAYER1
  6
CONTINUOUS
 62
     4
100
AcDbVertex
100
AcDb2dVertex
 10
181.8444959999999
 20
88.90823299999999
 30
0.0
  0
VERTEX
  5
2E7
330
2D0
100
AcDbEntity
  8
CSLAYER1
  6
CONTINUOUS
 62
     4
100
AcDbVertex
100
AcDb2dVertex
 10
181.449291
 20
88.78795399999999
 30
0.0
  0
VERTEX
  5
2E8
330
2D0
100
AcDbEntity
  8
CSLAYER1
  6
CONTINUOUS
 62
     4
100
AcDbVertex
100
AcDb2dVertex
 10
181.06645
 20
88.634885
 30
0.0
  0
VERTEX
  5
2E9
330
2D0
100
AcDbEntity
  8
CSLAYER1
  6
CONTINUOUS
 62
     4
100
AcDbVertex
100
AcDb2dVertex
 10
180.6988869999999
 20
88.45019
 30
0.0
  0
VERTEX
  5
2EA
330
2D0
100
AcDbEntity
  8
CSLAYER1
  6
CONTINUOUS
 62
     4
100
AcDbVertex
100
AcDb2dVertex
 10
180.349398
 20
88.235276
 30
0.0
  0
VERTEX
  5
2EB
330
2D0
100
AcDbEntity
  8
CSLAYER1
  6
CONTINUOUS
 62
     4
100
AcDbVertex
100
AcDb2dVertex
 10
180.020645
 20
87.99177699999999
 30
0.0
  0
VERTEX
  5
2EC
330
2D0
100
AcDbEntity
  8
CSLAYER1
  6
CONTINUOUS
 62
     4
100
AcDbVertex
100
AcDb2dVertex
 10
179.7151289999999
 20
87.721548
 30
0.0
  0
VERTEX
  5
2ED
330
2D0
100
AcDbEntity
  8
CSLAYER1
  6
CONTINUOUS
 62
     4
100
AcDbVertex
100
AcDb2dVertex
 10
179.4351749999999
 20
87.426645
 30
0.0
  0
VERTEX
  5
2EE
330
2D0
100
AcDbEntity
  8
CSLAYER1
  6
CONTINUOUS
 62
     4
100
AcDbVertex
100
AcDb2dVertex
 10
179.1829139999999
 20
87.10931100000001
 30
0.0
  0
VERTEX
  5
2EF
330
2D0
100
AcDbEntity
  8
CSLAYER1
  6
CONTINUOUS
 62
     4
100
AcDbVertex
100
AcDb2dVertex
 10
178.9602659999999
 20
86.771963
 30
0.0
  0
VERTEX
  5
2F0
330
2D0
100
AcDbEntity
  8
CSLAYER1
  6
CONTINUOUS
 62
     4
100
AcDbVertex
100
AcDb2dVertex
 10
178.7689249999999
 20
86.41716800000001
 30
0.0
  0
VERTEX
  5
2F1
330
2D0
100
AcDbEntity
  8
CSLAYER1
  6
CONTINUOUS
 62
     4
100
AcDbVertex
100
AcDb2dVertex
 10
178.610347
 20
86.04762599999999
 30
0.0
  0
VERTEX
  5
2F2
330
2D0
100
AcDbEntity
  8
CSLAYER1
  6
CONTINUOUS
 62
     4
100
AcDbVertex
100
AcDb2dVertex
 10
178.4857389999999
 20
85.66614900000001
 30
0.0
  0
VERTEX
  5
2F3
330
2D0
100
AcDbEntity
  8
CSLAYER1
  6
CONTINUOUS
 62
     4
100
AcDbVertex
100
AcDb2dVertex
 10
178.39605
 20
85.27563999999999
 30
0.0
  0
VERTEX
  5
2F4
330
2D0
100
AcDbEntity
  8
CSLAYER1
  6
CONTINUOUS
 62
     4
100
AcDbVertex
100
AcDb2dVertex
 10
178.341962
 20
84.87907299999999
 30
0.0
  0
VERTEX
  5
2F5
330
2D0
100
AcDbEntity
  8
CSLAYER1
  6
CONTINUOUS
 62
     4
100
AcDbVertex
100
AcDb2dVertex
 10
178.323887
 20
84.47946299999999
 30
0.0
  0
VERTEX
  5
2F6
330
2D0
100
AcDbEntity
  8
CSLAYER1
  6
CONTINUOUS
 62
     4
100
AcDbVertex
100
AcDb2dVertex
 10
178.341962
 20
84.07985399999999
 30
0.0
  0
VERTEX
  5
2F7
330
2D0
100
AcDbEntity
  8
CSLAYER1
  6
CONTINUOUS
 62
     4
100
AcDbVertex
100
AcDb2dVertex
 10
178.39605
 20
83.68328699999999
 30
0.0
  0
VERTEX
  5
2F8
330
2D0
100
AcDbEntity
  8
CSLAYER1
  6
CONTINUOUS
 62
     4
100
AcDbVertex
100
AcDb2dVertex
 10
178.4857389999999
 20
83.29277799999999
 30
0.0
  0
VERTEX
  5
2F9
330
2D0
100
AcDbEntity
  8
CSLAYER1
  6
CONTINUOUS
 62
     4
100
AcDbVertex
100
AcDb2dVertex
 10
178.610347
 20
82.911301
 30
0.0
  0
VERTEX
  5
2FA
330
2D0
100
AcDbEntity
  8
CSLAYER1
  6
CONTINUOUS
 62
     4
100
AcDbVertex
100
AcDb2dVertex
 10
178.7689249999999
 20
82.54175899999999
 30
0.0
  0
VERTEX
  5
2FB
330
2D0
100
AcDbEntity
  8
CSLAYER1
  6
CONTINUOUS
 62
     4
100
AcDbVertex
100
AcDb2dVertex
 10
178.9602659999999
 20
82.18696300000001
 30
0.0
  0
VERTEX
  5
2FC
330
2D0
100
AcDbEntity
  8
CSLAYER1
  6
CONTINUOUS
 62
     4
100
AcDbVertex
100
AcDb2dVertex
 10
179.1829139999999
 20
81.849615
 30
0.0
  0
VERTEX
  5
2FD
330
2D0
100
AcDbEntity
  8
CSLAYER1
  6
CONTINUOUS
 62
     4
100
AcDbVertex
100
AcDb2dVertex
 10
179.4351749999999
 20
81.53228199999999
 30
0.0
  0
VERTEX
  5
2FE
330
2D0
100
AcDbEntity
  8
CSLAYER1
  6
CONTINUOUS
 62
     4
100
AcDbVertex
100
AcDb2dVertex
 10
179.7151289999999
 20
81.237379
 30
0.0
  0
VERTEX
  5
2FF
330
2D0
100
AcDbEntity
  8
CSLAYER1
  6
CONTINUOUS
 62
     4
100
AcDbVertex
100
AcDb2dVertex
 10
180.020645
 20
80.96715000000001
 30
0.0
  0
VERTEX
  5
300
330
2D0
100
AcDbEntity
  8
CSLAYER1
  6
CONTINUOUS
 62
     4
100
AcDbVertex
100
AcDb2dVertex
 10
180.349398
 20
80.723651
 30
0.0
  0
VERTEX
  5
301
330
2D0
100
AcDbEntity
  8
CSLAYER1
  6
CONTINUOUS
 62
     4
100
AcDbVertex
100
AcDb2dVertex
 10
180.6988869999999
 20
80.508737
 30
0.0
  0
VERTEX
  5
302
330
2D0
100
AcDbEntity
  8
CSLAYER1
  6
CONTINUOUS
 62
     4
100
AcDbVertex
100
AcDb2dVertex
 10
181.06645
 20
80.324042
 30
0.0
  0
VERTEX
  5
303
330
2D0
100
AcDbEntity
  8
CSLAYER1
  6
CONTINUOUS
 62
     4
100
AcDbVertex
100
AcDb2dVertex
 10
181.449291
 20
80.17097300000001
 30
0.0
  0
VERTEX
  5
304
330
2D0
100
AcDbEntity
  8
CSLAYER1
  6
CONTINUOUS
 62
     4
100
AcDbVertex
100
AcDb2dVertex
 10
181.8444959999999
 20
80.050694
 30
0.0
  0
VERTEX
  5
305
330
2D0
100
AcDbEntity
  8
CSLAYER1
  6
CONTINUOUS
 62
     4
100
AcDbVertex
100
AcDb2dVertex
 10
182.249058
 20
79.96411999999999
 30
0.0
  0
VERTEX
  5
306
330
2D0
100
AcDbEntity
  8
CSLAYER1
  6
CONTINUOUS
 62
     4
100
AcDbVertex
100
AcDb2dVertex
 10
182.659897
 20
79.911911
 30
0.0
  0
VERTEX
  5
307
330
2D0
100
AcDbEntity
  8
CSLAYER1
  6
CONTINUOUS
 62
     4
100
AcDbVertex
100
AcDb2dVertex
 10
183.073887
 20
79.894463
 30
0.0
  0
VERTEX
  5
308
330
2D0
100
AcDbEntity
  8
CSLAYER1
  6
CONTINUOUS
 62
     4
100
AcDbVertex
100
AcDb2dVertex
 10
183.487876
 20
79.911911
 30
0.0
  0
VERTEX
  5
309
330
2D0
100
AcDbEntity
  8
CSLAYER1
  6
CONTINUOUS
 62
     4
100
AcDbVertex
100
AcDb2dVertex
 10
183.8987149999999
 20
79.96411999999999
 30
0.0
  0
VERTEX
  5
30A
330
2D0
100
AcDbEntity
  8
CSLAYER1
  6
CONTINUOUS
 62
     4
100
AcDbVertex
100
AcDb2dVertex
 10
184.303277
 20
80.050694
 30
0.0
  0
VERTEX
  5
30B
330
2D0
100
AcDbEntity
  8
CSLAYER1
  6
CONTINUOUS
 62
     4
100
AcDbVertex
100
AcDb2dVertex
 10
184.698482
 20
80.17097300000001
 30
0.0
  0
VERTEX
  5
30C
330
2D0
100
AcDbEntity
  8
CSLAYER1
  6
CONTINUOUS
 62
     4
100
AcDbVertex
100
AcDb2dVertex
 10
185.0813229999999
 20
80.324042
 30
0.0
  0
VERTEX
  5
30D
330
2D0
100
AcDbEntity
  8
CSLAYER1
  6
CONTINUOUS
 62
     4
100
AcDbVertex
100
AcDb2dVertex
 10
185.448887
 20
80.508737
 30
0.0
  0
VERTEX
  5
30E
330
2D0
100
AcDbEntity
  8
CSLAYER1
  6
CONTINUOUS
 62
     4
100
AcDbVertex
100
AcDb2dVertex
 10
185.798375
 20
80.723651
 30
0.0
  0
VERTEX
  5
30F
330
2D0
100
AcDbEntity
  8
CSLAYER1
  6
CONTINUOUS
 62
     4
100
AcDbVertex
100
AcDb2dVertex
 10
186.127128
 20
80.96715000000001
 30
0.0
  0
VERTEX
  5
310
330
2D0
100
AcDbEntity
  8
CSLAYER1
  6
CONTINUOUS
 62
     4
100
AcDbVertex
100
AcDb2dVertex
 10
186.4326439999999
 20
81.237379
 30
0.0
  0
VERTEX
  5
311
330
2D0
100
AcDbEntity
  8
CSLAYER1
  6
CONTINUOUS
 62
     4
100
AcDbVertex
100
AcDb2dVertex
 10
186.7125979999999
 20
81.53228199999999
 30
0.0
  0
VERTEX
  5
312
330
2D0
100
AcDbEntity
  8
CSLAYER1
  6
CONTINUOUS
 62
     4
100
AcDbVertex
100
AcDb2dVertex
 10
186.964859
 20
81.849615
 30
0.0
  0
VERTEX
  5
313
330
2D0
100
AcDbEntity
  8
CSLAYER1
  6
CONTINUOUS
 62
     4
100
AcDbVertex
100
AcDb2dVertex
 10
187.187507
 20
82.18696300000001
 30
0.0
  0
VERTEX
  5
314
330
2D0
100
AcDbEntity
  8
CSLAYER1
  6
CONTINUOUS
 62
     4
100
AcDbVertex
100
AcDb2dVertex
 10
187.3788479999999
 20
82.54175899999999
 30
0.0
  0
VERTEX
  5
315
330
2D0
100
AcDbEntity
  8
CSLAYER1
  6
CONTINUOUS
 62
     4
100
AcDbVertex
100
AcDb2dVertex
 10
187.537426
 20
82.911301
 30
0.0
  0
VERTEX
  5
316
330
2D0
100
AcDbEntity
  8
CSLAYER1
  6
CONTINUOUS
 62
     4
100
AcDbVertex
100
AcDb2dVertex
 10
187.662034
 20
83.29277799999999
 30
0.0
  0
VERTEX
  5
317
330
2D0
100
AcDbEntity
  8
CSLAYER1
  6
CONTINUOUS
 62
     4
100
AcDbVertex
100
AcDb2dVertex
 10
187.751723
 20
83.68328699999999
 30
0.0
  0
VERTEX
  5
318
330
2D0
100
AcDbEntity
  8
CSLAYER1
  6
CONTINUOUS
 62
     4
100
AcDbVertex
100
AcDb2dVertex
 10
187.8058109999999
 20
84.07985399999999
 30
0.0
  0
VERTEX
  5
319
330
2D0
100
AcDbEntity
  8
CSLAYER1
  6
CONTINUOUS
 62
     4
100
AcDbVertex
100
AcDb2dVertex
 10
187.823887
 20
84.47946299999999
 30
0.0
  0
SEQEND
  5
31A
330
2D0
100
AcDbEntity
  8
CSLAYER1
 62
     4
  0
TEXT
  5
31B
330
1E
100
AcDbEntity
  8
CSLAYER17
 62
     4
100
AcDbText
 10
72.917276
 20
115.920204
 30
0.0
 40
3.2
  1
A矢視図
 41
0.9374999999999996
  7
FX_FONT
 72
     5
 11
85.717276
 21
115.920204
 31
0.0
100
AcDbText
  0
TEXT
  5
31C
330
1E
100
AcDbEntity
  8
CSLAYER17
 62
     4
100
AcDbText
 10
186.940887
 20
36.18372199999999
 30
0.0
 40
3.2
  1
A
 50
90.0
 41
1.500000000000001
  7
FX_FONT
 72
     5
 11
186.940887
 21
39.38372199999999
 31
0.0
100
AcDbText
  0
INSERT
  5
31D
330
1E
100
AcDbEntity
  8
CSLAYER1
100
AcDbBlockReference
  2
FXDIM0000
 10
0.0
 20
0.0
 30
0.0
  0
DIMENSION
  5
31E
330
1E
100
AcDbEntity
  8
CSLAYER1
 62
     4
100
AcDbDimension
  2
*D1
 10
133.864562
 20
244.479463
 30
0.0
 11
133.3645629999999
 21
159.479462
 31
0.0
100
AcDbAlignedDimension
 13
154.326953
 23
74.47946299999999
 33
0.0
 14
152.826953
 24
244.479463
 34
0.0
 50
90.0
100
AcDbRotatedDimension
  0
DIMENSION
  5
31F
330
1E
100
AcDbEntity
  8
CSLAYER1
 62
     4
100
AcDbDimension
  2
*D2
 10
139.864562
 20
244.479463
 30
0.0
 11
139.3645629999999
 21
236.9794619999999
 31
0.0
100
AcDbAlignedDimension
 13
150.973035
 23
229.4794629999999
 33
0.0
 14
152.826953
 24
244.479463
 34
0.0
 50
90.0
100
AcDbRotatedDimension
  0
DIMENSION
  5
320
330
1E
100
AcDbEntity
  8
CSLAYER1
 62
     4
100
AcDbDimension
  2
*D3
 10
127.864562
 20
244.479463
 30
0.0
 11
127.3645629999999
 21
144.479462
 31
0.0
100
AcDbAlignedDimension
 13
157.326953
 23
44.479463
 33
0.0
 14
157.826953
 24
244.479463
 34
0.0
 50
90.0
100
AcDbRotatedDimension
  0
DIMENSION
  5
321
330
1E
100
AcDbEntity
  8
CSLAYER1
 62
     4
100
AcDbDimension
  2
*D4
 10
133.864562
 20
50.479463
 30
0.0
 11
133.3645629999999
 21
47.479462
 31
0.0
100
AcDbAlignedDimension
 13
147.826953
 23
44.479463
 33
0.0
 14
157.326953
 24
50.479463
 34
0.0
 50
90.0
100
AcDbRotatedDimension
  0
DIMENSION
  5
322
330
1E
100
AcDbEntity
  8
CSLAYER1
 62
     4
100
AcDbDimension
  2
*D5
 10
133.864562
 20
64.47946299999999
 30
0.0
 11
133.3645629999999
 21
57.479462
 31
0.0
 70
     1
100
AcDbAlignedDimension
 13
157.326953
 23
50.479463
 33
0.0
 14
157.326953
 24
64.47946299999999
 34
0.0
  0
DIMENSION
  5
323
330
1E
100
AcDbEntity
  8
CSLAYER1
 62
     4
100
AcDbDimension
  2
*D6
 10
133.864562
 20
70.47946299999999
 30
0.0
 11
133.3645629999999
 21
67.479462
 31
0.0
 70
     1
100
AcDbAlignedDimension
 13
157.326953
 23
64.47946299999999
 33
0.0
 14
157.326953
 24
70.47946299999999
 34
0.0
  0
DIMENSION
  5
324
330
1E
100
AcDbEntity
  8
CSLAYER1
 62
     4
100
AcDbDimension
  2
*D7
 10
133.864562
 20
74.47946299999999
 30
0.0
 11
133.3645629999999
 21
72.479462
 31
0.0
100
AcDbAlignedDimension
 13
157.326953
 23
70.47946299999999
 33
0.0
 14
154.326953
 24
74.47946299999999
 34
0.0
 50
90.0
100
AcDbRotatedDimension
  0
DIMENSION
  5
325
330
1E
100
AcDbEntity
  8
CSLAYER1
 62
     4
100
AcDbDimension
  2
*D8
 10
346.603764
 20
261.462589
 30
0.0
 11
318.60379
 21
261.9625849999999
 31
0.0
 70
     1
100
AcDbAlignedDimension
 13
290.603764
 23
208.4794629999999
 33
0.0
 14
346.603764
 24
208.4794629999999
 34
0.0
  0
DIMENSION
  5
326
330
1E
100
AcDbEntity
  8
CSLAYER1
 62
     4
100
AcDbDimension
  2
*D9
 10
332.603764
 20
255.462589
 30
0.0
 11
318.60379
 21
255.962585
 31
0.0
 70
     1
100
AcDbAlignedDimension
 13
304.603764
 23
243.4794629999999
 33
0.0
 14
332.603764
 24
243.4794629999999
 34
0.0
  0
INSERT
  5
327
330
1E
100
AcDbEntity
  8
CSLAYER1
100
AcDbBlockReference
  2
FXDIM0001
 10
0.0
 20
0.0
 30
0.0
  0
DIMENSION
  5
328
330
1E
100
AcDbEntity
  8
CSLAYER17
 62
     4
100
AcDbDimension
  2
*D11
 10
15.92196099999999
 20
213.0572799999999
 30
0.0
 11
15.421963
 21
171.057281
 31
0.0
 70
     1
100
AcDbAlignedDimension
 13
54.522493
 23
129.0572799999999
 33
0.0
 14
54.522493
 24
213.0572799999999
 34
0.0
  0
DIMENSION
  5
329
330
1E
100
AcDbEntity
  8
CSLAYER17
 62
     4
100
AcDbDimension
  2
*D12
 10
21.92196099999999
 20
205.0572799999999
 30
0.0
 11
21.421963
 21
171.057281
 31
0.0
 70
     1
100
AcDbAlignedDimension
 13
65.75165
 23
137.0572799999999
 33
0.0
 14
65.75165
 24
205.0572799999999
 34
0.0
  0
DIMENSION
  5
32A
330
1E
100
AcDbEntity
  8
CSLAYER17
 62
     4
100
AcDbDimension
  2
*D13
 10
27.92196099999999
 20
199.0572799999999
 30
0.0
 11
27.421961
 21
171.057281
 31
0.0
 70
     1
100
AcDbAlignedDimension
 13
31.022493
 23
143.05728
 33
0.0
 14
31.022493
 24
199.0572799999999
 34
0.0
  0
DIMENSION
  5
32B
330
1E
100
AcDbEntity
  8
CSLAYER17
 62
     4
100
AcDbDimension
  2
*D14
 10
79.52249300000001
 20
193.811102
 30
0.0
 11
73.522499
 21
194.311096
 31
0.0
 70
     1
 52
270.0
100
AcDbAlignedDimension
 13
67.52249300000001
 23
205.0572799999999
 33
0.0
 14
79.52249300000001
 24
205.0572799999999
 34
0.0
  0
DIMENSION
  5
32C
330
1E
100
AcDbEntity
  8
CSLAYER17
 62
     4
100
AcDbDimension
  2
*D15
 10
115.5224929999999
 20
193.811102
 30
0.0
 11
97.522491
 21
194.311096
 31
0.0
 52
270.0
100
AcDbAlignedDimension
 13
79.52249300000001
 23
205.0572799999999
 33
0.0
 14
115.5224929999999
 24
213.0572799999999
 34
0.0
100
AcDbRotatedDimension
  0
DIMENSION
  5
32D
330
1E
100
AcDbEntity
  8
CSLAYER17
 62
     4
100
AcDbDimension
  2
*D16
 10
86.96347499999999
 20
208.30728
 30
0.0
 11
92.062927
 21
204.604935
 31
0.0
 70
     1
100
AcDbAlignedDimension
 13
76.27249300000001
 23
201.80728
 33
0.0
 14
76.27249300000001
 24
208.30728
 34
0.0
  0
DIMENSION
  5
32E
330
1E
100
AcDbEntity
  8
CSLAYER17
 62
     4
100
AcDbDimension
  2
*D17
 10
260.826953
 20
262.462589
 30
0.0
 11
246.5769499999999
 21
262.962585
 31
0.0
100
AcDbAlignedDimension
 13
232.3269529999999
 23
119.479463
 33
0.0
 14
260.826953
 24
95.47946299999999
 34
0.0
100
AcDbRotatedDimension
  0
DIMENSION
  5
32F
330
1E
100
AcDbEntity
  8
CSLAYER17
 62
     4
100
AcDbDimension
  2
*D18
 10
232.3269529999999
 20
262.462589
 30
0.0
 11
229.32695
 21
262.962585
 31
0.0
100
AcDbAlignedDimension
 13
226.3269529999999
 23
116.479463
 33
0.0
 14
232.3269529999999
 24
119.479463
 34
0.0
100
AcDbRotatedDimension
  0
DIMENSION
  5
330
330
1E
100
AcDbEntity
  8
CSLAYER17
 62
     4
100
AcDbDimension
  2
*D19
 10
261.826953
 20
268.462589
 30
0.0
 11
204.8269499999999
 21
268.962585
 31
0.0
100
AcDbAlignedDimension
 13
147.826953
 23
209.4794629999999
 33
0.0
 14
261.826953
 24
119.479463
 34
0.0
100
AcDbRotatedDimension
  0
DIMENSION
  5
331
330
1E
100
AcDbEntity
  8
CSLAYER17
 62
     4
100
AcDbDimension
  2
*D20
 10
203.8269529999999
 20
262.462589
 30
0.0
 11
175.82695
 21
262.962585
 31
0.0
 70
     1
100
AcDbAlignedDimension
 13
147.826953
 23
209.4794629999999
 33
0.0
 14
203.8269529999999
 24
209.4794629999999
 34
0.0
  0
DIMENSION
  5
332
330
1E
100
AcDbEntity
  8
CSLAYER17
 62
     4
100
AcDbDimension
  2
*D21
 10
209.8269529999999
 20
262.462589
 30
0.0
 11
206.8269499999999
 21
262.962585
 31
0.0
100
AcDbAlignedDimension
 13
203.8269529999999
 23
209.4794629999999
 33
0.0
 14
209.8269529999999
 24
181.4794629999999
 34
0.0
100
AcDbRotatedDimension
  0
DIMENSION
  5
333
330
1E
100
AcDbEntity
  8
CSLAYER17
 62
     4
100
AcDbDimension
  2
*D22
 10
226.3269529999999
 20
262.462589
 30
0.0
 11
218.07695
 21
262.962585
 31
0.0
100
AcDbAlignedDimension
 13
209.8269529999999
 23
181.4794629999999
 33
0.0
 14
226.3269529999999
 24
116.479463
 34
0.0
100
AcDbRotatedDimension
  0
DIMENSION
  5
334
330
1E
100
AcDbEntity
  8
CSLAYER17
 62
     4
100
AcDbDimension
  2
*D23
 10
193.826953
 20
256.462589
 30
0.0
 11
175.82695
 21
256.9625849999999
 31
0.0
 70
     1
100
AcDbAlignedDimension
 13
157.826953
 23
244.479463
 33
0.0
 14
193.826953
 24
244.479463
 34
0.0
  0
DIMENSION
  5
335
330
1E
100
AcDbEntity
  8
CSLAYER17
 62
     4
100
AcDbDimension
  2
*D24
 10
184.326953
 20
250.462589
 30
0.0
 11
175.82695
 21
250.962585
 31
0.0
 70
     1
100
AcDbAlignedDimension
 13
167.3269529999999
 23
244.479463
 33
0.0
 14
184.326953
 24
244.479463
 34
0.0
  0
INSERT
  5
336
330
1E
100
AcDbEntity
  8
CSLAYER1
100
AcDbBlockReference
  2
FXDIM0002
 10
0.0
 20
0.0
 30
0.0
  0
LINE
  5
337
330
1E
100
AcDbEntity
  8
CSLAYER17
  6
CONTINUOUS
 62
     3
100
AcDbLine
 10
229.3269529999999
 20
119.479463
 30
0.0
 11
261.826953
 21
119.479463
 31
0.0
  0
LINE
  5
338
330
1E
100
AcDbEntity
  8
CSLAYER17
  6
CONTINUOUS
 62
     3
100
AcDbLine
 10
232.3269529999999
 20
83.479463
 30
0.0
 11
261.826953
 21
83.479463
 31
0.0
  0
LINE
  5
339
330
1E
100
AcDbEntity
  8
CSLAYER17
  6
CONTINUOUS
 62
     3
100
AcDbLine
 10
261.826953
 20
119.479463
 30
0.0
 11
261.826953
 21
83.479463
 31
0.0
  0
LINE
  5
33A
330
1E
100
AcDbEntity
  8
CSLAYER17
  6
CONTINUOUS
 62
     3
100
AcDbLine
 10
218.8269529999999
 20
106.4794629999999
 30
0.0
 11
226.3269529999999
 21
106.4794629999999
 31
0.0
  0
LINE
  5
33B
330
1E
100
AcDbEntity
  8
CSLAYER17
  6
CONTINUOUS
 62
     3
100
AcDbLine
 10
217.8269529999999
 20
105.4794629999999
 30
0.0
 11
217.8269529999999
 21
97.479463
 31
0.0
  0
LINE
  5
33C
330
1E
100
AcDbEntity
  8
CSLAYER17
  6
CONTINUOUS
 62
     3
100
AcDbLine
 10
214.8269529999999
 20
105.4794629999999
 30
0.0
 11
217.8269529999999
 21
105.4794629999999
 31
0.0
  0
LINE
  5
33D
330
1E
100
AcDbEntity
  8
CSLAYER17
  6
CONTINUOUS
 62
     3
100
AcDbLine
 10
218.8269529999999
 20
96.479463
 30
0.0
 11
226.3269529999999
 21
96.479463
 31
0.0
  0
LINE
  5
33E
330
1E
100
AcDbEntity
  8
CSLAYER17
  6
CONTINUOUS
 62
     3
100
AcDbLine
 10
214.8269529999999
 20
97.479463
 30
0.0
 11
217.8269529999999
 21
97.479463
 31
0.0
  0
LINE
  5
33F
330
1E
100
AcDbEntity
  8
CSLAYER17
  6
CONTINUOUS
 62
     3
100
AcDbLine
 10
217.8269529999999
 20
105.4794629999999
 30
0.0
 11
218.8269529999999
 21
106.4794629999999
 31
0.0
  0
LINE
  5
340
330
1E
100
AcDbEntity
  8
CSLAYER17
  6
CONTINUOUS
 62
     3
100
AcDbLine
 10
217.8269529999999
 20
97.479463
 30
0.0
 11
218.8269529999999
 21
96.479463
 31
0.0
  0
LINE
  5
341
330
1E
100
AcDbEntity
  8
CSLAYER17
  6
CONTINUOUS
 62
     3
100
AcDbLine
 10
218.8269529999999
 20
106.4794629999999
 30
0.0
 11
218.8269529999999
 21
96.479463
 31
0.0
  0
LINE
  5
342
330
1E
100
AcDbEntity
  8
CSLAYER17
  6
CONTINUOUS
 62
     3
100
AcDbLine
 10
232.3269529999999
 20
116.587408
 30
0.0
 11
261.826953
 21
116.587408
 31
0.0
  0
LINE
  5
343
330
1E
100
AcDbEntity
  8
CSLAYER17
  6
CONTINUOUS
 62
     3
100
AcDbLine
 10
232.3269529999999
 20
86.37151899999999
 30
0.0
 11
261.826953
 21
86.37151899999999
 31
0.0
  0
LINE
  5
344
330
1E
100
AcDbEntity
  8
CSLAYER17
  6
CENTER
 62
     4
100
AcDbLine
 10
241.3269529999999
 20
105.55013
 30
0.0
 11
241.3269529999999
 21
95.87850999999998
 31
0.0
  0
CIRCLE
  5
345
330
1E
100
AcDbEntity
  8
CSLAYER17
  6
CONTINUOUS
 62
     3
100
AcDbCircle
 10
241.3269529999999
 20
101.4794629999999
 30
0.0
 40
2.1
  0
CIRCLE
  5
346
330
1E
100
AcDbEntity
  8
CSLAYER17
  6
CONTINUOUS
 62
     4
100
AcDbCircle
 10
241.3269529999999
 20
101.4794629999999
 30
0.0
 40
2.5
  0
LINE
  5
347
330
1E
100
AcDbEntity
  8
CSLAYER17
  6
CONTINUOUS
 62
     3
100
AcDbLine
 10
232.3269529999999
 20
106.4794629999999
 30
0.0
 11
261.826953
 21
106.4794629999999
 31
0.0
  0
LINE
  5
348
330
1E
100
AcDbEntity
  8
CSLAYER17
  6
CONTINUOUS
 62
     3
100
AcDbLine
 10
232.3269529999999
 20
96.479463
 30
0.0
 11
261.826953
 21
96.479463
 31
0.0
  0
LINE
  5
349
330
1E
100
AcDbEntity
  8
CSLAYER17
  6
CONTINUOUS
 62
     3
100
AcDbLine
 10
261.826953
 20
108.4794629999999
 30
0.0
 11
232.3269529999999
 21
108.4794629999999
 31
0.0
  0
LINE
  5
34A
330
1E
100
AcDbEntity
  8
CSLAYER17
  6
CONTINUOUS
 62
     3
100
AcDbLine
 10
261.826953
 20
111.479463
 30
0.0
 11
232.3269529999999
 21
111.479463
 31
0.0
  0
LINE
  5
34B
330
1E
100
AcDbEntity
  8
CSLAYER17
  6
CONTINUOUS
 62
     3
100
AcDbLine
 10
261.826953
 20
91.47946299999999
 30
0.0
 11
232.3269529999999
 21
91.47946299999999
 31
0.0
  0
LINE
  5
34C
330
1E
100
AcDbEntity
  8
CSLAYER17
  6
CENTER
 62
     4
100
AcDbLine
 10
256.3269529999999
 20
105.129705
 30
0.0
 11
256.3269529999999
 21
97.65906800000001
 31
0.0
  0
LINE
  5
34D
330
1E
100
AcDbEntity
  8
CSLAYER1
  6
CONTINUOUS
 62
     3
100
AcDbLine
 10
257.576953
 20
100.7577759999999
 30
0.0
 11
257.576953
 21
102.201151
 31
0.0
  0
LINE
  5
34E
330
1E
100
AcDbEntity
  8
CSLAYER1
  6
CONTINUOUS
 62
     3
100
AcDbLine
 10
257.576953
 20
102.201151
 30
0.0
 11
256.3269529999999
 21
102.9228389999999
 31
0.0
  0
LINE
  5
34F
330
1E
100
AcDbEntity
  8
CSLAYER1
  6
CONTINUOUS
 62
     3
100
AcDbLine
 10
256.3269529999999
 20
102.9228389999999
 30
0.0
 11
255.0769529999999
 21
102.201151
 31
0.0
  0
LINE
  5
350
330
1E
100
AcDbEntity
  8
CSLAYER1
  6
CONTINUOUS
 62
     3
100
AcDbLine
 10
255.0769529999999
 20
102.201151
 30
0.0
 11
255.0769529999999
 21
100.7577759999999
 31
0.0
  0
LINE
  5
351
330
1E
100
AcDbEntity
  8
CSLAYER1
  6
CONTINUOUS
 62
     3
100
AcDbLine
 10
255.0769529999999
 20
100.7577759999999
 30
0.0
 11
256.3269529999999
 21
100.036088
 31
0.0
  0
LINE
  5
352
330
1E
100
AcDbEntity
  8
CSLAYER1
  6
CONTINUOUS
 62
     3
100
AcDbLine
 10
256.3269529999999
 20
100.036088
 30
0.0
 11
257.576953
 21
100.7577759999999
 31
0.0
  0
CIRCLE
  5
353
330
1E
100
AcDbEntity
  8
CSLAYER1
  6
CONTINUOUS
 62
     3
100
AcDbCircle
 10
256.3269529999999
 20
101.4794629999999
 30
0.0
 40
2.5
  0
CIRCLE
  5
354
330
1E
100
AcDbEntity
  8
CSLAYER1
  6
CONTINUOUS
 62
     4
100
AcDbCircle
 10
256.3269529999999
 20
101.4794629999999
 30
0.0
 40
2.1
  0
LINE
  5
355
330
1E
100
AcDbEntity
  8
CSLAYER17
  6
CONTINUOUS
 62
     3
100
AcDbLine
 10
300.603764
 20
86.37151899999999
 30
0.0
 11
300.603764
 21
91.47946299999999
 31
0.0
  0
LINE
  5
356
330
1E
100
AcDbEntity
  8
CSLAYER17
  6
CONTINUOUS
 62
     3
100
AcDbLine
 10
333.711709
 20
83.479463
 30
0.0
 11
328.6037639999999
 21
83.479463
 31
0.0
  0
LINE
  5
357
330
1E
100
AcDbEntity
  8
CSLAYER17
  6
CONTINUOUS
 62
     3
100
AcDbLine
 10
336.603764
 20
116.587408
 30
0.0
 11
336.603764
 21
111.479463
 31
0.0
  0
CIRCLE
  5
358
330
1E
100
AcDbEntity
  8
CSLAYER17
  6
CONTINUOUS
 62
     3
100
AcDbCircle
 10
331.353764
 20
114.229463
 30
0.0
 40
4.5
  0
INSERT
  5
359
330
1E
100
AcDbEntity
  8
CSLAYER1
100
AcDbBlockReference
  2
BLKF0000
 10
0.0
 20
0.0
 30
0.0
  0
CIRCLE
  5
35A
330
1E
100
AcDbEntity
  8
CSLAYER17
  6
CONTINUOUS
 62
     3
100
AcDbCircle
 10
305.853764
 20
114.229463
 30
0.0
 40
4.5
  0
INSERT
  5
35B
330
1E
100
AcDbEntity
  8
CSLAYER1
100
AcDbBlockReference
  2
BLKF0001
 10
0.0
 20
0.0
 30
0.0
  0
CIRCLE
  5
35C
330
1E
100
AcDbEntity
  8
CSLAYER17
  6
CONTINUOUS
 62
     3
100
AcDbCircle
 10
331.353764
 20
88.729463
 30
0.0
 40
4.5
  0
INSERT
  5
35D
330
1E
100
AcDbEntity
  8
CSLAYER1
100
AcDbBlockReference
  2
BLKF0002
 10
0.0
 20
0.0
 30
0.0
  0
CIRCLE
  5
35E
330
1E
100
AcDbEntity
  8
CSLAYER17
  6
CONTINUOUS
 62
     3
100
AcDbCircle
 10
305.853764
 20
88.729463
 30
0.0
 40
4.5
  0
INSERT
  5
35F
330
1E
100
AcDbEntity
  8
CSLAYER1
100
AcDbBlockReference
  2
BLKF0003
 10
0.0
 20
0.0
 30
0.0
  0
ARC
  5
360
330
1E
100
AcDbEntity
  8
CSLAYER17
  6
CONTINUOUS
 62
     3
100
AcDbCircle
 10
318.603764
 20
101.4794629999999
 30
0.0
 40
23.5
100
AcDbArc
 50
220.007754
 51
229.992246
  0
ARC
  5
361
330
1E
100
AcDbEntity
  8
CSLAYER17
  6
CONTINUOUS
 62
     3
100
AcDbCircle
 10
318.603764
 20
101.4794629999999
 30
0.0
 40
23.5
100
AcDbArc
 50
310.007754
 51
319.992246
  0
ARC
  5
362
330
1E
100
AcDbEntity
  8
CSLAYER17
  6
CONTINUOUS
 62
     3
100
AcDbCircle
 10
318.603764
 20
101.4794629999999
 30
0.0
 40
23.5
100
AcDbArc
 50
40.007754
 51
49.992246
  0
ARC
  5
363
330
1E
100
AcDbEntity
  8
CSLAYER17
  6
CONTINUOUS
 62
     3
100
AcDbCircle
 10
318.603764
 20
101.4794629999999
 30
0.0
 40
23.5
100
AcDbArc
 50
130.0077539999999
 51
139.9922459999999
  0
LINE
  5
364
330
1E
100
AcDbEntity
  8
CSLAYER17
  6
CONTINUOUS
 62
     3
100
AcDbLine
 10
300.603764
 20
106.4794629999999
 30
0.0
 11
303.6037639999999
 21
106.4794629999999
 31
0.0
  0
LINE
  5
365
330
1E
100
AcDbEntity
  8
CSLAYER17
  6
CONTINUOUS
 62
     3
100
AcDbLine
 10
300.603764
 20
96.479463
 30
0.0
 11
303.6037639999999
 21
96.479463
 31
0.0
  0
LINE
  5
366
330
1E
100
AcDbEntity
  8
CSLAYER17
  6
CONTINUOUS
 62
     3
100
AcDbLine
 10
300.603764
 20
111.479463
 30
0.0
 11
300.603764
 21
116.587408
 31
0.0
  0
LINE
  5
367
330
1E
100
AcDbEntity
  8
CSLAYER17
  6
CONTINUOUS
 62
     3
100
AcDbLine
 10
300.603764
 20
96.479463
 30
0.0
 11
300.603764
 21
106.4794629999999
 31
0.0
  0
LINE
  5
368
330
1E
100
AcDbEntity
  8
CSLAYER17
  6
CONTINUOUS
 62
     3
100
AcDbLine
 10
311.603764
 20
116.479463
 30
0.0
 11
325.603764
 21
116.479463
 31
0.0
  0
LINE
  5
369
330
1E
100
AcDbEntity
  8
CSLAYER17
  6
CONTINUOUS
 62
     3
100
AcDbLine
 10
311.603764
 20
116.479463
 30
0.0
 11
308.603764
 21
119.479463
 31
0.0
  0
LINE
  5
36A
330
1E
100
AcDbEntity
  8
CSLAYER17
  6
CONTINUOUS
 62
     3
100
AcDbLine
 10
325.603764
 20
116.479463
 30
0.0
 11
328.6037639999999
 21
119.479463
 31
0.0
  0
LINE
  5
36B
330
1E
100
AcDbEntity
  8
CSLAYER17
  6
CONTINUOUS
 62
     3
100
AcDbLine
 10
303.6037639999999
 20
94.47946299999999
 30
0.0
 11
303.6037639999999
 21
96.479463
 31
0.0
  0
LINE
  5
36C
330
1E
100
AcDbEntity
  8
CSLAYER17
  6
CONTINUOUS
 62
     3
100
AcDbLine
 10
303.6037639999999
 20
94.47946299999999
 30
0.0
 11
300.603764
 21
91.47946299999999
 31
0.0
  0
LINE
  5
36D
330
1E
100
AcDbEntity
  8
CSLAYER17
  6
CONTINUOUS
 62
     3
100
AcDbLine
 10
303.6037639999999
 20
108.4794629999999
 30
0.0
 11
300.603764
 21
111.479463
 31
0.0
  0
LINE
  5
36E
330
1E
100
AcDbEntity
  8
CSLAYER17
  6
CONTINUOUS
 62
     3
100
AcDbLine
 10
325.603764
 20
86.47946299999999
 30
0.0
 11
311.603764
 21
86.47946299999999
 31
0.0
  0
LINE
  5
36F
330
1E
100
AcDbEntity
  8
CSLAYER17
  6
CONTINUOUS
 62
     3
100
AcDbLine
 10
325.603764
 20
86.47946299999999
 30
0.0
 11
328.6037639999999
 21
83.479463
 31
0.0
  0
LINE
  5
370
330
1E
100
AcDbEntity
  8
CSLAYER17
  6
CONTINUOUS
 62
     3
100
AcDbLine
 10
311.603764
 20
86.47946299999999
 30
0.0
 11
308.603764
 21
83.479463
 31
0.0
  0
LINE
  5
371
330
1E
100
AcDbEntity
  8
CSLAYER17
  6
CONTINUOUS
 62
     3
100
AcDbLine
 10
333.603764
 20
108.4794629999999
 30
0.0
 11
333.603764
 21
94.47946299999999
 31
0.0
  0
LINE
  5
372
330
1E
100
AcDbEntity
  8
CSLAYER17
  6
CONTINUOUS
 62
     3
100
AcDbLine
 10
333.603764
 20
108.4794629999999
 30
0.0
 11
336.603764
 21
111.479463
 31
0.0
  0
LINE
  5
373
330
1E
100
AcDbEntity
  8
CSLAYER17
  6
CONTINUOUS
 62
     3
100
AcDbLine
 10
333.603764
 20
94.47946299999999
 30
0.0
 11
336.603764
 21
91.47946299999999
 31
0.0
  0
LINE
  5
374
330
1E
100
AcDbEntity
  8
CSLAYER17
  6
CONTINUOUS
 62
     3
100
AcDbLine
 10
336.603764
 20
91.47946299999999
 30
0.0
 11
336.603764
 21
86.37151899999999
 31
0.0
  0
LINE
  5
375
330
1E
100
AcDbEntity
  8
CSLAYER17
  6
CONTINUOUS
 62
     3
100
AcDbLine
 10
303.6037639999999
 20
106.4794629999999
 30
0.0
 11
303.6037639999999
 21
108.4794629999999
 31
0.0
  0
LINE
  5
376
330
1E
100
AcDbEntity
  8
CSLAYER1
  6
CONTINUOUS
 62
     3
100
AcDbLine
 10
76.27249300000001
 20
133.8072799999999
 30
0.0
 11
70.77249300000001
 21
133.8072799999999
 31
0.0
  0
ARC
  5
377
330
1E
100
AcDbEntity
  8
CSLAYER17
  6
CONTINUOUS
 62
     3
100
AcDbCircle
 10
70.77249300000001
 20
137.0572799999999
 30
0.0
 40
3.25
100
AcDbArc
 50
90.0
 51
270.0
  0
LINE
  5
378
330
1E
100
AcDbEntity
  8
CSLAYER1
  6
CONTINUOUS
 62
     3
100
AcDbLine
 10
70.77249300000001
 20
140.3072799999999
 30
0.0
 11
76.27249300000001
 21
140.3072799999999
 31
0.0
  0
ARC
  5
379
330
1E
100
AcDbEntity
  8
CSLAYER17
  6
CONTINUOUS
 62
     3
100
AcDbCircle
 10
76.27249300000001
 20
137.0572799999999
 30
0.0
 40
3.25
100
AcDbArc
 50
270.0
 51
90.0
  0
LINE
  5
37A
330
1E
100
AcDbEntity
  8
CSLAYER1
  6
CENTER
 62
     4
100
AcDbLine
 10
65.75165
 20
137.0572799999999
 30
0.0
 11
81.96310699999999
 21
137.0572799999999
 31
0.0
  0
LINE
  5
37B
330
1E
100
AcDbEntity
  8
CSLAYER17
  6
CENTER
 62
     4
100
AcDbLine
 10
336.994321
 20
101.4794629999999
 30
0.0
 11
296.12297
 21
101.4794629999999
 31
0.0
  0
LINE
  5
37C
330
1E
100
AcDbEntity
  8
CSLAYER17
  6
CONTINUOUS
 62
     3
100
AcDbLine
 10
346.603764
 20
119.479463
 30
0.0
 11
360.603764
 21
105.4794629999999
 31
0.0
  0
LINE
  5
37D
330
1E
100
AcDbEntity
  8
CSLAYER17
  6
DASHED
 62
     4
100
AcDbLine
 10
226.3269529999999
 20
106.4794629999999
 30
0.0
 11
232.3269529999999
 21
106.4794629999999
 31
0.0
  0
LINE
  5
37E
330
1E
100
AcDbEntity
  8
CSLAYER1
  6
CONTINUOUS
 62
     3
100
AcDbLine
 10
198.826953
 20
70.47946299999999
 30
0.0
 11
157.326953
 21
70.47946299999999
 31
0.0
  0
LINE
  5
37F
330
1E
100
AcDbEntity
  8
CSLAYER1
  6
CONTINUOUS
 62
     3
100
AcDbLine
 10
203.8269529999999
 20
209.4794629999999
 30
0.0
 11
203.8269529999999
 21
75.47946299999999
 31
0.0
  0
LINE
  5
380
330
1E
100
AcDbEntity
  8
CSLAYER17
  6
CONTINUOUS
 62
     3
100
AcDbLine
 10
209.8269529999999
 20
181.4794629999999
 30
0.0
 11
209.8269529999999
 21
64.47946299999999
 31
0.0
  0
LINE
  5
381
330
1E
100
AcDbEntity
  8
CSLAYER17
  6
CONTINUOUS
 62
     3
100
AcDbLine
 10
214.8269529999999
 20
107.979463
 30
0.0
 11
214.8269529999999
 21
94.979463
 31
0.0
  0
LINE
  5
382
330
1E
100
AcDbEntity
  8
CSLAYER17
  6
CONTINUOUS
 62
     3
100
AcDbLine
 10
210.40751
 20
105.2322399999999
 30
0.0
 11
214.246397
 21
105.2322399999999
 31
0.0
  0
LINE
  5
383
330
1E
100
AcDbEntity
  8
CSLAYER17
  6
CONTINUOUS
 62
     3
100
AcDbLine
 10
210.40751
 20
97.726687
 30
0.0
 11
214.246397
 21
97.726687
 31
0.0
  0
LINE
  5
384
330
1E
100
AcDbEntity
  8
CSLAYER17
  6
CONTINUOUS
 62
     3
100
AcDbLine
 10
210.40751
 20
93.97391
 30
0.0
 11
214.246397
 21
93.97391
 31
0.0
  0
LINE
  5
385
330
1E
100
AcDbEntity
  8
CSLAYER17
  6
CONTINUOUS
 62
     3
100
AcDbLine
 10
209.8269529999999
 20
94.979463
 30
0.0
 11
210.40751
 21
93.97391
 31
0.0
  0
LINE
  5
386
330
1E
100
AcDbEntity
  8
CSLAYER17
  6
CONTINUOUS
 62
     3
100
AcDbLine
 10
214.8269529999999
 20
94.979463
 30
0.0
 11
214.246397
 21
93.97391
 31
0.0
  0
LINE
  5
387
330
1E
100
AcDbEntity
  8
CSLAYER17
  6
CONTINUOUS
 62
     3
100
AcDbLine
 10
210.40751
 20
108.985017
 30
0.0
 11
214.246397
 21
108.985017
 31
0.0
  0
LINE
  5
388
330
1E
100
AcDbEntity
  8
CSLAYER17
  6
CONTINUOUS
 62
     3
100
AcDbLine
 10
209.8269529999999
 20
107.979463
 30
0.0
 11
210.40751
 21
108.985017
 31
0.0
  0
LINE
  5
389
330
1E
100
AcDbEntity
  8
CSLAYER17
  6
CONTINUOUS
 62
     3
100
AcDbLine
 10
214.8269529999999
 20
107.979463
 30
0.0
 11
214.246397
 21
108.985017
 31
0.0
  0
ARC
  5
38A
330
1E
100
AcDbEntity
  8
CSLAYER17
  6
CONTINUOUS
 62
     3
100
AcDbCircle
 10
222.246397
 20
101.4794629999999
 30
0.0
 40
12.419443
100
AcDbArc
 50
162.412046
 51
197.5879539999999
  0
ARC
  5
38B
330
1E
100
AcDbEntity
  8
CSLAYER17
  6
CONTINUOUS
 62
     3
100
AcDbCircle
 10
219.804248
 20
108.652959
 30
0.0
 40
10.0
100
AcDbArc
 50
183.86177
 51
200.003156
  0
ARC
  5
38C
330
1E
100
AcDbEntity
  8
CSLAYER17
  6
CONTINUOUS
 62
     3
100
AcDbCircle
 10
219.804248
 20
94.30596800000001
 30
0.0
 40
10.0
100
AcDbArc
 50
159.9968439999999
 51
176.13823
  0
ARC
  5
38D
330
1E
100
AcDbEntity
  8
CSLAYER17
  6
CONTINUOUS
 62
     3
100
AcDbCircle
 10
202.40751
 20
101.4794629999999
 30
0.0
 40
12.419443
100
AcDbArc
 50
342.412046
 51
17.587954
  0
ARC
  5
38E
330
1E
100
AcDbEntity
  8
CSLAYER17
  6
CONTINUOUS
 62
     3
100
AcDbCircle
 10
204.849659
 20
108.652959
 30
0.0
 40
10.0
100
AcDbArc
 50
339.996844
 51
356.1382299999999
  0
ARC
  5
38F
330
1E
100
AcDbEntity
  8
CSLAYER17
  6
CONTINUOUS
 62
     3
100
AcDbCircle
 10
204.849659
 20
94.30596800000001
 30
0.0
 40
10.0
100
AcDbArc
 50
3.861769999999999
 51
20.00315599999999
  0
LINE
  5
390
330
1E
100
AcDbEntity
  8
CSLAYER1
  6
CONTINUOUS
 62
     3
100
AcDbLine
 10
157.326953
 20
44.479463
 30
0.0
 11
157.326953
 21
47.479463
 31
0.0
  0
LINE
  5
391
330
1E
100
AcDbEntity
  8
CSLAYER17
  6
CONTINUOUS
 62
     3
100
AcDbLine
 10
226.3269529999999
 20
68.479463
 30
0.0
 11
222.187797
 21
68.479463
 31
0.0
  0
LINE
  5
392
330
1E
100
AcDbEntity
  8
CSLAYER17
  6
CENTER
 62
     4
100
AcDbLine
 10
250.890293
 20
72.47946299999999
 30
0.0
 11
206.355833
 21
72.47946299999999
 31
0.0
  0
LINE
  5
393
330
1E
100
AcDbEntity
  8
CSLAYER17
  6
CONTINUOUS
 62
     3
100
AcDbLine
 10
221.8269529999999
 20
69.104463
 30
0.0
 11
222.187797
 21
68.479463
 31
0.0
  0
LINE
  5
394
330
1E
100
AcDbEntity
  8
CSLAYER17
  6
CONTINUOUS
 62
     3
100
AcDbLine
 10
222.187797
 20
68.479463
 30
0.0
 11
222.187797
 21
76.479463
 31
0.0
  0
LINE
  5
395
330
1E
100
AcDbEntity
  8
CSLAYER1
  6
CONTINUOUS
 62
     3
100
AcDbLine
 10
232.3269529999999
 20
44.479463
 30
0.0
 11
157.326953
 21
44.479463
 31
0.0
  0
LINE
  5
396
330
1E
100
AcDbEntity
  8
CSLAYER1
  6
CONTINUOUS
 62
     3
100
AcDbLine
 10
232.3269529999999
 20
119.479463
 30
0.0
 11
232.3269529999999
 21
44.479463
 31
0.0
  0
LINE
  5
397
330
1E
100
AcDbEntity
  8
CSLAYER17
  6
CONTINUOUS
 62
     3
100
AcDbLine
 10
157.326953
 20
50.479463
 30
0.0
 11
157.326953
 21
70.47946299999999
 31
0.0
  0
LINE
  5
398
330
1E
100
AcDbEntity
  8
CSLAYER17
  6
CONTINUOUS
 62
     3
100
AcDbLine
 10
276.6037639999999
 20
44.479463
 30
0.0
 11
360.603764
 21
44.479463
 31
0.0
  0
LINE
  5
399
330
1E
100
AcDbEntity
  8
CSLAYER17
  6
CONTINUOUS
 62
     3
100
AcDbLine
 10
226.3269529999999
 20
76.479463
 30
0.0
 11
222.187797
 21
76.479463
 31
0.0
  0
LINE
  5
39A
330
1E
100
AcDbEntity
  8
CSLAYER17
  6
CONTINUOUS
 62
     4
100
AcDbLine
 10
226.3269529999999
 20
75.854463
 30
0.0
 11
221.8269529999999
 21
75.854463
 31
0.0
  0
LINE
  5
39B
330
1E
100
AcDbEntity
  8
CSLAYER17
  6
CONTINUOUS
 62
     3
100
AcDbLine
 10
221.8269529999999
 20
75.854463
 30
0.0
 11
222.187797
 21
76.479463
 31
0.0
  0
LINE
  5
39C
330
1E
100
AcDbEntity
  8
CSLAYER1
  6
CONTINUOUS
 62
     3
100
AcDbLine
 10
221.8269529999999
 20
75.72946299999999
 30
0.0
 11
221.4546649999999
 21
75.72946299999999
 31
0.0
  0
LINE
  5
39D
330
1E
100
AcDbEntity
  8
CSLAYER1
  6
CONTINUOUS
 62
     3
100
AcDbLine
 10
221.344506
 20
76.24244899999999
 30
0.0
 11
221.508349
 21
75.47946299999999
 31
0.0
  0
ARC
  5
39E
330
1E
100
AcDbEntity
  8
CSLAYER1
  6
CONTINUOUS
 62
     3
100
AcDbCircle
 10
221.051193
 20
76.17946299999999
 30
0.0
 40
0.3
100
AcDbArc
 50
12.119591
 51
192.1195909999999
  0
LINE
  5
39F
330
1E
100
AcDbEntity
  8
CSLAYER1
  6
CONTINUOUS
 62
     3
100
AcDbLine
 10
220.748889
 20
76.15834699999999
 30
0.0
 11
220.8946709999999
 21
75.47946299999999
 31
0.0
  0
LINE
  5
3A0
330
1E
100
AcDbEntity
  8
CSLAYER1
  6
CONTINUOUS
 62
     3
100
AcDbLine
 10
221.8269529999999
 20
69.22946299999999
 30
0.0
 11
219.690469
 21
69.22946299999999
 31
0.0
  0
LINE
  5
3A1
330
1E
100
AcDbEntity
  8
CSLAYER1
  6
CONTINUOUS
 62
     3
100
AcDbLine
 10
216.7146649999999
 20
69.22946299999999
 30
0.0
 11
216.604506
 21
68.71647800000001
 31
0.0
  0
ARC
  5
3A2
330
1E
100
AcDbEntity
  8
CSLAYER1
  6
CONTINUOUS
 62
     3
100
AcDbCircle
 10
216.3111929999999
 20
68.77946300000001
 30
0.0
 40
0.3
100
AcDbArc
 50
206.0846689999999
 51
347.880409
  0
LINE
  5
3A3
330
1E
100
AcDbEntity
  8
CSLAYER1
  6
CONTINUOUS
 62
     3
100
AcDbLine
 10
216.0417489999999
 20
68.64755399999999
 30
0.0
 11
214.428889
 21
76.15834699999999
 31
0.0
  0
LINE
  5
3A4
330
1E
100
AcDbEntity
  8
CSLAYER1
  6
CONTINUOUS
 62
     3
100
AcDbLine
 10
214.428889
 20
76.15834699999999
 30
0.0
 11
214.336791
 21
75.72946299999999
 31
0.0
  0
LINE
  5
3A5
330
1E
100
AcDbEntity
  8
CSLAYER1
  6
CONTINUOUS
 62
     3
100
AcDbLine
 10
214.520987
 20
75.72946299999999
 30
0.0
 11
211.9746649999999
 21
75.72946299999999
 31
0.0
  0
LINE
  5
3A6
330
1E
100
AcDbEntity
  8
CSLAYER1
  6
CONTINUOUS
 62
     3
100
AcDbLine
 10
211.8645059999999
 20
76.24244899999999
 30
0.0
 11
213.4625669999999
 21
68.80058000000001
 31
0.0
  0
LINE
  5
3A7
330
1E
100
AcDbEntity
  8
CSLAYER1
  6
CONTINUOUS
 62
     3
100
AcDbLine
 10
213.370469
 20
69.22946299999999
 30
0.0
 11
215.916791
 21
69.22946299999999
 31
0.0
  0
LINE
  5
3A8
330
1E
100
AcDbEntity
  8
CSLAYER1
  6
CONTINUOUS
 62
     3
100
AcDbLine
 10
216.622567
 20
68.80058000000001
 30
0.0
 11
215.024506
 21
76.24244899999999
 31
0.0
  0
ARC
  5
3A9
330
1E
100
AcDbEntity
  8
CSLAYER1
  6
CONTINUOUS
 62
     3
100
AcDbCircle
 10
214.731193
 20
76.17946299999999
 30
0.0
 40
0.3
100
AcDbArc
 50
12.119591
 51
192.1195909999999
  0
LINE
  5
3AA
330
1E
100
AcDbEntity
  8
CSLAYER1
  6
CONTINUOUS
 62
     3
100
AcDbLine
 10
215.1346649999999
 20
75.72946299999999
 30
0.0
 11
217.680987
 21
75.72946299999999
 31
0.0
  0
LINE
  5
3AB
330
1E
100
AcDbEntity
  8
CSLAYER1
  6
CONTINUOUS
 62
     3
100
AcDbLine
 10
217.4967909999999
 20
75.72946299999999
 30
0.0
 11
217.588889
 21
76.15834699999999
 31
0.0
  0
LINE
  5
3AC
330
1E
100
AcDbEntity
  8
CSLAYER1
  6
CONTINUOUS
 62
     3
100
AcDbLine
 10
217.588889
 20
76.15834699999999
 30
0.0
 11
219.201749
 21
68.64755399999999
 31
0.0
  0
ARC
  5
3AD
330
1E
100
AcDbEntity
  8
CSLAYER1
  6
CONTINUOUS
 62
     3
100
AcDbCircle
 10
219.471193
 20
68.77946300000001
 30
0.0
 40
0.3
100
AcDbArc
 50
206.0846689999999
 51
347.880409
  0
LINE
  5
3AE
330
1E
100
AcDbEntity
  8
CSLAYER1
  6
CONTINUOUS
 62
     3
100
AcDbLine
 10
219.764506
 20
68.71647800000001
 30
0.0
 11
219.8746649999999
 21
69.22946299999999
 31
0.0
  0
LINE
  5
3AF
330
1E
100
AcDbEntity
  8
CSLAYER1
  6
CONTINUOUS
 62
     3
100
AcDbLine
 10
219.7825669999999
 20
68.80058000000001
 30
0.0
 11
218.184506
 21
76.24244899999999
 31
0.0
  0
ARC
  5
3B0
330
1E
100
AcDbEntity
  8
CSLAYER1
  6
CONTINUOUS
 62
     3
100
AcDbCircle
 10
217.891193
 20
76.17946299999999
 30
0.0
 40
0.3
100
AcDbArc
 50
12.119591
 51
192.1195909999999
  0
LINE
  5
3B1
330
1E
100
AcDbEntity
  8
CSLAYER1
  6
CONTINUOUS
 62
     3
100
AcDbLine
 10
218.2946649999999
 20
75.72946299999999
 30
0.0
 11
220.840987
 21
75.72946299999999
 31
0.0
  0
LINE
  5
3B2
330
1E
100
AcDbEntity
  8
CSLAYER1
  6
CONTINUOUS
 62
     3
100
AcDbLine
 10
220.656791
 20
75.72946299999999
 30
0.0
 11
220.748889
 21
76.15834699999999
 31
0.0
  0
LINE
  5
3B3
330
1E
100
AcDbEntity
  8
CSLAYER1
  6
CONTINUOUS
 62
     3
100
AcDbLine
 10
212.881749
 20
68.64755399999999
 30
0.0
 11
211.268889
 21
76.15834699999999
 31
0.0
  0
ARC
  5
3B4
330
1E
100
AcDbEntity
  8
CSLAYER1
  6
CONTINUOUS
 62
     3
100
AcDbCircle
 10
211.571193
 20
76.17946299999999
 30
0.0
 40
0.3
100
AcDbArc
 50
12.119591
 51
192.1195909999999
  0
LINE
  5
3B5
330
1E
100
AcDbEntity
  8
CSLAYER1
  6
CONTINUOUS
 62
     3
100
AcDbLine
 10
211.276748
 20
76.236929
 30
0.0
 11
211.1777069999999
 21
75.72946299999999
 31
0.0
  0
LINE
  5
3B6
330
1E
100
AcDbEntity
  8
CSLAYER1
  6
CONTINUOUS
 62
     3
100
AcDbLine
 10
211.360987
 20
75.72946299999999
 30
0.0
 11
210.4269529999999
 21
75.72946299999999
 31
0.0
  0
ARC
  5
3B7
330
1E
100
AcDbEntity
  8
CSLAYER1
  6
CONTINUOUS
 62
     3
100
AcDbCircle
 10
210.1269529999999
 20
76.17946299999999
 30
0.0
 40
0.3
100
AcDbArc
 50
0.0
 51
180.0
  0
LINE
  5
3B8
330
1E
100
AcDbEntity
  8
CSLAYER1
  6
CONTINUOUS
 62
     3
100
AcDbLine
 10
210.4269529999999
 20
76.17946299999999
 30
0.0
 11
210.4269529999999
 21
68.77946300000001
 31
0.0
  0
LINE
  5
3B9
330
1E
100
AcDbEntity
  8
CSLAYER1
  6
CENTER
 62
     4
100
AcDbLine
 10
227.178335
 20
76.15834699999999
 30
0.0
 11
208.208587
 21
76.15834699999999
 31
0.0
  0
LINE
  5
3BA
330
1E
100
AcDbEntity
  8
CSLAYER1
  6
CENTER
 62
     4
100
AcDbLine
 10
227.8600979999999
 20
68.80058000000001
 30
0.0
 11
208.208587
 21
68.80058000000001
 31
0.0
  0
LINE
  5
3BB
330
1E
100
AcDbEntity
  8
CSLAYER17
  6
CONTINUOUS
 62
     3
100
AcDbLine
 10
290.603764
 20
119.479463
 30
0.0
 11
346.603764
 21
119.479463
 31
0.0
  0
LINE
  5
3BC
330
1E
100
AcDbEntity
  8
CSLAYER17
  6
CONTINUOUS
 62
     3
100
AcDbLine
 10
290.603764
 20
119.479463
 30
0.0
 11
276.6037639999999
 21
105.4794629999999
 31
0.0
  0
LINE
  5
3BD
330
1E
100
AcDbEntity
  8
CSLAYER1
  6
CENTER
 62
     4
100
AcDbLine
 10
306.603764
 20
82.328115
 30
0.0
 11
306.603764
 21
63.146313
 31
0.0
  0
LINE
  5
3BE
330
1E
100
AcDbEntity
  8
CSLAYER17
  6
CONTINUOUS
 62
     3
100
AcDbLine
 10
303.4958189999999
 20
83.479463
 30
0.0
 11
308.603764
 21
83.479463
 31
0.0
  0
LINE
  5
3BF
330
1E
100
AcDbEntity
  8
CSLAYER1
  6
CONTINUOUS
 62
     3
100
AcDbLine
 10
213.554665
 20
69.22946299999999
 30
0.0
 11
213.444506
 21
68.71647800000001
 31
0.0
  0
ARC
  5
3C0
330
1E
100
AcDbEntity
  8
CSLAYER1
  6
CONTINUOUS
 62
     3
100
AcDbCircle
 10
213.151193
 20
68.77946300000001
 30
0.0
 40
0.3
100
AcDbArc
 50
206.0846689999999
 51
347.880409
  0
LINE
  5
3C1
330
1E
100
AcDbEntity
  8
CSLAYER17
  6
CONTINUOUS
 62
     3
100
AcDbLine
 10
212.756791
 20
69.22946299999999
 30
0.0
 11
210.4269529999999
 21
69.22946299999999
 31
0.0
  0
ARC
  5
3C2
330
1E
100
AcDbEntity
  8
CSLAYER1
  6
CONTINUOUS
 62
     3
100
AcDbCircle
 10
210.1269529999999
 20
68.77946300000001
 30
0.0
 40
0.3
100
AcDbArc
 50
180.0
 51
0.0
  0
LINE
  5
3C3
330
1E
100
AcDbEntity
  8
CSLAYER1
  6
CONTINUOUS
 62
     3
100
AcDbLine
 10
221.8269529999999
 20
69.104463
 30
0.0
 11
221.8269529999999
 21
75.854463
 31
0.0
  0
LINE
  5
3C4
330
1E
100
AcDbEntity
  8
CSLAYER1
  6
CONTINUOUS
 62
     3
100
AcDbLine
 10
240.8269529999999
 20
67.97946299999999
 30
0.0
 11
240.8269529999999
 21
68.479463
 31
0.0
  0
ARC
  5
3C5
330
1E
100
AcDbEntity
  8
CSLAYER1
  6
CONTINUOUS
 62
     3
100
AcDbCircle
 10
240.3269529999999
 20
76.97946299999999
 30
0.0
 40
0.5
100
AcDbArc
 50
0.0
 51
90.0
  0
LINE
  5
3C6
330
1E
100
AcDbEntity
  8
CSLAYER1
  6
CONTINUOUS
 62
     3
100
AcDbLine
 10
240.3269529999999
 20
77.47946299999999
 30
0.0
 11
239.1269529999999
 21
77.47946299999999
 31
0.0
  0
LINE
  5
3C7
330
1E
100
AcDbEntity
  8
CSLAYER1
  6
CONTINUOUS
 62
     3
100
AcDbLine
 10
239.1269529999999
 20
67.47946299999999
 30
0.0
 11
240.3269529999999
 21
67.47946299999999
 31
0.0
  0
ARC
  5
3C8
330
1E
100
AcDbEntity
  8
CSLAYER1
  6
CONTINUOUS
 62
     3
100
AcDbCircle
 10
240.3269529999999
 20
67.97946299999999
 30
0.0
 40
0.5
100
AcDbArc
 50
270.0
 51
0.0
  0
LINE
  5
3C9
330
1E
100
AcDbEntity
  8
CSLAYER1
  6
CONTINUOUS
 62
     3
100
AcDbLine
 10
246.8269529999999
 20
69.104463
 30
0.0
 11
246.8269529999999
 21
75.854463
 31
0.0
  0
LINE
  5
3CA
330
1E
100
AcDbEntity
  8
CSLAYER17
  6
CONTINUOUS
 62
     3
100
AcDbLine
 10
239.1269529999999
 20
76.479463
 30
0.0
 11
246.2019529999999
 21
76.479463
 31
0.0
  0
LINE
  5
3CB
330
1E
100
AcDbEntity
  8
CSLAYER17
  6
CONTINUOUS
 62
     4
100
AcDbLine
 10
239.1269529999999
 20
75.854463
 30
0.0
 11
246.8269529999999
 21
75.854463
 31
0.0
  0
LINE
  5
3CC
330
1E
100
AcDbEntity
  8
CSLAYER17
  6
CONTINUOUS
 62
     3
100
AcDbLine
 10
246.8269529999999
 20
75.854463
 30
0.0
 11
246.2019529999999
 21
76.479463
 31
0.0
  0
LINE
  5
3CD
330
1E
100
AcDbEntity
  8
CSLAYER17
  6
CONTINUOUS
 62
     3
100
AcDbLine
 10
246.2019529999999
 20
76.479463
 30
0.0
 11
246.2019529999999
 21
68.479463
 31
0.0
  0
LINE
  5
3CE
330
1E
100
AcDbEntity
  8
CSLAYER17
  6
CONTINUOUS
 62
     3
100
AcDbLine
 10
239.1269529999999
 20
68.479463
 30
0.0
 11
246.2019529999999
 21
68.479463
 31
0.0
  0
LINE
  5
3CF
330
1E
100
AcDbEntity
  8
CSLAYER17
  6
CONTINUOUS
 62
     4
100
AcDbLine
 10
239.1269529999999
 20
69.104463
 30
0.0
 11
246.8269529999999
 21
69.104463
 31
0.0
  0
LINE
  5
3D0
330
1E
100
AcDbEntity
  8
CSLAYER17
  6
CONTINUOUS
 62
     3
100
AcDbLine
 10
246.8269529999999
 20
69.104463
 30
0.0
 11
246.2019529999999
 21
68.479463
 31
0.0
  0
LINE
  5
3D1
330
1E
100
AcDbEntity
  8
CSLAYER17
  6
CONTINUOUS
 62
     3
100
AcDbLine
 10
232.3269529999999
 20
79.985017
 30
0.0
 11
238.5463969999999
 21
79.985017
 31
0.0
  0
LINE
  5
3D2
330
1E
100
AcDbEntity
  8
CSLAYER17
  6
CONTINUOUS
 62
     3
100
AcDbLine
 10
232.3269529999999
 20
76.23224
 30
0.0
 11
238.5463969999999
 21
76.23224
 31
0.0
  0
LINE
  5
3D3
330
1E
100
AcDbEntity
  8
CSLAYER17
  6
CONTINUOUS
 62
     3
100
AcDbLine
 10
232.3269529999999
 20
64.97391
 30
0.0
 11
238.5463969999999
 21
64.97391
 31
0.0
  0
LINE
  5
3D4
330
1E
100
AcDbEntity
  8
CSLAYER17
  6
CONTINUOUS
 62
     3
100
AcDbLine
 10
232.3269529999999
 20
68.726687
 30
0.0
 11
238.5463969999999
 21
68.726687
 31
0.0
  0
LINE
  5
3D5
330
1E
100
AcDbEntity
  8
CSLAYER17
  6
CONTINUOUS
 62
     3
100
AcDbLine
 10
239.1269529999999
 20
78.979463
 30
0.0
 11
239.1269529999999
 21
65.979463
 31
0.0
  0
LINE
  5
3D6
330
1E
100
AcDbEntity
  8
CSLAYER17
  6
CONTINUOUS
 62
     3
100
AcDbLine
 10
238.5463969999999
 20
79.985017
 30
0.0
 11
239.1269529999999
 21
78.979463
 31
0.0
  0
ARC
  5
3D7
330
1E
100
AcDbEntity
  8
CSLAYER17
  6
CONTINUOUS
 62
     3
100
AcDbCircle
 10
229.1496589999999
 20
79.652959
 30
0.0
 40
10.0
100
AcDbArc
 50
339.996844
 51
356.1382299999999
  0
LINE
  5
3D8
330
1E
100
AcDbEntity
  8
CSLAYER17
  6
CONTINUOUS
 62
     3
100
AcDbLine
 10
238.5463969999999
 20
64.97391
 30
0.0
 11
239.1269529999999
 21
65.979463
 31
0.0
  0
ARC
  5
3D9
330
1E
100
AcDbEntity
  8
CSLAYER17
  6
CONTINUOUS
 62
     3
100
AcDbCircle
 10
229.1496589999999
 20
65.30596800000001
 30
0.0
 40
10.0
100
AcDbArc
 50
3.861769999999999
 51
20.00315599999999
  0
CIRCLE
  5
3DA
330
1E
100
AcDbEntity
  8
CSLAYER17
  6
CONTINUOUS
 62
     3
100
AcDbCircle
 10
341.603764
 20
113.479463
 30
0.0
 40
5.0
  0
CIRCLE
  5
3DB
330
1E
100
AcDbEntity
  8
CSLAYER17
  6
CONTINUOUS
 62
     3
100
AcDbCircle
 10
295.603764
 20
113.479463
 30
0.0
 40
5.0
  0
DIMENSION
  5
3DC
330
1E
100
AcDbEntity
  8
CSLAYER17
 62
     4
100
AcDbDimension
  2
*D26
 10
157.326953
 20
37.349269
 30
0.0
 11
139.777924
 21
38.011429
 31
0.0
 52
270.0
100
AcDbAlignedDimension
 13
147.826953
 23
89.47946299999999
 33
0.0
 14
157.326953
 24
44.479463
 34
0.0
100
AcDbRotatedDimension
  0
LINE
  5
3DD
330
1E
100
AcDbEntity
  8
CSLAYER17
  6
CONTINUOUS
 62
     3
100
AcDbLine
 10
31.022493
 20
143.05728
 30
0.0
 11
31.022493
 21
199.0572799999999
 31
0.0
  0
LINE
  5
3DE
330
1E
100
AcDbEntity
  8
CSLAYER17
  6
CONTINUOUS
 62
     3
100
AcDbLine
 10
31.022493
 20
199.0572799999999
 30
0.0
 11
40.52249299999999
 21
199.0572799999999
 31
0.0
  0
LINE
  5
3DF
330
1E
100
AcDbEntity
  8
CSLAYER17
  6
CONTINUOUS
 62
     3
100
AcDbLine
 10
31.022493
 20
143.05728
 30
0.0
 11
40.52249299999999
 21
143.05728
 31
0.0
  0
ARC
  5
3E0
330
1E
100
AcDbEntity
  8
CSLAYER1
  6
CONTINUOUS
 62
     3
100
AcDbCircle
 10
59.02249300000001
 20
171.05728
 30
0.0
 40
26.5
100
AcDbArc
 50
209.7816549999999
 51
225.7241779999999
  0
LINE
  5
3E1
330
1E
100
AcDbEntity
  8
CSLAYER1
  6
CONTINUOUS
 62
     3
100
AcDbLine
 10
36.02249299999999
 20
155.0885609999999
 30
0.0
 11
36.02249299999999
 21
187.025999
 31
0.0
  0
ARC
  5
3E2
330
1E
100
AcDbEntity
  8
CSLAYER1
  6
CONTINUOUS
 62
     3
100
AcDbCircle
 10
59.02249300000001
 20
171.05728
 30
0.0
 40
26.5
100
AcDbArc
 50
134.275822
 51
150.2183449999999
  0
ARC
  5
3E3
330
1E
100
AcDbEntity
  8
CSLAYER1
  6
CONTINUOUS
 62
     3
100
AcDbCircle
 10
59.02249300000001
 20
171.05728
 30
0.0
 40
28.0
100
AcDbArc
 50
131.3543709999999
 51
228.645629
  0
LINE
  5
3E4
330
1E
100
AcDbEntity
  8
CSLAYER17
  6
DASHED
 62
     4
100
AcDbLine
 10
226.3269529999999
 20
96.479463
 30
0.0
 11
232.3269529999999
 21
96.479463
 31
0.0
  0
LINE
  5
3E5
330
1E
100
AcDbEntity
  8
CSLAYER1
  6
CENTER
 62
     4
100
AcDbLine
 10
224.3497889999999
 20
116.479463
 30
0.0
 11
266.394189
 21
116.479463
 31
0.0
  0
ARC
  5
3E6
330
1E
100
AcDbEntity
  8
CSLAYER17
  6
CONTINUOUS
 62
     3
100
AcDbCircle
 10
220.3269529999999
 20
56.479463
 30
0.0
 40
6.0
100
AcDbArc
 50
270.0
 51
0.0
  0
ARC
  5
3E7
330
1E
100
AcDbEntity
  8
CSLAYER17
  6
CONTINUOUS
 62
     3
100
AcDbCircle
 10
198.826953
 20
75.47946299999999
 30
0.0
 40
5.0
100
AcDbArc
 50
270.0
 51
0.0
  0
ARC
  5
3E8
330
1E
100
AcDbEntity
  8
CSLAYER17
  6
CONTINUOUS
 62
     3
100
AcDbCircle
 10
160.326953
 20
47.479463
 30
0.0
 40
3.0
100
AcDbArc
 50
90.0
 51
180.0
  0
ARC
  5
3E9
330
1E
100
AcDbEntity
  8
CSLAYER17
  6
CONTINUOUS
 62
     3
100
AcDbCircle
 10
229.3269529999999
 20
116.479463
 30
0.0
 40
3.0
100
AcDbArc
 50
90.0
 51
180.0
  0
LINE
  5
3EA
330
1E
100
AcDbEntity
  8
CSLAYER17
  6
CONTINUOUS
 62
     3
100
AcDbLine
 10
232.3269529999999
 20
105.4794629999999
 30
0.0
 11
226.3269529999999
 21
105.4794629999999
 31
0.0
  0
LINE
  5
3EB
330
1E
100
AcDbEntity
  8
CSLAYER1
  6
CONTINUOUS
 62
     3
100
AcDbLine
 10
323.617679
 20
72.47946299999999
 30
0.0
 11
324.610721
 21
70.759463
 31
0.0
  0
LINE
  5
3EC
330
1E
100
AcDbEntity
  8
CSLAYER1
  6
CONTINUOUS
 62
     3
100
AcDbLine
 10
324.610721
 20
70.759463
 30
0.0
 11
326.596806
 21
70.759463
 31
0.0
  0
LINE
  5
3ED
330
1E
100
AcDbEntity
  8
CSLAYER1
  6
CONTINUOUS
 62
     3
100
AcDbLine
 10
326.596806
 20
70.759463
 30
0.0
 11
327.589849
 21
72.47946299999999
 31
0.0
  0
LINE
  5
3EE
330
1E
100
AcDbEntity
  8
CSLAYER1
  6
CONTINUOUS
 62
     3
100
AcDbLine
 10
327.589849
 20
72.47946299999999
 30
0.0
 11
326.596806
 21
74.19946299999999
 31
0.0
  0
LINE
  5
3EF
330
1E
100
AcDbEntity
  8
CSLAYER1
  6
CONTINUOUS
 62
     3
100
AcDbLine
 10
326.596806
 20
74.19946299999999
 30
0.0
 11
324.610721
 21
74.19946299999999
 31
0.0
  0
LINE
  5
3F0
330
1E
100
AcDbEntity
  8
CSLAYER1
  6
CONTINUOUS
 62
     3
100
AcDbLine
 10
324.610721
 20
74.19946299999999
 30
0.0
 11
323.617679
 21
72.47946299999999
 31
0.0
  0
CIRCLE
  5
3F1
330
1E
100
AcDbEntity
  8
CSLAYER1
  6
CONTINUOUS
 62
     3
100
AcDbCircle
 10
325.603764
 20
72.47946299999999
 30
0.0
 40
4.5
  0
CIRCLE
  5
3F2
330
1E
100
AcDbEntity
  8
CSLAYER1
  6
CONTINUOUS
 62
     3
100
AcDbCircle
 10
325.603764
 20
72.47946299999999
 30
0.0
 40
5.0
  0
LINE
  5
3F3
330
1E
100
AcDbEntity
  8
CSLAYER1
  6
CENTER
 62
     4
100
AcDbLine
 10
325.603764
 20
79.901168
 30
0.0
 11
325.603764
 21
64.47946299999999
 31
0.0
  0
LINE
  5
3F4
330
1E
100
AcDbEntity
  8
CSLAYER1
  6
CENTER
 62
     4
100
AcDbLine
 10
337.603764
 20
79.901168
 30
0.0
 11
337.603764
 21
64.47946299999999
 31
0.0
  0
ARC
  5
3F5
330
1E
100
AcDbEntity
  8
CSLAYER17
  6
CONTINUOUS
 62
     3
100
AcDbCircle
 10
226.70751
 20
72.47946299999999
 30
0.0
 40
12.419443
100
AcDbArc
 50
342.412046
 51
17.587954
  0
LINE
  5
3F6
330
1E
100
AcDbEntity
  8
CSLAYER1
  6
CONTINUOUS
 62
     3
100
AcDbLine
 10
240.8269529999999
 20
76.479463
 30
0.0
 11
240.8269529999999
 21
76.97946299999999
 31
0.0
  0
LINE
  5
3F7
330
1E
100
AcDbEntity
  8
CSLAYER17
  6
CONTINUOUS
 62
     3
100
AcDbLine
 10
221.8269529999999
 20
75.47946299999999
 30
0.0
 11
219.8269529999999
 21
75.47946299999999
 31
0.0
  0
LINE
  5
3F8
330
1E
100
AcDbEntity
  8
CSLAYER1
  6
CONTINUOUS
 62
     3
100
AcDbLine
 10
219.8269529999999
 20
75.47946299999999
 30
0.0
 11
219.8269529999999
 21
69.47946299999999
 31
0.0
  0
LINE
  5
3F9
330
1E
100
AcDbEntity
  8
CSLAYER17
  6
CONTINUOUS
 62
     3
100
AcDbLine
 10
221.8269529999999
 20
69.47946299999999
 30
0.0
 11
219.8269529999999
 21
69.47946299999999
 31
0.0
  0
LINE
  5
3FA
330
1E
100
AcDbEntity
  8
CSLAYER17
  6
CONTINUOUS
 62
     4
100
AcDbLine
 10
226.3269529999999
 20
69.104463
 30
0.0
 11
221.8269529999999
 21
69.104463
 31
0.0
  0
LINE
  5
3FB
330
1E
100
AcDbEntity
  8
CSLAYER1
  6
CONTINUOUS
 62
     3
100
AcDbLine
 10
219.076791
 20
69.22946299999999
 30
0.0
 11
216.5304689999999
 21
69.22946299999999
 31
0.0
  0
LINE
  5
3FC
330
1E
100
AcDbEntity
  8
CSLAYER17
  6
CONTINUOUS
 62
     3
100
AcDbLine
 10
115.5224929999999
 20
129.0572799999999
 30
0.0
 11
115.5224929999999
 21
213.0572799999999
 31
0.0
  0
LINE
  5
3FD
330
1E
100
AcDbEntity
  8
CSLAYER1
  6
DOT
 62
     3
100
AcDbLine
 10
10.0
 20
3.0
 30
0.0
 11
395.0
 21
3.0
 31
0.0
  0
LINE
  5
3FE
330
1E
100
AcDbEntity
  8
CSLAYER1
  6
DOT
 62
     3
100
AcDbLine
 10
395.0
 20
3.0
 30
0.0
 11
395.0
 21
275.0
 31
0.0
  0
LINE
  5
3FF
330
1E
100
AcDbEntity
  8
CSLAYER1
  6
DOT
 62
     3
100
AcDbLine
 10
395.0
 20
275.0
 30
0.0
 11
10.0
 21
275.0
 31
0.0
  0
LINE
  5
400
330
1E
100
AcDbEntity
  8
CSLAYER1
  6
DOT
 62
     3
100
AcDbLine
 10
10.0
 20
275.0
 30
0.0
 11
10.0
 21
3.0
 31
0.0
  0
ENDSEC
  0
SECTION
  2
OBJECTS
  0
DICTIONARY
  5
C
330
0
100
AcDbDictionary
  3
ACAD_GROUP
350
D
  3
ACAD_LAYOUT
350
19
  3
ACAD_MLINESTYLE
350
16
  3
ACAD_PLOTSETTINGS
350
18
1001
ACAD
1000
TREAT_AS_HARD
1070
     0
  0
DICTIONARY
  5
40A
330
1E
100
AcDbDictionary
  3
ACAD_LAYOUTSELFREF
350
40B
  0
DICTIONARY
  5
408
330
1A
100
AcDbDictionary
  3
ACAD_LAYOUTSELFREF
350
409
  0
DICTIONARY
  5
D
102
{ACAD_REACTORS
330
C
102
}
330
C
100
AcDbDictionary
1001
ACAD
1000
TREAT_AS_HARD
1070
     0
  0
DICTIONARY
  5
19
102
{ACAD_REACTORS
330
C
102
}
330
C
100
AcDbDictionary
1001
ACAD
1000
TREAT_AS_HARD
1070
     0
  0
DICTIONARY
  5
16
102
{ACAD_REACTORS
330
C
102
}
330
C
100
AcDbDictionary
  3
STANDARD
350
17
1001
ACAD
1000
TREAT_AS_HARD
1070
     0
  0
DICTIONARY
  5
18
102
{ACAD_REACTORS
330
C
102
}
330
C
100
AcDbDictionary
1001
ACAD
1000
TREAT_AS_HARD
1070
     0
  0
XRECORD
  5
40B
102
{ACAD_REACTORS
330
40A
102
}
330
40A
100
AcDbXrecord
340
1E
  0
XRECORD
  5
409
102
{ACAD_REACTORS
330
408
102
}
330
408
100
AcDbXrecord
340
1A
  0
MLINESTYLE
  5
17
102
{ACAD_REACTORS
330
16
102
}
330
16
100
AcDbMlineStyle
  2
STANDARD
 70
     0
  3

 62
   256
 51
90.0
 52
90.0
 71
     2
 49
0.5
 62
   256
  6
BYLAYER
 49
-0.5
 62
   256
  6
BYLAYER
  0
ENDSEC
  0
EOF
